<?xml version="1.0" standalone="no"?>
<!DOCTYPE svg PUBLIC "-//W3C//DTD SVG 1.1//EN" "http://www.w3.org/Graphics/SVG/1.1/DTD/svg11.dtd" >
<svg>
<metadata>
Created by FontForge 20090914 at Mon Oct 18 17:58:50 2021
 By www-data
2012 Erik Spiekermann, Christian Schwartz, Kris Sowersby, Cyrillic/Greek by Ralph du Carrois, Cyrillic/Greek by Botjo Nikoltchev published by FSI FontShop International GmbH
</metadata>
<defs>
<font id="MetaSerifPro-Light" horiz-adv-x="0" >
  <font-face 
    font-family="MetaSerifPro-Light"
    font-weight="350"
    font-stretch="normal"
    units-per-em="1000"
    panose-1="2 1 5 4 5 1 1 2 1 2"
    ascent="763"
    descent="-237"
    x-height="485"
    cap-height="682.999"
    bbox="-829 -275.003 1412 1063"
    underline-thickness="44"
    underline-position="-147"
    unicode-range="U+000D-U+FEFF"
  />
<missing-glyph horiz-adv-x="541" 
d="M71 0v683h399v-683h-399zM109 44h323v595h-323v-595z" />
    <glyph glyph-name="f_b" unicode="fb" horiz-adv-x="843" 
d="M719 253c0 68 -9.49902 115.832 -28.499 143.499s-49.5 41.5 -91.5 41.5c-26.667 0 -52.167 -7.16699 -76.5 -21.5s-43.833 -30.5 -58.5 -48.5v-258c15.333 -14.667 27.5 -25.667 36.5 -33s22.167 -14.666 39.5 -21.999s35.666 -11 54.999 -11
c43.333 0 74.833 15.5 94.5 46.5s29.5 85.167 29.5 162.5zM464.001 723.999v-309.997c52.667 55.333 106 83 160 83c56 0 100.167 -20.833 132.5 -62.5s48.5 -102.834 48.5 -183.501c0 -82 -16.667 -146 -50 -192s-80.333 -69 -141 -69c-56 0 -109.333 28 -160 84
c-13.333 -37.333 -24.666 -62 -33.999 -74h-46c7.33301 21.333 11 59.333 11 114v467c0 66.667 -33 100 -99 100c-36.667 0 -63.334 -10.333 -80.001 -31s-25 -53.334 -25 -98.001v-67h120l-13 -49h-106v-335c0 -27.333 4.16699 -45.833 12.5 -55.5s25.833 -15.5 52.5 -17.5
v-28h-214v28c27.333 2.66699 45.833 8.66699 55.5 18s14.5 27.666 14.5 54.999v335h-63v27l63 23v65c0 54 17 96.333 51 127s81 46 141 46c45.333 0 85 -9.33301 119 -28l26 28h24z" />
    <glyph glyph-name="f_f" unicode="ff" horiz-adv-x="583" 
d="M182 436l-0.00292969 -334.997c0 -27.333 4.16699 -45.833 12.5 -55.5s25.833 -15.5 52.5 -17.5v-28h-214v28c27.333 2.66699 45.833 8.66699 55.5 18s14.5 27.666 14.5 54.999v335h-63v27l63 23v48c0 52 16.667 93.333 50 124s79 46 137 46c48 0 89.667 -15 125 -45
c33.333 43.333 74.333 65 123 65c32.667 0 63.334 -5.33301 92.001 -16v-79h-49c-5.33301 34.667 -22.666 52 -51.999 52c-44 0 -66 -32.667 -66 -98v-98h120l-13 -49h-106v-335c0 -26.667 5.83301 -44.834 17.5 -54.501s35.5 -15.834 71.5 -18.501v-28h-234v28
c26.667 2 44.334 7.5 53.001 16.5s13 27.833 13 56.5v335h-203zM180.997 535.003v-50h204v74c0 68 -33.667 102 -101 102c-68.667 0 -103 -42 -103 -126z" />
    <glyph glyph-name="f_f_b" unicode="ffb" horiz-adv-x="1125" 
d="M746 724v-309.997c51.333 55.333 104.666 83 159.999 83c56 0 100.167 -20.833 132.5 -62.5s48.5 -102.834 48.5 -183.501c0 -82 -16.667 -146 -50 -192s-80.333 -69 -141 -69c-56 0 -109.333 28 -160 84c-13.333 -37.333 -24.666 -62 -33.999 -74h-46
c7.33301 21.333 11 59.333 11 114v467c0 66.667 -33 100 -99 100c-36.667 0 -63.334 -10.333 -80.001 -31s-25 -53.334 -25 -98.001v-67h120l-13 -49h-106v-335c0 -27.333 4.16699 -45.833 12.5 -55.5s25.833 -15.5 52.5 -17.5v-28h-210v28c26.667 2 44.334 7.5 53.001 16.5
s13 27.833 13 56.5v335h-203v-335c0 -27.333 4.16699 -45.833 12.5 -55.5s25.833 -15.5 52.5 -17.5v-28h-214v28c27.333 2.66699 45.833 8.66699 55.5 18s14.5 27.666 14.5 54.999v335h-63v27l63 23v48c0 52 16.667 93.333 50 124s79 46 137 46c50 0 92.333 -15.667 127 -47
c38 44.667 91.333 67 160 67c45.333 0 85 -9.33301 119 -28l26 28h24zM181 535.003v-50h204v72c0 69.333 -33.667 104 -101 104c-68.667 0 -103 -42 -103 -126zM1001 253.003c0 68 -9.49902 115.831 -28.499 143.498s-49.5 41.5 -91.5 41.5c-26.667 0 -52.5 -7 -77.5 -21
s-44.167 -29.667 -57.5 -47v-259c16 -15.333 28.333 -26.666 37 -33.999s21.667 -14.666 39 -21.999s35.666 -11 54.999 -11c43.333 0 74.833 15.5 94.5 46.5s29.5 85.167 29.5 162.5z" />
    <glyph glyph-name="f_f_h" unicode="ffh" horiz-adv-x="1143" 
d="M746 724l-0.00195312 -314.997c28.667 28.667 56.334 50.5 83.001 65.5s56.667 22.5 90 22.5c38.667 0 69.834 -11.5 93.501 -34.5s35.5 -55.167 35.5 -96.5v-265c0 -28.667 4.16699 -47.5 12.5 -56.5s25.833 -14.5 52.5 -16.5v-28h-214v28
c28.667 2.66699 47.5 8.33398 56.5 17.001s13.5 25 13.5 49v254c0 30 -6.5 51.667 -19.5 65s-32.833 20 -59.5 20c-28.667 0 -53.667 -6 -75 -18s-44.333 -30 -69 -54v-267c0 -24 4.5 -40.333 13.5 -49s27.833 -14.334 56.5 -17.001v-28h-219v28
c27.333 2.66699 45.833 8.66699 55.5 18s14.5 27.666 14.5 54.999v480c0 66.667 -33 100 -99 100c-36.667 0 -63.334 -10.333 -80.001 -31s-25 -53.334 -25 -98.001v-67h120l-13 -49h-106v-335c0 -27.333 4.16699 -45.833 12.5 -55.5s25.833 -15.5 52.5 -17.5v-28h-210v28
c26.667 2 44.334 7.5 53.001 16.5s13 27.833 13 56.5v335h-203v-335c0 -27.333 4.16699 -45.833 12.5 -55.5s25.833 -15.5 52.5 -17.5v-28h-214v28c27.333 2.66699 45.833 8.66699 55.5 18s14.5 27.666 14.5 54.999v335h-63v27l63 23v48c0 52 16.667 93.333 50 124
s79 46 137 46c50 0 92.333 -15.667 127 -47c38 44.667 91.333 67 160 67c45.333 0 85 -9.33301 119 -28l26 28h24zM180.998 535.003v-50h204v72c0 69.333 -33.667 104 -101 104c-68.667 0 -103 -42 -103 -126z" />
    <glyph glyph-name="f_f_i" unicode="ffi" horiz-adv-x="846" 
d="M419 657c32.667 44.667 80.665 67 143.998 67c48 0 86.667 -5.33301 116 -16v-86h-61c-2.66699 18 -9.5 32.333 -20.5 43s-25.5 16 -43.5 16c-60.667 0 -91 -42 -91 -126v-70h222l48 13h13v-397c0 -27.333 4.5 -45.666 13.5 -54.999s27.833 -15.333 56.5 -18v-28h-215v28
c26.667 2 44.334 7.5 53.001 16.5s13 27.833 13 56.5v247c0 37.333 -5 61.333 -15 72s-31.333 16 -64 16h-124v-335c0 -27.333 4.16699 -45.833 12.5 -55.5s25.833 -15.5 52.5 -17.5v-28h-210v28c26.667 2 44.334 7.5 53.001 16.5s13 27.833 13 56.5v335h-203v-335
c0 -27.333 4.16699 -45.833 12.5 -55.5s25.833 -15.5 52.5 -17.5v-28h-214v28c27.333 2.66699 45.833 8.66699 55.5 18s14.5 27.666 14.5 54.999v335h-63v27l63 23v48c0 52 16.667 93.333 50 124s79 46 137 46c56 0 99 -15.667 129 -47zM384.998 485v72
c0 69.333 -33.667 104 -101 104c-68.667 0 -103 -42 -103 -126v-50h204z" />
    <glyph glyph-name="f_f_j" unicode="ffj" horiz-adv-x="813" 
d="M385 485v72c0 69.333 -33.667 104 -101 104c-68.667 0 -103 -42 -103 -126v-50h204zM590 436h-125.998v-335c0 -27.333 4.16699 -45.833 12.5 -55.5s25.833 -15.5 52.5 -17.5v-28h-210v28c26.667 2 44.334 7.5 53.001 16.5s13 27.833 13 56.5v335h-203v-335
c0 -27.333 4.16699 -45.833 12.5 -55.5s25.833 -15.5 52.5 -17.5v-28h-214v28c27.333 2.66699 45.833 8.66699 55.5 18s14.5 27.666 14.5 54.999v335h-63v27l63 23v48c0 52 16.667 93.333 50 124s79 46 137 46c53.333 0 96.666 -16.667 129.999 -50
c34.667 46.667 82.334 70 143.001 70c48 0 86.667 -5.33301 116 -16v-86h-61c-2.66699 18 -9.5 32.333 -20.5 43s-25.5 16 -43.5 16c-60.667 0 -91 -42 -91 -126v-70h214l46 13h13v-490c0 -34.667 -2.83301 -63.834 -8.5 -87.501s-15.334 -43.167 -29.001 -58.5
s-26.834 -27.166 -39.501 -35.499s-31.334 -18.166 -56.001 -29.499l-25 33c30 14 50.667 34.167 62 60.5s17 65.833 17 118.5v339c0 34.667 -4.5 58 -13.5 70s-26.833 18 -53.5 18z" />
    <glyph glyph-name="f_f_k" unicode="ffk" horiz-adv-x="1095" 
d="M962 393l-114 -112l152 -192c28.667 -36 57.667 -56.333 87 -61v-28h-111l-207 259l135 138c13.333 13.333 20 24.333 20 33c0 14.667 -15 23.667 -45 27v28h176v-28c-14.667 -2 -28.167 -7.66699 -40.5 -17s-29.833 -25 -52.5 -47zM418 659
c36 43.333 89 65.0029 159 65.0029c45.333 0 85 -9.33301 119 -28l26 28h24v-620c0 -28 4.83301 -47 14.5 -57s29.5 -16.333 59.5 -19v-28h-227v28c28.667 2.66699 48.167 8.66699 58.5 18s15.5 27.666 15.5 54.999v480c0 66.667 -33 100 -99 100
c-36.667 0 -63.334 -10.333 -80.001 -31s-25 -53.334 -25 -98.001v-67h120l-13 -49h-106v-335c0 -27.333 4.16699 -45.833 12.5 -55.5s25.833 -15.5 52.5 -17.5v-28h-210v28c26.667 2 44.334 7.5 53.001 16.5s13 27.833 13 56.5v335h-203v-335
c0 -27.333 4.16699 -45.833 12.5 -55.5s25.833 -15.5 52.5 -17.5v-28h-214v28c27.333 2.66699 45.833 8.66699 55.5 18s14.5 27.666 14.5 54.999v335h-63v27l63 23v48c0 52 16.667 93.333 50 124s79 46 137 46c52 0 94.667 -15 128 -45zM181 535.003v-50h204v72
c0 69.333 -33.667 104 -101 104c-68.667 0 -103 -42 -103 -126z" />
    <glyph glyph-name="f_f_l" unicode="ffl" horiz-adv-x="850" 
d="M416 659c38 43.333 91.667 65.0029 161 65.0029c46 0 86 -9.33301 120 -28l28 28h21v-620c0 -28 4.83301 -47 14.5 -57s29.5 -16.333 59.5 -19v-28h-227v28c28.667 2.66699 48.167 8.66699 58.5 18s15.5 27.666 15.5 54.999v480c0 66.667 -33 100 -99 100
c-36.667 0 -63.334 -10.333 -80.001 -31s-25 -53.334 -25 -98.001v-67h120l-13 -49h-106v-335c0 -27.333 4.16699 -45.833 12.5 -55.5s25.833 -15.5 52.5 -17.5v-28h-210v28c26.667 2 44.334 7.5 53.001 16.5s13 27.833 13 56.5v335h-203v-335
c0 -27.333 4.16699 -45.833 12.5 -55.5s25.833 -15.5 52.5 -17.5v-28h-214v28c27.333 2.66699 45.833 8.66699 55.5 18s14.5 27.666 14.5 54.999v335h-63v27l63 23v48c0 52 16.667 93.333 50 124s79 46 137 46c52.667 0 94.667 -15 126 -45zM181 535.003v-50h204v72
c0 69.333 -33.667 104 -101 104c-68.667 0 -103 -42 -103 -126z" />
    <glyph glyph-name="f_f_t" unicode="fft" horiz-adv-x="893" 
d="M463 485l209.998 0.00390625c12.667 66 26.667 112 42 138l39 9c-5.33301 -38.667 -8 -87.667 -8 -147h118l-13 -49h-106v-305c0 -40 4.66699 -66.5 14 -79.5s28 -19.5 56 -19.5c15.333 0 32.666 3 51.999 9l7 -32c-32 -15.333 -63 -23 -93 -23
c-38.667 0 -67.5 10.167 -86.5 30.5s-28.5 54.166 -28.5 101.499v318h-202v-335c0 -26.667 5.83301 -44.834 17.5 -54.501s35.5 -15.834 71.5 -18.501v-28h-234v28c26.667 2 44.334 7.5 53.001 16.5s13 27.833 13 56.5v335h-203v-335c0 -27.333 4.16699 -45.833 12.5 -55.5
s25.833 -15.5 52.5 -17.5v-28h-214v28c27.333 2.66699 45.833 8.66699 55.5 18s14.5 27.666 14.5 54.999v335h-63v27l63 23v48c0 52 16.667 93.333 50 124s79 46 137 46c48 0 89.667 -15 125 -45c33.333 43.333 74.333 65 123 65c32.667 0 63.334 -5.33301 92.001 -16v-79
h-49c-5.33301 34.667 -22.666 52 -51.999 52c-44 0 -66 -32.667 -66 -98v-98zM180.998 535.004v-50h204v74c0 68 -33.667 102 -101 102c-68.667 0 -103 -42 -103 -126z" />
    <glyph glyph-name="f_h" unicode="fh" horiz-adv-x="861" 
d="M464 724l-0.000976562 -314.997c28.667 28.667 56.334 50.5 83.001 65.5s56.667 22.5 90 22.5c38.667 0 69.834 -11.5 93.501 -34.5s35.5 -55.167 35.5 -96.5v-265c0 -28.667 4.16699 -47.5 12.5 -56.5s25.833 -14.5 52.5 -16.5v-28h-214v28
c28.667 2.66699 47.5 8.33398 56.5 17.001s13.5 25 13.5 49v254c0 30 -6.5 51.667 -19.5 65s-32.833 20 -59.5 20c-28.667 0 -53.667 -6 -75 -18s-44.333 -30 -69 -54v-267c0 -24 4.5 -40.333 13.5 -49s27.833 -14.334 56.5 -17.001v-28h-219v28
c27.333 2.66699 45.833 8.66699 55.5 18s14.5 27.666 14.5 54.999v480c0 66.667 -33 100 -99 100c-36.667 0 -63.334 -10.333 -80.001 -31s-25 -53.334 -25 -98.001v-67h120l-13 -49h-106v-335c0 -27.333 4.16699 -45.833 12.5 -55.5s25.833 -15.5 52.5 -17.5v-28h-214v28
c27.333 2.66699 45.833 8.66699 55.5 18s14.5 27.666 14.5 54.999v335h-63v27l63 23v65c0 54 17 96.333 51 127s81 46 141 46c45.333 0 85 -9.33301 119 -28l26 28h24z" />
    <glyph glyph-name="f_i" unicode="fi" horiz-adv-x="564" 
d="M182 436l-0.00195312 -335c0 -27.333 4.16699 -45.833 12.5 -55.5s25.833 -15.5 52.5 -17.5v-28h-214v28c27.333 2.66699 45.833 8.66699 55.5 18s14.5 27.666 14.5 54.999v335h-63v27l63 23v68c0 52 16 93.333 48 124s75.333 46 130 46c48 0 86.667 -5.33301 116 -16
v-86h-61c-2.66699 18 -9.5 32.333 -20.5 43s-25.5 16 -43.5 16c-60.667 0 -91 -42 -91 -126v-70h222l48 13h13v-397c0 -27.333 4.5 -45.666 13.5 -54.999s27.833 -15.333 56.5 -18v-28h-215v28c26.667 2 44.334 7.5 53.001 16.5s13 27.833 13 56.5v247
c0 34.667 -4.66699 58 -14 70s-28.666 18 -57.999 18h-131z" />
    <glyph glyph-name="f_j" unicode="fj" horiz-adv-x="531" 
d="M375 9l0.00292969 339c0 34.667 -4.5 58 -13.5 70s-26.833 18 -53.5 18h-126v-335c0 -27.333 4.16699 -45.833 12.5 -55.5s25.833 -15.5 52.5 -17.5v-28h-214v28c27.333 2.66699 45.833 8.66699 55.5 18s14.5 27.666 14.5 54.999v335h-63v27l63 23v68
c0 52 16 93.333 48 124s75.333 46 130 46c48 0 86.667 -5.33301 116 -16v-86h-61c-2.66699 18 -9.5 32.333 -20.5 43s-25.5 16 -43.5 16c-60.667 0 -91 -42 -91 -126v-70h214l46 13h13v-490c0 -34.667 -2.83301 -63.834 -8.5 -87.501s-15.334 -43.167 -29.001 -58.5
s-26.834 -27.166 -39.501 -35.499s-31.334 -18.166 -56.001 -29.499l-25 33c30 14 50.667 34.167 62 60.5s17 65.833 17 118.5z" />
    <glyph glyph-name="f_k" unicode="fk" horiz-adv-x="812" 
d="M683 397l-118 -116l152 -192c28.667 -36 57.667 -56.333 87 -61v-28h-111l-207 259l135 138c13.333 13.333 20 24.333 20 33c0 14.667 -15 23.667 -45 27v28h176v-28c-14.667 -2 -28.167 -7.5 -40.5 -16.5s-28.5 -23.5 -48.5 -43.5zM385 101l0.000976562 480.002
c0 66.667 -33 100 -99 100c-36.667 0 -63.334 -10.333 -80.001 -31s-25 -53.334 -25 -98.001v-67h120c-1.33301 -6.66699 -3.5 -15.167 -6.5 -25.5s-5.16699 -18.166 -6.5 -23.499h-106v-335c0 -27.333 4.16699 -45.833 12.5 -55.5s25.833 -15.5 52.5 -17.5v-28h-214v28
c27.333 2.66699 45.833 8.66699 55.5 18s14.5 27.666 14.5 54.999v335h-63v27l63 23v65c0 54 17 96.333 51 127s81 46 141 46c45.333 0 85 -9.33301 119 -28l27 28h23v-620c0 -28 4.83301 -47 14.5 -57s29.5 -16.333 59.5 -19v-28h-227v28
c28.667 2.66699 48.167 8.66699 58.5 18s15.5 27.666 15.5 54.999z" />
    <glyph glyph-name="f_l" unicode="fl" horiz-adv-x="568" 
d="M385 101l0.000976562 480.003c0 66.667 -33 100 -99 100c-36.667 0 -63.334 -10.333 -80.001 -31s-25 -53.334 -25 -98.001v-67h120l-13 -49h-106v-335c0 -27.333 4.16699 -45.833 12.5 -55.5s25.833 -15.5 52.5 -17.5v-28h-214v28
c27.333 2.66699 45.833 8.66699 55.5 18s14.5 27.666 14.5 54.999v335h-63v27l63 23v65c0 54 17 96.333 51 127s81 46 141 46c46 0 86 -9.33301 120 -28l25 28h24v-620c0 -28 4.83301 -47 14.5 -57s29.5 -16.333 59.5 -19v-28h-227v28
c28.667 2.66699 48.167 8.66699 58.5 18s15.5 27.666 15.5 54.999z" />
    <glyph glyph-name="f_t" unicode="ft" horiz-adv-x="611" 
d="M384 436l-202.001 0.00390625v-335c0 -26.667 5.83301 -44.834 17.5 -54.501s35.5 -15.834 71.5 -18.501v-28h-238v28c27.333 2.66699 45.833 8.66699 55.5 18s14.5 27.666 14.5 54.999v335h-63v27l63 23v96c0 44 14 78.667 42 104s65 38 111 38
c32.667 0 63.334 -5.33301 92.001 -16v-79h-49c-5.33301 34.667 -22.666 52 -51.999 52c-44 0 -66 -32.667 -66 -98v-98h210c12.667 66 26.667 112 42 138l39 9c-5.33301 -38.667 -8 -87.667 -8 -147h118l-13 -49h-106v-305c0 -40 4.66699 -66.5 14 -79.5s28 -19.5 56 -19.5
c15.333 0 32.666 3 51.999 9l7 -32c-32 -15.333 -63 -23 -93 -23c-38.667 0 -67.5 10.167 -86.5 30.5s-28.5 54.166 -28.5 101.499v318z" />
    <glyph glyph-name=".notdef" horiz-adv-x="541" 
d="M71 0v683h399v-683h-399zM109 44h323v595h-323v-595z" />
    <glyph glyph-name=".null" 
 />
    <glyph glyph-name=".null" 
 />
    <glyph glyph-name="CR" unicode="&#xd;" horiz-adv-x="225" 
 />
    <glyph glyph-name="space" unicode=" " horiz-adv-x="225" 
 />
    <glyph glyph-name="exclam" unicode="!" horiz-adv-x="277" 
d="M116 210l-31 471l103 16l-31 -487h-41zM137 -8c-16.667 0 -30.999 6.33301 -42.999 19s-18 28 -18 46c0 17.333 6 32 18 44s26.667 18 44 18s32.166 -6.16699 44.499 -18.5s18.5 -26.833 18.5 -43.5c0 -18 -6.33301 -33.333 -19 -46s-27.667 -19 -45 -19z" />
    <glyph glyph-name="quotedbl" unicode="&#x22;" horiz-adv-x="418" 
d="M335 453h-73v250h73v-250zM156 453h-73v250h73v-250z" />
    <glyph glyph-name="numbersign" unicode="#" horiz-adv-x="545" 
d="M67 430v63h102l29 209h52l-29 -209h140l29 209h52l-29 -209h94v-63h-103l-21 -157h94v-62h-103l-29 -211h-53l29 211h-140l-29 -211h-52l29 211h-91v62h101l20 157h-92zM212 430l-21 -157h140l21 157h-140z" />
    <glyph glyph-name="dollar" unicode="$" horiz-adv-x="530" 
d="M280 -100l-33 0.000976562v89c-81.333 0 -149.666 17.667 -204.999 53v120h57c6.66699 -44.667 20.5 -77.334 41.5 -98.001s56.5 -32 106.5 -34v282l-41 13c-50.667 16 -88.5 38 -113.5 66s-37.5 65.333 -37.5 112c0 52 17 95.333 51 130s81 54.667 141 60v86h33v-84
c75.333 -1.33301 133.666 -17.333 174.999 -48v-104h-53c-6 32.667 -18 58.167 -36 76.5s-46.667 29.5 -86 33.5v-255c135.333 -34 203 -100.667 203 -200c0 -58.667 -17.5 -106 -52.5 -142s-85.167 -57.333 -150.5 -64v-92zM408 163.001c0 40 -9.33301 69.333 -28 88
s-52 36 -100 52v-273c85.333 10 128 54.333 128 133zM125 534.001c0 -34.667 9 -60.832 27 -78.499s49.667 -33.834 95 -48.501v247c-38.667 -3.33301 -68.667 -15.5 -90 -36.5s-32 -48.833 -32 -83.5z" />
    <glyph glyph-name="percent" unicode="%" horiz-adv-x="887" 
d="M334 439c0 -60 -14.333 -108.001 -43 -144.001s-64.667 -54 -108 -54c-42.667 0 -78.167 18.333 -106.5 55s-42.5 85.334 -42.5 146.001s14.167 109.667 42.5 147s63.5 56 105.5 56c45.333 0 82 -19.667 110 -59s42 -88.333 42 -147zM266 433.999
c0 120 -27.333 180 -82 180c-28.667 0 -49.167 -13.167 -61.5 -39.5s-18.5 -67.5 -18.5 -123.5c0 -64 6.33301 -110 19 -138s33 -42 61 -42c54.667 0 82 54.333 82 163zM702 723.999l-485 -847h-44l484 847h45zM853 188.999c0 -60 -14.333 -108.001 -43 -144.001
s-64.667 -54 -108 -54c-42.667 0 -78.167 18.333 -106.5 55s-42.5 85.334 -42.5 146.001s14.167 109.667 42.5 147s63.5 56 105.5 56c45.333 0 82 -19.667 110 -59s42 -88.333 42 -147zM785 183.998c0 120 -27.333 180 -82 180c-28.667 0 -49.167 -13.167 -61.5 -39.5
s-18.5 -67.5 -18.5 -123.5c0 -64 6.33301 -110 19 -138s33 -42 61 -42c54.667 0 82 54.333 82 163z" />
    <glyph glyph-name="ampersand" unicode="&#x26;" horiz-adv-x="689" 
d="M462 545c0 -40 -13.3369 -74.5029 -40.0039 -103.503s-65.334 -56.167 -116.001 -81.5l205 -206c15.333 36 23 74.333 23 115c0 29.333 -4.83301 49.5 -14.5 60.5s-30.167 17.167 -61.5 18.5v29h202v-29c-30.667 -1.33301 -50.167 -7.16602 -58.5 -17.499
s-14.166 -30.833 -17.499 -61.5c-6 -52 -21 -99.667 -45 -143l70 -70c16.667 -18 41.334 -27.667 74.001 -29v-27h-131l-63 63c-55.333 -49.333 -124.666 -74 -207.999 -74c-77.333 0 -136.5 15.5 -177.5 46.5s-61.5 71.167 -61.5 120.5c0 46.667 12.667 82.5 38 107.5
s68.333 52.167 129 81.5l-33 33c-23.333 23.333 -39.666 40.333 -48.999 51s-18.166 26.334 -26.499 47.001s-12.5 43.667 -12.5 69c0 40.667 16.667 75.834 50 105.501s78 44.5 134 44.5c60.667 0 107.5 -13 140.5 -39s49.5 -63 49.5 -111zM300.996 28.9971
c66.667 0 121.333 19.332 164 57.999l-234 236c-36 -23.333 -61.167 -44.5 -75.5 -63.5s-21.5 -45.833 -21.5 -80.5c0 -41.333 14.667 -76.666 44 -105.999s70.333 -44 123 -44zM168.995 551.996c0 -39.333 27.333 -85.001 82 -137.001l35 -34
c38 29.333 62.833 54.333 74.5 75s17.5 50.334 17.5 89.001c0 74 -35.333 111 -106 111c-32 0 -57.167 -9.16699 -75.5 -27.5s-27.5 -43.833 -27.5 -76.5z" />
    <glyph glyph-name="quotesingle" unicode="'" horiz-adv-x="239" 
d="M156 453h-73v250h73v-250z" />
    <glyph glyph-name="parenleft" unicode="(" horiz-adv-x="325" 
d="M136 321c0 -50 1.83301 -94.334 5.5 -133.001s10.834 -79.5 21.501 -122.5s27.5 -81 50.5 -114s52.167 -59.5 87.5 -79.5l-14 -29c-151.333 66.667 -227 225.334 -227 476.001c0 106.667 16.5 196.167 49.5 268.5s92.167 131.833 177.5 178.5l14 -28
c-66.667 -43.333 -110.834 -97.833 -132.501 -163.5s-32.5 -150.167 -32.5 -253.5z" />
    <glyph glyph-name="parenright" unicode=")" horiz-adv-x="325" 
d="M189 321c0 50 -1.83398 92.498 -5.50098 127.498s-10.834 71.5 -21.501 109.5s-27.5 71.833 -50.5 101.5s-52.167 55.834 -87.5 78.501l13 28c84.667 -46.667 143.834 -106.5 177.501 -179.5s50.5 -162.167 50.5 -267.5c0 -250.667 -75.667 -409.334 -227 -476.001
l-14 29c28.667 16 53.167 36.333 73.5 61s36.333 50.334 48 77.001s20.834 58.334 27.501 95.001s11 71 13 103s3 69.667 3 113z" />
    <glyph glyph-name="asterisk" unicode="*" horiz-adv-x="453" 
d="M411 551l-126 -62l69 -127l-30 -24l-99 108l-96 -105l-29 21l68 127l-125 64l11 35l139 -29l19 143h30l17 -143l139 29z" />
    <glyph glyph-name="plus" unicode="+" horiz-adv-x="565" 
d="M258 501h47v-209h204v-47h-204v-211h-47v211h-202v47h202v209z" />
    <glyph glyph-name="comma" unicode="," horiz-adv-x="286" 
d="M212 28c0 -38 -12.6689 -72.833 -38.002 -104.5s-58.666 -53.167 -99.999 -64.5l-20 30c57.333 22 86 49 86 81c0 8 -2.66699 14 -8 18s-14.333 8.66699 -27 14c-27.333 12 -41 31 -41 57c0 18 6.66699 33.667 20 47s30 20 50 20c22.667 0 41.334 -9.16699 56.001 -27.5
s22 -41.833 22 -70.5z" />
    <glyph glyph-name="hyphen" unicode="-" horiz-adv-x="303" 
d="M247 235h-191v65h191v-65z" />
    <glyph glyph-name="period" unicode="." horiz-adv-x="260" 
d="M198 56c0 -19.333 -6.5 -35.833 -19.5 -49.5s-29.167 -20.5 -48.5 -20.5s-35.5 6.83301 -48.5 20.5s-19.5 30.167 -19.5 49.5s6.5 35.833 19.5 49.5s29.167 20.5 48.5 20.5s35.5 -6.83301 48.5 -20.5s19.5 -30.167 19.5 -49.5z" />
    <glyph glyph-name="slash" unicode="/" horiz-adv-x="392" 
d="M34 -149l258 904h56l-258 -904h-56z" />
    <glyph glyph-name="zero" unicode="0" horiz-adv-x="544" 
d="M501 243c0 -77.333 -21.667 -139.501 -65 -186.501s-98 -70.5 -164 -70.5c-66.667 0 -121.5 23.833 -164.5 71.5s-64.5 111.167 -64.5 190.5c0 78.667 21.333 141.834 64 189.501s97 71.5 163 71.5c70 0 126 -25.167 168 -75.5s63 -113.833 63 -190.5zM415 238.999
c0 151.333 -48.334 227 -145.001 227c-94 0 -141 -69.333 -141 -208c0 -77.333 11.5 -134.833 34.5 -172.5s59.833 -56.5 110.5 -56.5c44.667 0 79.334 18.5 104.001 55.5s37 88.5 37 154.5z" />
    <glyph glyph-name="one" unicode="1" horiz-adv-x="399" 
d="M258 507l-0.000976562 -402c0 -31.333 5.16699 -51.5 15.5 -60.5s37.5 -14.5 81.5 -16.5v-28h-282v28c46 2 75.167 7.5 87.5 16.5s18.5 29.5 18.5 61.5v320c-39.333 -20.667 -78.666 -37.667 -117.999 -51l-11 27l159 105h49z" />
    <glyph glyph-name="two" unicode="2" horiz-adv-x="443" 
d="M218 511c58.667 0 102.998 -13.667 132.998 -41s45 -63.666 45 -108.999c0 -46 -16.167 -86.5 -48.5 -121.5s-89.833 -80.833 -172.5 -137.5l-51 -35h286l-16 -67h-366v42l95 72c30.667 23.333 55.334 42.833 74.001 58.5s37.834 34 57.501 55s34.167 42.167 43.5 63.5
s14 43.333 14 66c0 31.333 -9.66699 55.666 -29 72.999s-46 26 -80 26c-48.667 0 -94.667 -12.333 -138 -37l-22 36c52.667 37.333 111 56 175 56z" />
    <glyph glyph-name="three" unicode="3" horiz-adv-x="465" 
d="M209 455c-56.667 0 -106.998 -15.3369 -150.998 -46.0039l-26 32c60 46.667 122.667 70 188 70c56.667 0 101.5 -13.667 134.5 -41s49.5 -64.666 49.5 -111.999c0 -36.667 -11.167 -69 -33.5 -97s-53.833 -48 -94.5 -60c45.333 -9.33301 81 -27.666 107 -54.999
s39 -59.333 39 -96c0 -46 -14.333 -85.667 -43 -119s-64.667 -57.5 -108 -72.5s-90.333 -22.5 -141 -22.5c-39.333 0 -74 3.66699 -104 11l-10 38c37.333 -4.66699 68.333 -7 93 -7c70 0 125.333 13.833 166 41.5s61 69.834 61 126.501c0 48 -13.167 81.167 -39.5 99.5
s-67.5 27.5 -123.5 27.5c-17.333 0 -30.333 -0.333008 -39 -1v44c21.333 -1.33301 37.666 -2 48.999 -2c47.333 0 82.666 10.833 105.999 32.5s35 57.834 35 108.501c0 30 -10.333 54.167 -31 72.5s-48.667 27.5 -84 27.5z" />
    <glyph glyph-name="four" unicode="4" horiz-adv-x="534" 
d="M333 -178v196h-305v39l223 458h87l-249 -454h244c0.666992 104.667 13.667 197 39 277l40 14v-291h84v-43h-84v-179z" />
    <glyph glyph-name="five" unicode="5" horiz-adv-x="456" 
d="M413 57c0 -46 -13.332 -86.333 -39.999 -121s-59.834 -60 -99.501 -76s-81.834 -24 -126.501 -24c-42 0 -79 5.33301 -111 16l-10 39c32 -8 67.333 -12 106 -12c58.667 0 105.834 13.667 141.501 41s53.5 70.333 53.5 129c0 92.667 -44.667 139 -134 139
c-40 0 -80.333 -7.33301 -121 -22l31 329h297l-14 -69h-240l-19 -203c37.333 9.33301 68 14 92 14c60 0 107.333 -16 142 -48s52 -76 52 -132z" />
    <glyph glyph-name="six" unicode="6" horiz-adv-x="517" 
d="M45 256c0 61.333 9.83496 117.001 29.502 167.001s47.167 92.5 82.5 127.5s74 64.167 116 87.5s88.333 42.333 139 57l12 -35c-42 -16.667 -78.333 -34 -109 -52s-58.834 -39.667 -84.501 -65s-46.5 -55.333 -62.5 -90s-27.333 -74.334 -34 -119.001
c50 39.333 100.333 59 151 59c56 0 102.333 -17 139 -51s55 -80.333 55 -139c0 -62 -19.833 -113.833 -59.5 -155.5s-89.834 -62.5 -150.501 -62.5c-67.333 0 -121.5 24.167 -162.5 72.5s-61.5 114.5 -61.5 198.5zM266.002 342.001c-45.333 0 -90.333 -17.666 -135 -52.999
c-0.666992 -6.66699 -1 -20 -1 -40c0 -147.333 46.333 -221 139 -221c83.333 0 125 57.667 125 173c0 53.333 -11.5 90.166 -34.5 110.499s-54.167 30.5 -93.5 30.5z" />
    <glyph glyph-name="seven" unicode="7" horiz-adv-x="467" 
d="M436 495l-13 -60c-54 -72.667 -102.667 -161.667 -146 -267s-75.666 -212 -96.999 -320l-88 -23c23.333 98 60.666 202 111.999 312s106 206.333 164 289h-336l17 69h387z" />
    <glyph glyph-name="eight" unicode="8" horiz-adv-x="531" 
d="M42 162c0 70.667 49.667 129.333 149 176c-78 40.667 -117 92.667 -117 156c0 48.667 19.167 88.834 57.5 120.501s83.833 47.5 136.5 47.5c57.333 0 103.833 -14.167 139.5 -42.5s53.5 -64.833 53.5 -109.5c0 -60.667 -44 -112 -132 -154
c22 -9.33301 41.167 -18.833 57.5 -28.5s33 -21.834 50 -36.501s30 -32.167 39 -52.5s13.5 -42.5 13.5 -66.5c0 -56 -21.167 -100.833 -63.5 -134.5s-96.166 -50.5 -161.499 -50.5c-68.667 0 -122.834 16.667 -162.501 50s-59.5 75 -59.5 125zM411 152.999
c0 41.333 -13.667 72.833 -41 94.5s-77 47.167 -149 76.5c-64.667 -44.667 -97 -96.667 -97 -156c0 -44.667 12.167 -79 36.5 -103s59.5 -36 105.5 -36c44 0 79.167 11.167 105.5 33.5s39.5 52.5 39.5 90.5zM149 507.999c0 -32 10.499 -57.833 31.499 -77.5
s59.167 -40.5 114.5 -62.5c57.333 39.333 86 85.333 86 138c0 36 -9.66699 64 -29 84s-47.666 30 -84.999 30c-36.667 0 -65.5 -10.5 -86.5 -31.5s-31.5 -47.833 -31.5 -80.5z" />
    <glyph glyph-name="nine" unicode="9" horiz-adv-x="517" 
d="M75 -191l-28 31.998c104 34 182.833 76.333 236.5 127s86.5 116.334 98.5 197.001c-48.667 -39.333 -98.667 -59 -150 -59c-56 0 -102.333 17 -139 51s-55 80.333 -55 139c0 62 20.333 113.833 61 155.5s91.667 62.5 153 62.5c68 0 121.667 -23 161 -69
s59 -111.667 59 -197c0 -121.333 -36.167 -217.666 -108.5 -288.999s-168.5 -121.333 -288.5 -150zM251 156.998c44.667 0 89.333 16.999 134 50.999c1.33301 12 2 30 2 54c0 75.333 -11.5 129 -34.5 161s-56.5 48 -100.5 48c-86 0 -129 -57.667 -129 -173
c0 -53.333 11.5 -90.166 34.5 -110.499s54.167 -30.5 93.5 -30.5z" />
    <glyph glyph-name="colon" unicode=":" horiz-adv-x="296" 
d="M216 56c0 -19.333 -6.5 -35.833 -19.5 -49.5s-29.167 -20.5 -48.5 -20.5s-35.5 6.83301 -48.5 20.5s-19.5 30.167 -19.5 49.5s6.5 35.833 19.5 49.5s29.167 20.5 48.5 20.5s35.5 -6.83301 48.5 -20.5s19.5 -30.167 19.5 -49.5zM216 370
c0 -19.333 -6.5 -35.833 -19.5 -49.5s-29.167 -20.5 -48.5 -20.5s-35.5 6.83301 -48.5 20.5s-19.5 30.167 -19.5 49.5s6.5 35.833 19.5 49.5s29.167 20.5 48.5 20.5s35.5 -6.83301 48.5 -20.5s19.5 -30.167 19.5 -49.5z" />
    <glyph glyph-name="semicolon" unicode=";" horiz-adv-x="313" 
d="M218 370c0 -19.333 -6.5 -35.833 -19.5 -49.5s-29.167 -20.5 -48.5 -20.5s-35.5 6.83301 -48.5 20.5s-19.5 30.167 -19.5 49.5s6.5 35.833 19.5 49.5s29.167 20.5 48.5 20.5s35.5 -6.83301 48.5 -20.5s19.5 -30.167 19.5 -49.5zM229 28
c0 -38 -12.6689 -72.833 -38.002 -104.5s-58.666 -53.167 -99.999 -64.5l-20 30c57.333 22 86 49 86 81c0 8 -2.66699 14 -8 18s-14.333 8.66699 -27 14c-27.333 12 -41 31 -41 57c0 18 6.66699 33.667 20 47s30 20 50 20c22.667 0 41.334 -9.16699 56.001 -27.5
s22 -41.833 22 -70.5z" />
    <glyph glyph-name="less" unicode="&#x3c;" horiz-adv-x="467" 
d="M411 61l-355 191v70l355 224v-58l-318 -197l318 -175v-55z" />
    <glyph glyph-name="equal" unicode="=" horiz-adv-x="565" 
d="M56 173v47h453v-47h-453zM56 321v47h453v-47h-453z" />
    <glyph glyph-name="greater" unicode="&#x3e;" horiz-adv-x="467" 
d="M411 252l-355 -191v55l318 175l-318 197v58l355 -224v-70z" />
    <glyph glyph-name="question" unicode="?" horiz-adv-x="436" 
d="M205 654c-56.667 0 -88.334 -30.335 -95.001 -91.002h-52v86c40.667 30 93 45 157 45c50 0 90 -12 120 -36s45 -62 45 -114c0 -60 -32 -111 -96 -153c-30.667 -19.333 -51.667 -37.166 -63 -53.499s-17 -39.5 -17 -69.5c0 -15.333 2.33301 -33 7 -53h-30
c-14.667 24 -22 49.667 -22 77c0 44 18.333 83.333 55 118c2 2 8 7.33301 18 16s16.833 15 20.5 19s9.33398 10.667 17.001 20s13.167 17.833 16.5 25.5s6.5 17.167 9.5 28.5s4.5 23.333 4.5 36c0 30.667 -8.83301 54.834 -26.5 72.501s-40.5 26.5 -68.5 26.5zM268 56.998
c0 -19.333 -6.66699 -35.833 -20 -49.5s-29.333 -20.5 -48 -20.5c-18 0 -33.333 6.83301 -46 20.5s-19 30.167 -19 49.5c0 18 6.33301 33.333 19 46s28 19 46 19s33.833 -6.33301 47.5 -19s20.5 -28 20.5 -46z" />
    <glyph glyph-name="at" unicode="@" horiz-adv-x="898" 
d="M610 -1c-39.333 0 -67.998 7.83301 -85.998 23.5s-27 41.834 -27 78.501c-34.667 -68 -85 -102 -151 -102c-34 0 -60.667 11.833 -80 35.5s-29 56.834 -29 99.501c0 93.333 27 168.666 81 225.999s117.667 86 191 86c52 0 96.333 -15.667 133 -47
c-8.66699 -28.667 -16 -56.334 -22 -83.001l-46 -187c-4.66699 -19.333 -7 -36 -7 -50c0 -17.333 4.33301 -29.5 13 -36.5s22.667 -10.5 42 -10.5c40.667 0 77.5 20.167 110.5 60.5s49.5 96.833 49.5 169.5c0 106 -28.667 185.667 -86 239s-133.333 80 -228 80
c-104.667 0 -189.5 -35.333 -254.5 -106s-97.5 -165.667 -97.5 -285c0 -98 27.833 -177.667 83.5 -239s131.167 -92 226.5 -92c59.333 0 112 7.33301 158 22l12 -24c-54.667 -22 -115.334 -33 -182.001 -33c-109.333 0 -197.833 32.667 -265.5 98s-101.5 155 -101.5 269
c0 126 39.5 228.833 118.5 308.5s180.5 119.5 304.5 119.5c115.333 0 207.666 -31.5 276.999 -94.5s104 -146.833 104 -251.5c0 -46.667 -6.83301 -88.167 -20.5 -124.5s-32 -65 -55 -86s-48.5 -36.833 -76.5 -47.5s-57.667 -16 -89 -16zM513.002 186l42.999 186.001
c-11.333 22.667 -31.333 34 -60 34c-55.333 0 -99.166 -25.667 -131.499 -77s-48.5 -114 -48.5 -188c0 -57.333 20 -86 60 -86c14 0 27.167 3.33301 39.5 10s24.5 17 36.5 31s22 27.167 30 39.5s18.333 29.166 31 50.499z" />
    <glyph glyph-name="A" unicode="A" horiz-adv-x="653" 
d="M463 105l-34 110h-240l-34 -110c-4 -14 -6 -26 -6 -36c0 -14.667 5.5 -24.667 16.5 -30s29.833 -8.66602 56.5 -9.99902v-29h-202v29c24 2.66699 41.833 10 53.5 22s22.5 34 32.5 66l183 566h79l181 -564c9.33301 -31.333 19.333 -53.5 30 -66.5s28.667 -20.833 54 -23.5
v-29h-233v29c24 1.33301 41.333 5.5 52 12.5s16 17.833 16 32.5c0 9.33301 -1.66699 19.666 -5 30.999zM249 409l-47.001 -151.998h215l-46 152c-36 117.333 -55.333 181.666 -58 192.999h-4c-5.33301 -20.667 -11.166 -41.334 -17.499 -62.001l-22 -68.5z" />
    <glyph glyph-name="B" unicode="B" horiz-adv-x="601" 
d="M39 0v29.001c30.667 2.66699 51.667 9.66699 63 21s17 30.666 17 57.999v467c0 27.333 -5.66699 46.666 -17 57.999s-32.333 18.333 -63 21v29h246c85.333 0 147.333 -14 186 -42s58 -69.667 58 -125c0 -78 -42 -127.667 -126 -149v-4
c52.667 -8 92.667 -28.167 120 -60.5s41 -71.166 41 -116.499c0 -62 -22.167 -108.5 -66.5 -139.5s-100.5 -46.5 -168.5 -46.5h-290zM202 43.001h133c54 0 91 11.5 111 34.5s30 61.167 30 114.5s-11 90.5 -33 111.5s-63.667 31.5 -125 31.5h-116v-292zM202 377.001
l109.001 0.000976562c49.333 0 84 10.333 104 31s30 53 30 97c0 49.333 -10.333 84.166 -31 104.499s-56.334 30.5 -107.001 30.5h-105v-263z" />
    <glyph glyph-name="C" unicode="C" horiz-adv-x="571" 
d="M344 -11c-100 0 -174.668 30.332 -224.001 90.999s-74 146 -74 256c0 112.667 26.333 200.667 79 264s123 95 211 95c86 0 150 -14.667 192 -44v-109h-58c-10 40 -24.833 68.667 -44.5 86s-50.5 26 -92.5 26c-62.667 0 -110.667 -24.667 -144 -74s-50 -130 -50 -242
c0 -78 8.66699 -140.333 26 -187s40.333 -78.5 69 -95.5s65.334 -25.5 110.001 -25.5c41.333 0 72.5 8.33301 93.5 25s35.167 44.334 42.5 83.001h53v-102l3 2c-46 -32.667 -110 -49 -192 -49z" />
    <glyph glyph-name="D" unicode="D" horiz-adv-x="662" 
d="M39 0l-0.00195312 29c30.667 3.33301 51.667 10.333 63 21s17 30 17 58v467c0 27.333 -5.66699 46.666 -17 57.999s-32.333 18.333 -63 21v29h247c104 0 185 -28.167 243 -84.5s87 -142.166 87 -257.499c0 -51.333 -5.83301 -97 -17.5 -137s-30.167 -75.667 -55.5 -107
s-59.666 -55.333 -102.999 -72s-94.666 -25 -153.999 -25h-247zM204.998 45h90.999c80.667 0 138.834 20.167 174.501 60.5s53.5 114.833 53.5 223.5c0 112.667 -18.5 193 -55.5 241s-93.833 72 -170.5 72h-93v-597z" />
    <glyph glyph-name="E" unicode="E" horiz-adv-x="557" 
d="M39 0v29.002c30.667 2.66699 51.667 9.66699 63 21s17 30.666 17 57.999v467c0 27.333 -5.66699 46.666 -17 57.999s-32.333 18.333 -63 21v29h458l10 -144h-31c-12 40 -24.333 66.833 -37 80.5s-34 20.5 -64 20.5h-173v-262h99c33.333 0 56.5 4.83301 69.5 14.5
s20.5 28.5 22.5 56.5h29v-184h-29c-2 27.333 -9.5 46 -22.5 56s-35.833 15 -68.5 15h-100v-293h174c40.667 0 68.167 7.66699 82.5 23s23.5 46.333 27.5 93h33v-159h-480z" />
    <glyph glyph-name="F" unicode="F" horiz-adv-x="546" 
d="M39 0l0.000976562 29.002c30.667 2.66699 51.667 9.66699 63 21s17 30.666 17 57.999v467c0 27.333 -5.66699 46.666 -17 57.999s-32.333 18.333 -63 21v29h460l12 -149h-31c-15.333 45.333 -29.333 74.333 -42 87s-35.334 19 -68.001 19h-168v-278h99
c33.333 0 56.5 4.83301 69.5 14.5s20.5 28.5 22.5 56.5h29v-187h-29c-2 27.333 -9.66699 46.5 -23 57.5s-36 16.5 -68 16.5h-100v-209c0 -30 6 -50.833 18 -62.5s35.333 -18.167 70 -19.5v-29h-251z" />
    <glyph glyph-name="G" unicode="G" horiz-adv-x="638" 
d="M463 60v165.997c0 30.667 -5.5 51.334 -16.5 62.001s-35.5 16.334 -73.5 17.001v29h238v-29c-25.333 -1.33301 -42.5 -7.66602 -51.5 -18.999s-13.5 -31.333 -13.5 -60v-188c-55.333 -32.667 -125.333 -49 -210 -49c-91.333 0 -162.5 30.667 -213.5 92
s-76.5 147 -76.5 257s26.667 197 80 261s123.333 96 210 96c91.333 0 160 -16 206 -48v-108h-58c-8 40.667 -22.833 70 -44.5 88s-58.834 27 -111.501 27c-128 0 -192 -107 -192 -321c0 -98 16.333 -173.167 49 -225.5s86.334 -78.5 161.001 -78.5
c44.667 0 83.667 10.333 117 31z" />
    <glyph glyph-name="H" unicode="H" horiz-adv-x="700" 
d="M498 108v232h-296v-232c0 -27.333 5.66699 -46.666 17 -57.999s32.333 -18.333 63 -21v-29h-243v29c30.667 2.66699 51.667 9.66699 63 21s17 30.666 17 57.999v467c0 27.333 -5.66699 46.666 -17 57.999s-32.333 18.333 -63 21v29h243v-29
c-30.667 -2.66699 -51.667 -9.66699 -63 -21s-17 -30.666 -17 -57.999v-191h296v191c0 27.333 -5.66699 46.666 -17 57.999s-32.333 18.333 -63 21v29h243v-29c-30.667 -2.66699 -51.667 -9.66699 -63 -21s-17 -30.666 -17 -57.999v-467
c0 -27.333 5.66699 -46.666 17 -57.999s32.333 -18.333 63 -21v-29h-243v29c30.667 2.66699 51.667 9.66699 63 21s17 30.666 17 57.999z" />
    <glyph glyph-name="I" unicode="I" horiz-adv-x="321" 
d="M119 108v467c0 27.333 -5.66699 46.666 -17 57.999s-32.333 18.333 -63 21v29h243v-29c-30.667 -2.66699 -51.667 -9.66699 -63 -21s-17 -30.666 -17 -57.999v-467c0 -27.333 5.66699 -46.666 17 -57.999s32.333 -18.333 63 -21v-29h-243v29
c30.667 2.66699 51.667 9.66699 63 21s17 30.666 17 57.999z" />
    <glyph glyph-name="J" unicode="J" horiz-adv-x="335" 
d="M128 97l-0.000976562 477.999c0 28.667 -5.83301 48.667 -17.5 60s-34.167 17.666 -67.5 18.999v29h253v-29c-33.333 -1.33301 -55.833 -7.66602 -67.5 -18.999s-17.5 -31.333 -17.5 -60v-471c0 -75.333 -12.667 -130.166 -38 -164.499s-72.666 -62.5 -141.999 -84.5
l-20 31c50 27.333 82 54.833 96 82.5s21 70.5 21 128.5z" />
    <glyph glyph-name="K" unicode="K" horiz-adv-x="618" 
d="M119 108v467c0 27.333 -5.66699 46.666 -17 57.999s-32.333 18.333 -63 21v29h243v-29c-30.667 -2.66699 -51.667 -9.66699 -63 -21s-17 -30.666 -17 -57.999v-467c0 -27.333 5.66699 -46.666 17 -57.999s32.333 -18.333 63 -21v-29h-243v29
c30.667 2.66699 51.667 9.66699 63 21s17 30.666 17 57.999zM450 551l-144 -166l210 -306c12.667 -18.667 24.5 -31.167 35.5 -37.5s29.167 -10.5 54.5 -12.5v-29h-139l-236 359l182 212c16.667 20 25 36.667 25 50c0 20 -18 31 -54 33v29h200v-30
c-22 -4 -41.5 -12.5 -58.5 -25.5s-42.167 -38.5 -75.5 -76.5z" />
    <glyph glyph-name="L" unicode="L" horiz-adv-x="538" 
d="M202 573v-529.999h150c38 0 65.333 8.5 82 25.5s30 48.5 40 94.5h32l-15 -163h-452v29c30.667 2.66699 51.667 9.66699 63 21s17 30.666 17 57.999v467c0 27.333 -5.66699 46.666 -17 57.999s-32.333 18.333 -63 21v29h248v-29
c-35.333 -1.33301 -58.333 -7.66602 -69 -18.999s-16 -32 -16 -62z" />
    <glyph glyph-name="M" unicode="M" horiz-adv-x="801" 
d="M752 683l0.000976562 -29.0029c-35.333 -2 -58 -8.66699 -68 -20s-14 -31 -12 -59l40 -464c2.66699 -30.667 8.5 -51.667 17.5 -63s26.833 -17.666 53.5 -18.999v-29h-225v29c30.667 0.666992 51.167 7.16699 61.5 19.5s14.5 30.833 12.5 55.5l-29 366
c-4 41.333 -6 74 -6 98v23h-6c-10.667 -41.333 -21.334 -78.333 -32.001 -111l-149 -480h-50l-146 458c-16 52 -28.667 96.667 -38 134h-6l-9 -135c-2 -38.667 -5.33301 -97.334 -10 -176.001s-8 -137.334 -10 -176.001
c-1.33301 -11.333 -1.66602 -21.666 -0.999023 -30.999s3 -17.166 7 -23.499s11.5 -11.333 22.5 -15s25.833 -5.83398 44.5 -6.50098v-29h-196v29c26.667 2 44.667 8.5 54 19.5s15.333 31.833 18 62.5l34 464c1.33301 24.667 -3.83398 43.334 -15.501 56.001
s-33.167 20.334 -64.5 23.001v29h182l144 -451c17.333 -53.333 27 -92.666 29 -117.999h6c2 18 11.667 57 29 117l135 452h183z" />
    <glyph glyph-name="N" unicode="N" horiz-adv-x="679" 
d="M518 330v245.002c0 27.333 -5.66699 46.666 -17 57.999s-32.333 18.333 -63 21v29h207v-29c-28 -2.66699 -47 -9.5 -57 -20.5s-15 -30.5 -15 -58.5v-575h-61l-249 407c-46 74 -75.667 131 -89 171h-6c4 -26.667 6 -89 6 -187v-283c0 -27.333 5.66699 -46.666 17 -57.999
s32.333 -18.333 63 -21v-29h-215v29c30.667 2.66699 51.667 9.66699 63 21s17 30.666 17 57.999v467c0 27.333 -5.66699 46.666 -17 57.999s-32.333 18.333 -63 21v29h152l254 -417c38 -62 62.667 -110.667 74 -146h6c-4.66699 28 -7 98 -7 210z" />
    <glyph glyph-name="O" unicode="O" horiz-adv-x="666" 
d="M336 -11c-93.333 0 -164.999 32.499 -214.999 97.499s-75 150.833 -75 257.5c0 110.667 25.667 196.834 77 258.501s120.666 92.5 207.999 92.5c50 0 94 -9.66699 132 -29s68.167 -45.833 90.5 -79.5s39 -71.334 50 -113.001s16.5 -87.167 16.5 -136.5
c0 -105.333 -25.333 -189.666 -76 -252.999s-120 -95 -208 -95zM331.001 653.999c-67.333 0 -116.667 -24.833 -148 -74.5s-47 -124.5 -47 -224.5c0 -218 66.667 -327 200 -327c128 0 192 100 192 300c0 108 -15.333 189.333 -46 244s-81 82 -151 82z" />
    <glyph glyph-name="P" unicode="P" horiz-adv-x="571" 
d="M202 287v-175.998c0 -30 6 -50.833 18 -62.5s35.333 -18.167 70 -19.5v-29h-251v29c30.667 2.66699 51.667 9.66699 63 21s17 30.666 17 57.999v467c0 27.333 -5.66699 46.666 -17 57.999s-32.333 18.333 -63 21v29h246c168 0 252 -65 252 -195
c0 -64 -19.5 -113.5 -58.5 -148.5s-94.833 -52.5 -167.5 -52.5h-109zM448 477.002c0 61.333 -11.167 103.833 -33.5 127.5s-64.833 35.5 -127.5 35.5h-85v-311h103c51.333 0 88 11.5 110 34.5s33 60.833 33 113.5z" />
    <glyph glyph-name="Q" unicode="Q" horiz-adv-x="672" 
d="M584 -125c-19.333 0 -39.832 5.83398 -61.499 17.501s-41.334 24.5 -59.001 38.5s-40 27.167 -67 39.5s-54.5 19.166 -82.5 20.499c-82.667 4 -148 37.833 -196 101.5s-72 147.5 -72 251.5c0 110.667 25.667 196.834 77 258.501s120.666 92.5 207.999 92.5
c50 0 94 -9.66699 132 -29s68.167 -45.833 90.5 -79.5s39 -71.334 50 -113.001s16.5 -87.167 16.5 -136.5c0 -88.667 -18.167 -162.167 -54.5 -220.5s-87.5 -94.833 -153.5 -109.5c22.667 -5.33301 53.834 -17.333 93.501 -36s74.834 -28 105.501 -28
c19.333 0 35.666 0.666992 48.999 2l-24 -61c-12 -6 -29.333 -9 -52 -9zM331.001 654.001c-67.333 0 -116.667 -24.833 -148 -74.5s-47 -124.5 -47 -224.5c0 -218 66.667 -327 200 -327c128 0 192 100 192 300c0 108 -15.333 189.333 -46 244s-81 82 -151 82z" />
    <glyph glyph-name="R" unicode="R" horiz-adv-x="607" 
d="M313 325l0.000976562 -4c41.333 -10 75.666 -32.667 102.999 -68c15.333 -18.667 49.666 -73.667 102.999 -165c11.333 -20 22.5 -34.5 33.5 -43.5s28.5 -14.167 52.5 -15.5v-29h-138c-60 120.667 -102.333 200 -127 238c-19.333 29.333 -39.166 51 -59.499 65
s-46.5 21.667 -78.5 23v-220c0 -27.333 5.5 -46.666 16.5 -57.999s31.5 -17.666 61.5 -18.999v-29h-241v29c30.667 2.66699 51.667 9.66699 63 21s17 30.666 17 57.999v467c0 27.333 -5.66699 46.666 -17 57.999s-32.333 18.333 -63 21v29h242c162 0 243 -61 243 -183
c0 -54 -19.667 -96.333 -59 -127s-90 -46.667 -152 -48zM435.001 499c0 53.333 -11.332 90.167 -33.999 110.5s-60.667 30.5 -114 30.5h-85v-284h80c49.333 0 87.166 10.833 113.499 32.5s39.5 58.5 39.5 110.5z" />
    <glyph glyph-name="S" unicode="S" horiz-adv-x="530" 
d="M241 -11c-77.333 0 -143.666 17.666 -198.999 52.999v120h57c6.66699 -46.667 21.167 -80.334 43.5 -101.001s59.833 -31 112.5 -31c53.333 0 92.166 12 116.499 36s36.5 56.333 36.5 97c0 41.333 -9.5 71.333 -28.5 90s-53.833 35.667 -104.5 51l-69 21
c-100.667 30.667 -151 90 -151 178c0 58 19.333 104.5 58 139.5s91.667 52.5 159 52.5c78.667 0 139.667 -16 183 -48v-104h-53c-6.66699 36.667 -20.5 64.334 -41.5 83.001s-54.833 28 -101.5 28c-41.333 0 -74 -10.667 -98 -32s-36 -50.666 -36 -87.999
c0 -36.667 9.16699 -63.5 27.5 -80.5s50.833 -32.5 97.5 -46.5l70 -21c108.667 -33.333 163 -96 163 -188c0 -66.667 -20.667 -118.167 -62 -154.5s-101.333 -54.5 -180 -54.5z" />
    <glyph glyph-name="T" unicode="T" horiz-adv-x="547" 
d="M32 683h483l8 -151h-35c-9.33301 45.333 -18.833 74.666 -28.5 87.999s-30.167 20 -61.5 20h-83v-532c0 -30.667 6.5 -51.167 19.5 -61.5s36.5 -16.166 70.5 -17.499v-29h-263v29c34 1.33301 57.5 7.16602 70.5 17.499s19.5 30.833 19.5 61.5v532h-83
c-31.333 0 -51.833 -6.66699 -61.5 -20s-19.167 -42.666 -28.5 -87.999h-35z" />
    <glyph glyph-name="U" unicode="U" horiz-adv-x="680" 
d="M521 221v354.001c0 27.333 -6 46.666 -18 57.999s-34.333 18.333 -67 21v29h212v-29c-28 -2.66699 -47 -9.5 -57 -20.5s-15 -30.5 -15 -58.5v-354c0 -80 -19.167 -138.667 -57.5 -176s-95.166 -56 -170.499 -56c-160.667 0 -241 75 -241 225v361
c0 29.333 -5 49.5 -15 60.5s-30 17.167 -60 18.5v29h243v-29c-36 -1.33301 -59.167 -7.33301 -69.5 -18s-15.5 -31 -15.5 -61v-339c0 -69.333 12.333 -118.833 37 -148.5s69.667 -44.5 135 -44.5c57.333 0 98.166 13.833 122.499 41.5s36.5 73.167 36.5 136.5z" />
    <glyph glyph-name="V" unicode="V" horiz-adv-x="649" 
d="M363 0h-81.0029l-178 564c-9.33301 30.667 -19.666 52.5 -30.999 65.5s-29 21.167 -53 24.5v29h233v-29c-24 -1.33301 -41.333 -5.33301 -52 -12s-16 -17.667 -16 -33c0 -7.33301 1.66699 -17.666 5 -30.999l89 -303c36 -126 54.667 -192 56 -198h6
c2.66699 12 7.33398 28.833 14.001 50.5l24 77l22 70.5l91 303c4 14 6 26.333 6 37c0 14 -5.16699 23.667 -15.5 29s-28.166 8.66602 -53.499 9.99902v29h200v-30c-24.667 -4 -42.667 -11.5 -54 -22.5s-22 -32.5 -32 -64.5z" />
    <glyph glyph-name="W" unicode="W" horiz-adv-x="893" 
d="M584 0l-108.999 436.001c-12.667 51.333 -21.334 92.333 -26.001 123h-6c-1.33301 -6.66699 -10.666 -47.667 -27.999 -123l-103 -436h-84l-128 564c-6.66699 30 -15.667 51.667 -27 65s-29 21.666 -53 24.999v29h229v-29c-24.667 -2 -42.5 -6.5 -53.5 -13.5
s-16.5 -18.167 -16.5 -33.5c0 -9.33301 1 -19 3 -29l66 -298c20 -94.667 31.333 -154 34 -178h6l43 178l97 403h63l101 -404l45 -177h6l38 177l62 277c3.33301 16.667 5 30.667 5 42c0 19.333 -5.5 33 -16.5 41s-29.833 13 -56.5 15v29h197v-30
c-22.667 -4 -39.834 -13.5 -51.501 -28.5s-21.167 -38.167 -28.5 -69.5l-128 -555h-80z" />
    <glyph glyph-name="X" unicode="X" horiz-adv-x="628" 
d="M467 572l-116.003 -200.998l150 -259c16.667 -28.667 32.334 -48.834 47.001 -60.501s32 -19.167 52 -22.5v-29h-232v29c36.667 2 55 13.333 55 34c0 10.667 -5.66699 26.334 -17 47.001l-113 203h-4l-112 -205c-10 -18 -15 -32.667 -15 -44c0 -20 19.667 -31.667 59 -35
v-29h-193v29c18.667 3.33301 35.834 12.166 51.501 26.499s32.5 37.166 50.5 68.499l134 237l-129 218c-16.667 28 -31.167 46.833 -43.5 56.5s-28.833 15.834 -49.5 18.501v29h227v-29c-37.333 -2 -56 -13 -56 -33c0 -10.667 6 -26.334 18 -47.001l91 -162h4l90 161
c10.667 19.333 16 34.666 16 45.999c0 20 -17.667 31.667 -53 35v29h182v-29c-19.333 -3.33301 -35.666 -10.666 -48.999 -21.999s-28.333 -31.333 -45 -60z" />
    <glyph glyph-name="Y" unicode="Y" horiz-adv-x="594" 
d="M318 337l3.99805 -0.000976562l114 238c8.66699 18 13 32.667 13 44c0 20 -19.667 31.667 -59 35v29h187v-29c-20 -3.33301 -36.667 -11.166 -50 -23.499s-28.666 -36.166 -45.999 -71.499l-138 -281v-170c0 -28.667 5.83301 -48.667 17.5 -60
s34.167 -17.666 67.5 -18.999v-29h-253v29c33.333 1.33301 55.833 7.66602 67.5 18.999s17.5 31.333 17.5 60v164l-150 298c-15.333 30 -29.666 50.667 -42.999 62s-30 18.666 -50 21.999v29h226v-29c-35.333 -2 -53 -13 -53 -33c0 -11.333 5 -27.333 15 -48z" />
    <glyph glyph-name="Z" unicode="Z" horiz-adv-x="515" 
d="M489 630l-376.001 -587h205c40 0 69.5 9 88.5 27s33.5 50 43.5 96h32l-15 -166h-439v53l376 587h-194c-35.333 0 -62.166 -8.83301 -80.499 -26.5s-32.5 -46.5 -42.5 -86.5h-32l14 156h420v-53z" />
    <glyph glyph-name="bracketleft" unicode="[" horiz-adv-x="290" 
d="M261 -155h-173v922h173v-36h-106v-850h106v-36z" />
    <glyph glyph-name="backslash" unicode="\" horiz-adv-x="392" 
d="M106 755l258 -904h-56l-258 904h56z" />
    <glyph glyph-name="bracketright" unicode="]" horiz-adv-x="290" 
d="M202 -155h-173v36h106v850h-106v36h173v-922z" />
    <glyph glyph-name="asciicircum" unicode="^" horiz-adv-x="592" 
d="M526 310h-64l-169 334l-164 -334h-63l200 392h60z" />
    <glyph glyph-name="underscore" unicode="_" horiz-adv-x="496" 
d="M492 -125h-488v44h488v-44z" />
    <glyph glyph-name="grave" unicode="`" horiz-adv-x="376" 
d="M298 597l-17 -29l-203 92l48 83z" />
    <glyph glyph-name="a" unicode="a" horiz-adv-x="506" 
d="M410 128c0 -36.667 4.66895 -60.999 14.002 -72.999s29.333 -19.667 60 -23v-29c-18 -6 -39 -9 -63 -9c-30.667 0 -51.834 6.66699 -63.501 20s-19.5 34.333 -23.5 63c-12 -24 -30.333 -45.167 -55 -63.5s-53.334 -27.5 -86.001 -27.5
c-46.667 0 -84.167 12.167 -112.5 36.5s-42.5 58.5 -42.5 102.5c0 105.333 85.333 158 256 158c18.667 0 32.334 -0.333008 41.001 -1v47c0 45.333 -7 77.833 -21 97.5s-39.333 29.5 -76 29.5c-71.333 0 -112 -30 -122 -90h-51v85c59.333 32.667 119.666 49 180.999 49
c112 0 168 -55 168 -165c0 -6 -0.666992 -33.333 -2 -82s-2 -90.334 -2 -125.001zM330.002 118.001l3.00098 122.001c-14.667 1.33301 -28.334 2 -41.001 2c-59.333 0 -102.333 -8.66699 -129 -26s-40 -45.333 -40 -84c0 -34.667 7.33301 -59.167 22 -73.5
s38 -21.5 70 -21.5c23.333 0 45 7.66699 65 23s36.667 34.666 50 57.999z" />
    <glyph glyph-name="b" unicode="b" horiz-adv-x="551" 
d="M427 253c0 68 -9.50098 115.834 -28.501 143.501s-49.5 41.5 -91.5 41.5c-26.667 0 -52.334 -7.33301 -77.001 -22s-44 -30.667 -58 -48v-258c14.667 -14.667 26.834 -25.834 36.501 -33.501s22.834 -15 39.501 -22s35 -10.5 55 -10.5c43.333 0 74.833 15.5 94.5 46.5
s29.5 85.167 29.5 162.5zM162.999 65.001c-7.33301 -21.333 -19 -42.999 -35 -64.999h-46c7.33301 21.333 11 59.333 11 114v467c0 35.333 -5.16699 58.5 -15.5 69.5s-30.5 17.167 -60.5 18.5v27l131 28h13c7.33301 -23.333 11 -55.333 11 -96v-213
c50.667 54.667 104 82 160 82s100.167 -20.833 132.5 -62.5s48.5 -102.834 48.5 -183.501c0 -82 -16.667 -146 -50 -192s-80.333 -69 -141 -69c-60 0 -113 25 -159 75z" />
    <glyph glyph-name="c" unicode="c" horiz-adv-x="457" 
d="M405 461l-0.000976562 -88.999h-56c-5.33301 30.667 -14.666 52.5 -27.999 65.5s-34 19.5 -62 19.5c-89.333 0 -134 -67.333 -134 -202c0 -78.667 11.667 -134.5 35 -167.5s60 -49.5 110 -49.5c28.667 0 52.167 3.83301 70.5 11.5s38.833 21.167 61.5 40.5l21 -22
c-47.333 -52.667 -103 -79 -167 -79c-63.333 0 -115.5 21.167 -156.5 63.5s-61.5 103.166 -61.5 182.499c0 82.667 20.667 147 62 193s95 69 161 69c56.667 0 104.667 -12 144 -36z" />
    <glyph glyph-name="d" unicode="d" horiz-adv-x="561" 
d="M379 72c-19.333 -24 -42.832 -43.666 -70.499 -58.999s-54.167 -23 -79.5 -23c-54.667 0 -100.167 20.333 -136.5 61s-54.5 103 -54.5 187c0 78 17.833 140.667 53.5 188s84.167 71 145.5 71c52.667 0 100 -22.333 142 -67v151c0 35.333 -5.16699 58.5 -15.5 69.5
s-30.5 17.167 -60.5 18.5v27l141 28h14v-589c0 -35.333 5.16699 -58.5 15.5 -69.5s31.5 -17.167 63.5 -18.5v-25l-123 -35h-9c-12.667 25.333 -21.334 53.666 -26.001 84.999zM124.001 250.001c0 -76.667 9.49902 -130.833 28.499 -162.5s49.833 -47.5 92.5 -47.5
c40.667 0 85.334 27.667 134.001 83v259c-16 19.333 -35.5 34.833 -58.5 46.5s-45.833 17.5 -68.5 17.5c-43.333 0 -75.5 -14 -96.5 -42s-31.5 -79.333 -31.5 -154z" />
    <glyph glyph-name="e" unicode="e" horiz-adv-x="477" 
d="M285 43c46 0 89.667 12.998 131 38.998l16 -28c-56.667 -43.333 -113.667 -65 -171 -65c-70 0 -124.667 22.667 -164 68s-59 108.333 -59 189c0 78.667 19.5 140.834 58.5 186.501s89.167 68.5 150.5 68.5s109 -20.667 143 -62s51 -99.333 51 -174v-24h-319
c0.666992 -73.333 14 -124.666 40 -153.999s67 -44 123 -44zM245 458.998c-37.333 0 -66 -13.167 -86 -39.5s-32 -71.5 -36 -135.5h235c0 62.667 -8.83301 107.5 -26.5 134.5s-46.5 40.5 -86.5 40.5z" />
    <glyph glyph-name="f" unicode="f" horiz-adv-x="310" 
d="M182 436l-0.000976562 -334.997c0 -26.667 5.83301 -44.834 17.5 -54.501s35.5 -15.834 71.5 -18.501v-28h-238v28c27.333 2.66699 45.833 8.66699 55.5 18s14.5 27.666 14.5 54.999v335h-63v27l63 22v97c0 44 14 78.667 42 104s65 38 111 38
c38 0 71.667 -5.33301 101 -16l-8 -79h-50c-5.33301 34.667 -22.666 52 -51.999 52c-44 0 -66 -32.667 -66 -98v-98h120l-13 -49h-106z" />
    <glyph glyph-name="g" unicode="g" horiz-adv-x="519" 
d="M250 -189c-67.333 0 -118.168 10.334 -152.501 31.001s-51.5 47.667 -51.5 81c0 26.667 16 49 48 67l32 2c-6.66699 -14.667 -10 -31 -10 -49c0 -30.667 9.83301 -53.334 29.5 -68.001s53.834 -22 102.501 -22c97.333 0 146 32 146 96c0 32 -10 53 -30 63
s-64 15.667 -132 17c-32 0.666992 -59.333 2.33398 -82 5.00098c-44 5.33301 -66 30.666 -66 75.999c0 36.667 31.333 65.334 94 86.001c-37.333 8.66699 -66.666 26.167 -87.999 52.5s-32 56.166 -32 89.499c0 48 16.5 86.833 49.5 116.5s77.167 44.5 132.5 44.5
c24 0 49.333 -3.66699 76 -11c34.667 -10.667 60.334 -16 77.001 -16c25.333 0 51.666 9.33301 78.999 28l30 -58c-22.667 -10.667 -44 -16 -64 -16s-44.333 5.33301 -73 16c38 -28.667 57 -64 57 -106c0 -38 -13.833 -71.333 -41.5 -100s-71.834 -45 -132.501 -49h-24
c-20 -6 -37 -14.167 -51 -24.5s-21 -20.833 -21 -31.5c0 -18.667 14 -28 42 -28h92c60 0 104.667 -10 134 -30s44 -55 44 -105c0 -47.333 -20.167 -85.333 -60.5 -114s-91.5 -43 -153.5 -43zM238.998 226.001c64.667 0 97 37.667 97 113c0 40.667 -8 70.667 -24 90
s-40.667 29 -74 29c-64.667 0 -97 -38.667 -97 -116s32.667 -116 98 -116z" />
    <glyph glyph-name="h" unicode="h" horiz-adv-x="579" 
d="M182 628l-0.00195312 -218.999c28.667 28.667 56.334 50.5 83.001 65.5s56.667 22.5 90 22.5c38.667 0 69.834 -11.5 93.501 -34.5s35.5 -55.167 35.5 -96.5v-265c0 -28.667 4.16699 -47.5 12.5 -56.5s25.833 -14.5 52.5 -16.5v-28h-214v28
c28.667 2.66699 47.5 8.33398 56.5 17.001s13.5 25 13.5 49v254c0 30 -6.5 51.667 -19.5 65s-32.833 20 -59.5 20c-28.667 0 -53.667 -6 -75 -18s-44.333 -30 -69 -54v-267c0 -24 4.5 -40.333 13.5 -49s27.833 -14.334 56.5 -17.001v-28h-219v28
c27.333 2.66699 45.833 8.66699 55.5 18s14.5 27.666 14.5 54.999v481c0 35.333 -5.16699 58.5 -15.5 69.5s-30.5 17.167 -60.5 18.5v27l131 27h13c7.33301 -24.667 11 -56.667 11 -96z" />
    <glyph glyph-name="i" unicode="i" horiz-adv-x="282" 
d="M252 0h-219v28c27.333 2.66699 45.833 8.66699 55.5 18s14.5 27.666 14.5 54.999v247c0 35.333 -4.83301 58.5 -14.5 69.5s-29.167 17.167 -58.5 18.5v25l139 37h13v-397c0 -27.333 4.5 -45.666 13.5 -54.999s27.833 -15.333 56.5 -18v-28zM195 641
c0 -17.333 -5.66699 -31.666 -17 -42.999s-25.333 -17 -42 -17s-30.667 5.66699 -42 17s-17 25.666 -17 42.999s5.66699 31.666 17 42.999s25.333 17 42 17s30.667 -5.66699 42 -17s17 -25.666 17 -42.999z" />
    <glyph glyph-name="j" unicode="j" horiz-adv-x="261" 
d="M103 9l0.00292969 338.001c0 35.333 -4.83301 58.666 -14.5 69.999s-29.167 17.666 -58.5 18.999v25l139 37h13v-490c0 -34.667 -2.83301 -63.834 -8.5 -87.501s-15.334 -43.167 -29.001 -58.5s-26.834 -27.166 -39.501 -35.499s-31.334 -18.166 -56.001 -29.499l-25 33
c30 14 50.667 34.167 62 60.5s17 65.833 17 118.5zM195.003 641.001c0 -17.333 -5.66699 -31.666 -17 -42.999s-25.333 -17 -42 -17s-30.667 5.66699 -42 17s-17 25.666 -17 42.999s5.66699 31.666 17 42.999s25.333 17 42 17s30.667 -5.66699 42 -17s17 -25.666 17 -42.999
z" />
    <glyph glyph-name="k" unicode="k" horiz-adv-x="529" 
d="M33 0v28.002c27.333 2.66699 45.833 8.66699 55.5 18s14.5 27.666 14.5 54.999v480c0 35.333 -5.16699 58.5 -15.5 69.5s-30.5 17.167 -60.5 18.5v27l132 28h13c6.66699 -25.333 10 -57.333 10 -96v-534c0 -24 4.5 -40.333 13.5 -49s27.833 -14.334 56.5 -17.001v-28
h-219zM410 0.00195312l-207 259.001l135 138c32.667 32.667 24.334 52.667 -24.999 60v28h176v-28c-15.333 -2 -29.333 -7.83301 -42 -17.5s-29.334 -24.834 -50.001 -45.501l-115 -113l152 -192c28.667 -36 57.667 -56.333 87 -61v-28h-111z" />
    <glyph glyph-name="l" unicode="l" horiz-adv-x="290" 
d="M186 628v-523.999c0 -28 4.83301 -47 14.5 -57s29.5 -16.333 59.5 -19v-28h-227v28c28.667 2.66699 48.167 8.66699 58.5 18s15.5 27.666 15.5 54.999v480c0 35.333 -5.33301 58.5 -16 69.5s-32 17.167 -64 18.5v27l135 28h13c7.33301 -25.333 11 -57.333 11 -96z" />
    <glyph glyph-name="m" unicode="m" horiz-adv-x="827" 
d="M454 423c54 49.333 106.668 74.001 158.001 74.001c35.333 0 64.166 -11.5 86.499 -34.5s33.5 -55.167 33.5 -96.5v-265c0 -28.667 4.16699 -47.5 12.5 -56.5s25.833 -14.5 52.5 -16.5v-28h-209v28c26.667 2.66699 44.167 8.33398 52.5 17.001s12.5 25 12.5 49v254
c0 30.667 -5.16699 52.5 -15.5 65.5s-27.5 19.5 -51.5 19.5c-40 0 -81.333 -19.667 -124 -59v-280c0 -24.667 3.83301 -41.334 11.5 -50.001s23.834 -14 48.501 -16v-28h-204v28c26.667 2.66699 44.167 8.33398 52.5 17.001s12.5 25 12.5 49v254
c0 30.667 -5.16699 52.5 -15.5 65.5s-27.5 19.5 -51.5 19.5c-25.333 0 -47.5 -5.5 -66.5 -16.5s-41.5 -28.167 -67.5 -51.5v-271c0 -24 4.16699 -40.333 12.5 -49s25.833 -14.334 52.5 -17.001v-28h-214v28c27.333 2.66699 45.833 8.66699 55.5 18s14.5 27.666 14.5 54.999
v246c0 35.333 -4.83301 58.5 -14.5 69.5s-29.167 17.167 -58.5 18.5v25l119 38h13c9.33301 -22.667 14.666 -51.667 15.999 -87c30 28 57.333 49.333 82 64s52 22 82 22c54.667 0 92 -24.667 112 -74z" />
    <glyph glyph-name="n" unicode="n" horiz-adv-x="579" 
d="M484 366v-264.999c0 -28.667 4.16699 -47.5 12.5 -56.5s25.833 -14.5 52.5 -16.5v-28h-214v28c28.667 2.66699 47.5 8.33398 56.5 17.001s13.5 25 13.5 49v254c0 30 -6.5 51.667 -19.5 65s-32.833 20 -59.5 20c-28.667 0 -53.834 -6.16699 -75.501 -18.5
s-44.5 -30.5 -68.5 -54.5v-266c0 -24 4.5 -40.333 13.5 -49s27.833 -14.334 56.5 -17.001v-28h-219v28c27.333 2.66699 45.833 8.66699 55.5 18s14.5 27.666 14.5 54.999v246c0 35.333 -4.83301 58.5 -14.5 69.5s-29.167 17.167 -58.5 18.5v25l120 38h13
c8.66699 -22 13.667 -53 15 -93c58.667 61.333 117.667 92 177 92c38.667 0 69.834 -11.5 93.501 -34.5s35.5 -55.167 35.5 -96.5z" />
    <glyph glyph-name="o" unicode="o" horiz-adv-x="524" 
d="M486 239c0 -77.333 -20.667 -138.501 -62 -183.501s-95.333 -67.5 -162 -67.5c-69.333 0 -124 22.5 -164 67.5s-60 107.833 -60 188.5c0 79.333 20 141.833 60 187.5s94 68.5 162 68.5c72 0 127.667 -24.167 167 -72.5s59 -111.166 59 -188.499zM400 234.999
c0 148 -46.667 222 -140 222c-50 0 -85.167 -17 -105.5 -51s-30.5 -84.667 -30.5 -152c0 -78 10.833 -134.667 32.5 -170s57.5 -53 107.5 -53c44.667 0 78.5 17.5 101.5 52.5s34.5 85.5 34.5 151.5z" />
    <glyph glyph-name="p" unicode="p" horiz-adv-x="562" 
d="M438 233c0 76.667 -9.16895 130.168 -27.502 160.501s-49.166 45.5 -92.499 45.5c-47.333 0 -92.666 -24.333 -135.999 -73v-260c16 -19.333 36 -35.5 60 -48.5s46 -19.5 66 -19.5c44.667 0 77.5 14.167 98.5 42.5s31.5 79.166 31.5 152.499zM176.998 415.001
c20 23.333 44.8311 42.835 74.498 58.502s57.834 23.5 84.501 23.5c56.667 0 102.167 -20.5 136.5 -61.5s51.5 -102.167 51.5 -183.5c0 -79.333 -17 -142 -51 -188s-83 -69 -147 -69c-56 0 -104 21 -144 63v-154c0 -26.667 5.33301 -44.834 16 -54.501
s31.334 -15.5 62.001 -17.5v-28h-227v28c27.333 2.66699 45.833 8.66699 55.5 18s14.5 27.666 14.5 54.999v442c0 35.333 -4.83301 58.5 -14.5 69.5s-29.167 17.167 -58.5 18.5v25l119 38h13c8.66699 -23.333 13.667 -51 15 -83z" />
    <glyph glyph-name="q" unicode="q" horiz-adv-x="540" 
d="M124 250c0 -76.667 9.5 -130.833 28.5 -162.5s49.833 -47.5 92.5 -47.5c39.333 0 84 27.333 134 82v259c-16 19.333 -35.5 35 -58.5 47s-45.833 18 -68.5 18c-43.333 0 -75.5 -14 -96.5 -42s-31.5 -79.333 -31.5 -154zM388 424.001
c8.66699 25.333 20.666 46.998 35.999 64.998h45c-6.66699 -31.333 -10 -77 -10 -137v-447c0 -27.333 4.83301 -45.666 14.5 -54.999s28.167 -15.333 55.5 -18v-28h-227v28c30.667 2 51.334 7.83301 62.001 17.5s16 27.834 16 54.501v172c-48.667 -57.333 -99 -86 -151 -86
c-54.667 0 -100.167 20.333 -136.5 61s-54.5 103 -54.5 187c0 78 17.833 140.667 53.5 188s84.167 71 145.5 71c62 0 112.333 -24.333 151 -73z" />
    <glyph glyph-name="r" unicode="r" horiz-adv-x="362" 
d="M180 386c44.667 76.667 91.002 115 139.002 115c7.33301 0 15.666 -1.33301 24.999 -4l-21 -92c-6 2 -15 3 -27 3c-40.667 0 -69.834 -10.333 -87.501 -31s-26.5 -55 -26.5 -103v-173c0 -27.333 5.66699 -45.666 17 -54.999s34 -15.333 68 -18v-28h-234v28
c27.333 2.66699 45.833 8.66699 55.5 18s14.5 27.666 14.5 54.999v246c0 35.333 -4.83301 58.5 -14.5 69.5s-29.167 17.167 -58.5 18.5v25l119 38h13c11.333 -28.667 17.333 -66 18 -112z" />
    <glyph glyph-name="s" unicode="s" horiz-adv-x="423" 
d="M198 -12c-63.333 0 -116.333 13.3301 -159 39.9971v93h55c4 -33.333 14.667 -57.166 32 -71.499s44.333 -21.5 81 -21.5c32 0 58.167 7.33301 78.5 22s30.5 37.334 30.5 68.001c0 26 -7.16699 45.667 -21.5 59s-37.5 23.666 -69.5 30.999l-59 14
c-81.333 19.333 -122 64.666 -122 135.999c0 46.667 15.167 81.834 45.5 105.501s71.5 35.5 123.5 35.5c50.667 0 98.667 -11.333 144 -34v-85h-53c-10 52.667 -43 79 -99 79c-30.667 0 -54.667 -7.16699 -72 -21.5s-26 -33.833 -26 -58.5c0 -22 6.16699 -39.333 18.5 -52
s34.5 -22.667 66.5 -30l59 -14c88 -21.333 132 -65.666 132 -132.999c0 -51.333 -15.833 -91.166 -47.5 -119.499s-77.5 -42.5 -137.5 -42.5z" />
    <glyph glyph-name="t" unicode="t" horiz-adv-x="318" 
d="M289 485l-13 -48.999h-106v-305c0 -40 4.66699 -66.5 14 -79.5s28 -19.5 56 -19.5c16 0 33.333 3 52 9l7 -32c-32 -15.333 -63 -23 -93 -23c-38.667 0 -67.5 10.167 -86.5 30.5s-28.5 54.166 -28.5 101.499v318h-60v27l67 22c12.667 66 26.667 112 42 138l39 9
c-5.33301 -38.667 -8 -87.667 -8 -147h118z" />
    <glyph glyph-name="u" unicode="u" horiz-adv-x="576" 
d="M473 498l0.00195312 -363.998c0 -35.333 4.83301 -58.5 14.5 -69.5s29.167 -17.167 58.5 -18.5v-25l-113 -34h-12c-10 26.667 -17.333 58 -22 94c-28.667 -30.667 -56 -53.834 -82 -69.501s-56 -23.5 -90 -23.5c-40 0 -72 11 -96 33s-36 54.333 -36 97v229
c0 36 -4.66699 59.333 -14 70s-28 16.667 -56 18v25l131 38h18v-363c0 -30.667 6.66699 -52.334 20 -65.001s33.666 -19 60.999 -19c28.667 0 52.667 5.83301 72 17.5s41.666 30.167 66.999 55.5v223c0 36 -4.66699 59.333 -14 70s-28 16.667 -56 18v25l131 38h18z" />
    <glyph glyph-name="v" unicode="v" horiz-adv-x="505" 
d="M284 -5h-59.001l-147 390c-10 26 -19.833 43.833 -29.5 53.5s-24.167 15.834 -43.5 18.501v28h210v-28c-42.667 -2.66699 -64 -13.334 -64 -32.001c0 -7.33301 2.33301 -17.666 7 -30.999l81 -223c12.667 -35.333 22.334 -65 29.001 -89h4
c9.33301 30 19.333 59.333 30 88l79 224c4.66699 14 7 24 7 30c0 10.667 -4.83301 18.667 -14.5 24s-26.167 8.33301 -49.5 9v28h176v-28c-20 -2.66699 -34.833 -8.83398 -44.5 -18.501s-19.167 -27.5 -28.5 -53.5z" />
    <glyph glyph-name="w" unicode="w" horiz-adv-x="747" 
d="M347 280l-81 -285h-63l-125 390c-8 25.333 -16.833 42.833 -26.5 52.5s-24.167 16.167 -43.5 19.5v28h202v-28c-38 -2.66699 -57 -14 -57 -34c0 -7.33301 1.66699 -17 5 -29l60 -199l15.5 -50.5l15.5 -50.5h5l14.5 50.5c6.33301 22.333 10.833 38.833 13.5 49.5l79 291
h53l94 -290c16 -47.333 26.667 -81 32 -101h4c16.667 58.667 26 92 28 100l51 200c2.66699 12 4 21 4 27c0 12 -4 20.833 -12 26.5s-22.667 8.83398 -44 9.50098v28h168v-28c-21.333 -2.66699 -36.5 -8.83398 -45.5 -18.501s-17.167 -27.5 -24.5 -53.5l-113 -390h-61
l-79 256c-4 14 -10.333 34.833 -19 62.5s-15 48.5 -19 62.5h-4z" />
    <glyph glyph-name="x" unicode="x" horiz-adv-x="520" 
d="M238 215l-86.999 -130.005c-7.33301 -11.333 -11 -21 -11 -29c0 -15.333 16.333 -24.666 49 -27.999v-28h-170v28c20 2.66699 35 7.83398 45 15.501s23 23.834 39 48.501l109 162l-95 139c-17.333 24.667 -31.5 40.834 -42.5 48.501s-27.5 12.834 -49.5 15.501v28h211
v-28c-30 -2 -45 -9.33301 -45 -22c0 -8 5 -19.667 15 -35l69 -104h4l72 113c6 9.33301 9 17.333 9 24c0 14 -15.333 22 -46 24v28h164v-28c-20.667 -2.66699 -36.334 -8 -47.001 -16s-23.667 -24 -39 -48l-86 -134l111 -167c16 -24 29.167 -40 39.5 -48
s25.833 -13.333 46.5 -16v-28h-210v28c33.333 2 50 9.66699 50 23c0 6.66699 -5 18 -15 34l-86 130h-4z" />
    <glyph glyph-name="y" unicode="y" horiz-adv-x="505" 
d="M110 -212l-21.999 63.9971c42.667 12 76.167 28 100.5 48s43.833 54.333 58.5 103l-38 -6c-16.667 64.667 -33.667 121.334 -51 170.001l-80 218c-9.33301 25.333 -19 43 -29 53s-24.667 16.333 -44 19v28h210v-28c-23.333 -1.33301 -39.833 -4.66602 -49.5 -9.99902
s-14.5 -13.333 -14.5 -24c0 -5.33301 2.33301 -15 7 -29l72 -202c15.333 -42.667 27.666 -89.667 36.999 -141h4c7.33301 25.333 20 65.333 38 120l72 223c4.66699 12.667 7 23.334 7 32.001c0 18 -21.333 28.333 -64 31v28h176v-28c-19.333 -2.66699 -34 -9 -44 -19
s-19.667 -27.667 -29 -53l-140 -403c-20 -58 -43.5 -102.333 -70.5 -133s-62.5 -51 -106.5 -61z" />
    <glyph glyph-name="z" unicode="z" horiz-adv-x="449" 
d="M421 147l-22 -147h-357v45l284 397h-131c-36 0 -60.333 -6 -73 -18s-21.667 -37 -27 -75h-31v136h346v-49l-281 -393h120c47.333 0 78.333 6 93 18s30 40.667 46 86h33z" />
    <glyph glyph-name="braceleft" unicode="{" horiz-adv-x="347" 
d="M198 656v-230.003c0 -38.667 -8 -67.167 -24 -85.5s-33.667 -29.166 -53 -32.499v-4c19.333 -3.33301 37 -14.166 53 -32.499s24 -46.833 24 -85.5v-230c0 -51.333 23 -77 69 -77h51v-34h-74c-37.333 0 -64.833 9 -82.5 27s-26.5 47.667 -26.5 89v237
c0 32.667 -8.66699 56.334 -26 71.001s-44 22.334 -80 23.001v28c36 1.33301 62.667 9.16602 80 23.499s26 37.833 26 70.5v237c0 40 10 69.333 30 88s46.333 28 79 28h74v-34h-51c-46 0 -69 -25.667 -69 -77z" />
    <glyph glyph-name="bar" unicode="|" horiz-adv-x="228" 
d="M140 -149h-52v904h52v-904z" />
    <glyph glyph-name="braceright" unicode="}" horiz-adv-x="347" 
d="M149 426v230.003c0 51.333 -23 77 -69 77h-51v34h74c37.333 0 64.833 -9 82.5 -27s26.5 -47.667 26.5 -89v-237c0 -32.667 8.66699 -56.334 26 -71.001s44 -22.334 80 -23.001v-28c-36 -1.33301 -62.667 -9.16602 -80 -23.499s-26 -37.833 -26 -70.5v-237
c0 -40 -10 -69.333 -30 -88s-46.333 -28 -79 -28h-74v33h51c46 0 69 25.667 69 77v231c0 38.667 8 67.167 24 85.5s33.667 29.166 53 32.499v4c-19.333 3.33301 -37 14.166 -53 32.499s-24 46.833 -24 85.5z" />
    <glyph glyph-name="asciitilde" unicode="~" horiz-adv-x="546" 
d="M357 314c49.333 0 85.001 19.999 107.001 59.999l30 -16c-11.333 -40 -27.333 -70.167 -48 -90.5s-48.334 -30.5 -83.001 -30.5c-26 0 -59.333 8.16699 -100 24.5s-69.334 24.5 -86.001 24.5c-24 0 -43.667 -5.16699 -59 -15.5s-29 -26.5 -41 -48.5l-25 14
c8.66699 42.667 22.334 74.334 41.001 95.001s45.667 31 81 31c26 0 58 -8 96 -24s67 -24 87 -24z" />
    <glyph glyph-name="uni00A0" unicode="&#xa0;" horiz-adv-x="225" 
 />
    <glyph glyph-name="exclamdown" unicode="&#xa1;" horiz-adv-x="277" 
d="M89 -188l31 487h41l31 -471zM137 390c-16.667 0 -30.999 6.33301 -42.999 19s-18 28 -18 46c0 17.333 6 32 18 44s26.667 18 44 18s32.166 -6.16699 44.499 -18.5s18.5 -26.833 18.5 -43.5c0 -18 -6.33301 -33.333 -19 -46s-27.667 -19 -45 -19z" />
    <glyph glyph-name="cent" unicode="&#xa2;" horiz-adv-x="457" 
d="M270 -100l-33 -0.00195312v90c-59.333 5.33301 -107.333 28.833 -144 70.5s-55 99.834 -55 174.501c0 76.667 18.333 137.667 55 183s84.667 71.333 144 78v95h33v-94c56.667 -2.66699 101.667 -14.667 135 -36v-89h-56c-4.66699 27.333 -13 47.666 -25 60.999
s-30 21.333 -54 24v-419c28.667 0.666992 52.167 4.83398 70.5 12.501s38.833 20.834 61.5 39.501l21 -21c-42 -47.333 -93 -74 -153 -80v-89zM125 254.998c0 -67.333 9.16699 -117.832 27.5 -151.499s46.5 -54.834 84.5 -63.501v415c-74.667 -14 -112 -80.667 -112 -200z
" />
    <glyph glyph-name="sterling" unicode="&#xa3;" horiz-adv-x="571" 
d="M215 43l160.001 0.00195312c38 0 65.333 8.5 82 25.5s30 48.5 40 94.5h32l-15 -163h-462v29c30.667 2.66699 51.667 9.66699 63 21s17 30.666 17 57.999v193h-80v38h80v90c0 81.333 20.167 141.166 60.5 179.499s94.5 57.5 162.5 57.5c59.333 0 107.333 -14.333 144 -43
v-91h-62c-5.33301 34 -14.833 58.167 -28.5 72.5s-35.834 21.5 -66.501 21.5c-40.667 0 -72 -12.667 -94 -38s-33 -69.333 -33 -132v-117h191v-38h-191v-258z" />
    <glyph glyph-name="currency" unicode="&#xa4;" horiz-adv-x="462" 
d="M231 99c-23.333 0 -47.667 4.00098 -73 12.001l-50 -77l-47 33l47 73c-37.333 33.333 -56 78.666 -56 135.999c0 56.667 18.333 101.667 55 135l-46 72l48 33l47 -75c26 9.33301 51 14 75 14c20 0 43.667 -4.33301 71 -13l48 74l47 -33l-44 -69
c38 -34.667 57 -80.667 57 -138c0 -59.333 -19.667 -105.333 -59 -138l46 -71l-47 -33l-50 76c-26 -7.33301 -49 -11 -69 -11zM230.999 416.001c-36 0 -61.333 -11.167 -76 -33.5s-22 -55.166 -22 -98.499c0 -50.667 7.33301 -87.5 22 -110.5s40 -34.5 76 -34.5
c36.667 0 62.334 11.5 77.001 34.5s22 59.833 22 110.5c0 43.333 -7.33301 76.166 -22 98.499s-40.334 33.5 -77.001 33.5z" />
    <glyph glyph-name="yen" unicode="&#xa5;" horiz-adv-x="594" 
d="M530 219l-187.002 -0.000976562v-115c0 -28.667 5.83301 -48.667 17.5 -60s34.167 -17.666 67.5 -18.999v-25h-253v25c33.333 1.33301 55.833 7.66602 67.5 18.999s17.5 31.333 17.5 60v115h-182v38h182v15l-33 64h-149v38h130l-98 196
c-15.333 30 -29.666 50.667 -42.999 62s-30 18.666 -50 21.999v29h226v-29c-35.333 -2 -53 -13 -53 -33c0 -11.333 5 -27.333 15 -48l114 -242h4l113 244c8.66699 18 13 32.667 13 44c0 20 -19.667 31.667 -59 35v29h187v-29c-20 -3.33301 -36.667 -11.166 -50 -23.499
s-28.666 -36.166 -45.999 -71.499l-91 -185h140v-38h-159l-28 -58v-21h187v-38z" />
    <glyph glyph-name="brokenbar" unicode="&#xa6;" horiz-adv-x="243" 
d="M140 -150h-52v395h52v-395zM140 356h-52v395h52v-395z" />
    <glyph glyph-name="section" unicode="&#xa7;" horiz-adv-x="432" 
d="M403 308c0 -39.333 -10.834 -72.6689 -32.501 -100.002s-52.5 -46 -92.5 -56c30.667 -17.333 53.167 -36.666 67.5 -57.999s21.5 -47.666 21.5 -78.999c0 -46.667 -14.5 -83 -43.5 -109s-71.833 -39 -128.5 -39c-66.667 0 -117.667 11 -153 33v93h55c4 -34 14 -58 30 -72
s41.667 -21 77 -21c30 0 54.5 7.33301 73.5 22s28.5 37.334 28.5 68.001c0 26 -7.33301 47.167 -22 63.5s-36.334 30.833 -65.001 43.5l-64 28c-42.667 18.667 -75.167 39.334 -97.5 62.001s-33.5 56 -33.5 100c0 35.333 10.5 65.5 31.5 90.5s50.833 42.833 89.5 53.5
c-58.667 30.667 -88 77.667 -88 141c0 44.667 15.333 80.667 46 108s68.334 41 113.001 41c48 0 93.667 -10.333 137 -31v-85h-53c-9.33301 50.667 -39.666 76 -90.999 76c-28 0 -50.5 -8.5 -67.5 -25.5s-25.5 -39.5 -25.5 -67.5c0 -22.667 7.33301 -41.667 22 -57
s37 -29.333 67 -42l64 -28c14.667 -6.66699 32 -16 52 -28s35 -23.333 45 -34s18.667 -23.834 26 -39.501s11 -32.834 11 -51.501zM234.999 389.997l-56 24c-26.667 -8 -49 -21.667 -67 -41s-27 -42.333 -27 -69c0 -25.333 6.33301 -44.5 19 -57.5s37.667 -28.5 75 -46.5
l53 -25c30.667 3.33301 56.167 14.5 76.5 33.5s30.5 42.833 30.5 71.5c0 25.333 -9.16699 46.5 -27.5 63.5s-43.833 32.5 -76.5 46.5z" />
    <glyph glyph-name="dieresis" unicode="&#xa8;" horiz-adv-x="475" 
d="M190 635c0 -16 -5.5 -29.5 -16.5 -40.5s-24.5 -16.5 -40.5 -16.5s-29.5 5.5 -40.5 16.5s-16.5 24.5 -16.5 40.5s5.5 29.5 16.5 40.5s24.5 16.5 40.5 16.5s29.5 -5.5 40.5 -16.5s16.5 -24.5 16.5 -40.5zM399 635c0 -16 -5.5 -29.5 -16.5 -40.5s-24.5 -16.5 -40.5 -16.5
s-29.5 5.5 -40.5 16.5s-16.5 24.5 -16.5 40.5s5.5 29.5 16.5 40.5s24.5 16.5 40.5 16.5s29.5 -5.5 40.5 -16.5s16.5 -24.5 16.5 -40.5z" />
    <glyph glyph-name="copyright" unicode="&#xa9;" horiz-adv-x="792" 
d="M269 345c0 -56.667 10.833 -101.5 32.5 -134.5s54.167 -49.5 97.5 -49.5c32.667 0 55.667 6.16699 69 18.5s22.333 32.833 27 61.5h46v-83c-34.667 -22 -80.667 -33 -138 -33c-70 0 -122.667 18.333 -158 55s-53 89 -53 157c0 68.667 17.5 122.167 52.5 160.5
s86.833 57.5 155.5 57.5c58.667 0 104.667 -11 138 -33v-84h-52c-5.33301 30.667 -13.5 52.167 -24.5 64.5s-32.5 18.5 -64.5 18.5c-85.333 0 -128 -58.667 -128 -176zM396 25c87.333 0 160.333 29 219 87s88 134 88 228c0 96 -29.167 172.833 -87.5 230.5
s-131.5 86.5 -219.5 86.5s-161.167 -28.833 -219.5 -86.5s-87.5 -134.5 -87.5 -230.5c0 -94 29.333 -170 88 -228s131.667 -87 219 -87zM396 -12c-101.333 0 -185 32.5 -251 97.5s-99 150.167 -99 255.5c0 104 33.667 189 101 255s150.333 99 249 99s181.667 -33 249 -99
s101 -151 101 -255c0 -105.333 -33 -190.5 -99 -255.5s-149.667 -97.5 -251 -97.5z" />
    <glyph glyph-name="ordfeminine" unicode="&#xaa;" horiz-adv-x="391" 
d="M310 448c0 -29.333 2.49902 -47.332 7.49902 -53.999s19.833 -11.334 44.5 -14.001v-27c-14 -4.66699 -29.667 -7 -47 -7c-22.667 0 -38.5 5.33301 -47.5 16s-14.833 27.334 -17.5 50.001c-26.667 -48.667 -63 -73 -109 -73c-35.333 0 -63.666 9.5 -84.999 28.5
s-32 45.167 -32 78.5c0 82 64.667 123 194 123c8.66699 0 19.667 -0.666992 33 -2v30c0 34.667 -5.5 59.5 -16.5 74.5s-30.833 22.5 -59.5 22.5c-29.333 0 -50 -5.33301 -62 -16s-20 -26.334 -24 -47.001h-45v64c45.333 24.667 91 37 137 37c88 0 132 -41.667 132 -125
c0 -5.33301 -0.5 -26.5 -1.5 -63.5s-1.5 -68.833 -1.5 -95.5zM246.999 447.001l2.99902 89.001c-13.333 1.33301 -24.333 2 -33 2c-42 0 -72.667 -6.5 -92 -19.5s-29 -33.833 -29 -62.5c0 -26.667 5.33301 -45.334 16 -56.001s28 -16 52 -16c16.667 0 32.334 6 47.001 18
s26.667 27 36 45z" />
    <glyph glyph-name="guillemotleft" unicode="&#xab;" horiz-adv-x="496" 
d="M140 241l113 -177l-32 -29l-165 206l165 206l32 -29zM336 241l113 -177l-32 -29l-165 206l165 206l32 -29z" />
    <glyph glyph-name="logicalnot" unicode="&#xac;" horiz-adv-x="491" 
d="M56 237v50h379v-215h-47v165h-332z" />
    <glyph glyph-name="uni00AD" unicode="&#xad;" horiz-adv-x="303" 
d="M247 235h-191v65h191v-65z" />
    <glyph glyph-name="registered" unicode="&#xae;" horiz-adv-x="792" 
d="M393 159l-0.00390625 -23.0029h-178v23c22.667 0.666992 37.334 5.33398 44.001 14.001s10 24.667 10 48v241c0 25.333 -2.83301 41.833 -8.5 49.5s-20.834 11.834 -45.501 12.501v25h166c50.667 0 89.334 -8.16699 116.001 -24.5s40 -45.166 40 -86.499
c0 -40 -10.167 -67.667 -30.5 -83s-51.166 -23.666 -92.499 -24.999v-4c32 -12 58.333 -34 79 -66l8.5 -15.5l12 -22l13.5 -24.5c8.66699 -16 16.334 -26.167 23.001 -30.5s19.334 -6.83301 38.001 -7.5v-24h-105c-12.667 28 -30 62.667 -52 104c-14 26 -24 43.5 -30 52.5
s-14.667 16.833 -26 23.5s-26 10 -44 10v-105c0 -25.333 3.83301 -41.833 11.5 -49.5s24.5 -11.834 50.5 -12.501zM469.996 437.997c0 28.667 -7.66699 49 -23 61s-43.333 18 -84 18h-32v-162h45c35.333 0 59.833 5.83301 73.5 17.5s20.5 33.5 20.5 65.5zM395.996 24.9971
c87.333 0 160.333 29 219 87s88 134 88 228c0 96 -29.167 172.833 -87.5 230.5s-131.5 86.5 -219.5 86.5s-161.167 -28.833 -219.5 -86.5s-87.5 -134.5 -87.5 -230.5c0 -94 29.333 -170 88 -228s131.667 -87 219 -87zM395.996 -12.0029c-101.333 0 -185 32.5 -251 97.5
s-99 150.167 -99 255.5c0 104 33.667 189 101 255s150.333 99 249 99s181.667 -33 249 -99s101 -151 101 -255c0 -105.333 -33 -190.5 -99 -255.5s-149.667 -97.5 -251 -97.5z" />
    <glyph glyph-name="macron" unicode="&#xaf;" horiz-adv-x="425" 
d="M347 590h-269v51h269v-51z" />
    <glyph glyph-name="degree" unicode="&#xb0;" horiz-adv-x="410" 
d="M363 522c0 -50 -14.668 -90 -44.001 -120s-67.333 -45 -114 -45c-49.333 0 -88 14.833 -116 44.5s-42 70.5 -42 122.5c0 50.667 14.333 91 43 121s66.334 45 113.001 45c50 0 89.167 -15 117.5 -45s42.5 -71 42.5 -123zM297.999 518c0 44 -7.66699 75.166 -23 93.499
s-39 27.5 -71 27.5c-61.333 0 -92 -37 -92 -111c0 -43.333 7.5 -74.166 22.5 -92.499s38.833 -27.5 71.5 -27.5c61.333 0 92 36.667 92 110z" />
    <glyph glyph-name="plusminus" unicode="&#xb1;" horiz-adv-x="491" 
d="M224 501h47v-155h164v-50h-164v-164h-47v164h-168v50h168v155zM56 25v50h379v-50h-379z" />
    <glyph glyph-name="twosuperior" unicode="&#xb2;" horiz-adv-x="329" 
d="M151 645c36.667 0 66.5 -9.49902 89.5 -28.499s34.5 -45.167 34.5 -78.5c0 -22 -6.83301 -44 -20.5 -66s-27.667 -39.833 -42 -53.5s-37.5 -34.167 -69.5 -61.5l-64 -55h215l-10 -52h-259v38l76 78c37.333 38 63.166 67.833 77.499 89.5s21.833 47.167 22.5 76.5
c0 23.333 -6.66699 41.166 -20 53.499s-31.666 18.5 -54.999 18.5c-29.333 0 -56.666 -9 -81.999 -27l-14 20c37.333 32 77.666 48 120.999 48z" />
    <glyph glyph-name="threesuperior" unicode="&#xb3;" horiz-adv-x="317" 
d="M136 605c-28.667 0 -56.334 -8.33594 -83.001 -25.0029l-16 24c34.667 27.333 75 41 121 41c34 0 61.667 -7.83301 83 -23.5s32 -38.167 32 -67.5c0 -48 -29.667 -79.667 -89 -95c30 -3.33301 53.833 -14.166 71.5 -32.499s26.5 -40.166 26.5 -65.499
c0 -40.667 -17.667 -72.667 -53 -96s-78.333 -35 -129 -35c-25.333 0 -48.666 2.66699 -69.999 8l-8 26c14 -2.66699 31.333 -4 52 -4c40 0 72.833 9.33301 98.5 28s38.5 44 38.5 76c0 26.667 -6.83301 45.667 -20.5 57s-34.167 17 -61.5 17
c-10.667 0 -20.667 -0.666992 -30 -2l3 36h10c32 0 55.833 4.83301 71.5 14.5s23.5 27.834 23.5 54.501c0 20.667 -6.33301 36.5 -19 47.5s-30 16.5 -52 16.5z" />
    <glyph glyph-name="acute" unicode="&#xb4;" horiz-adv-x="376" 
d="M95 568l-17 29l171 146l49 -83z" />
    <glyph glyph-name="mu" unicode="&#xb5;" horiz-adv-x="536" 
d="M50 -198l-4.00098 17.999c8.66699 46.667 13 107.334 13 182.001v157c0 108 -2 216 -6 324l67 12h19v-60c0 -23.333 -0.166992 -67 -0.5 -131s-0.5 -110 -0.5 -138c0 -46.667 7.16699 -77.5 21.5 -92.5s34.5 -22.5 60.5 -22.5c23.333 0 47.333 7 72 21
s46.334 31.333 65.001 52v361l59 10h20v-376c0 -26.667 3.66699 -46.167 11 -58.5s22.333 -18.5 45 -18.5c6 0 14.333 0.666992 25 2v-33c-24.667 -13.333 -50.334 -20 -77.001 -20c-40.667 0 -67.667 29.333 -81 88c-20.667 -26.667 -44.167 -48.667 -70.5 -66
s-53.166 -26 -80.499 -26c-12.667 0 -26.5 2.5 -41.5 7.5s-25.833 11.5 -32.5 19.5l-4 -1c4 -24.667 6 -64.667 6 -120l1 -78z" />
    <glyph glyph-name="paragraph" unicode="&#xb6;" horiz-adv-x="613" 
d="M499 579l-0.000976562 -704h-43v767h-97v-767h-43v432h-83c-70 0 -122.333 13.667 -157 41s-52 77 -52 149c0 69.333 15.833 117.666 47.5 144.999s85.834 41 162.501 41h345v-25c-30.667 -2.66699 -51.667 -9.66699 -63 -21s-17 -30.666 -17 -57.999zM186.999 497
c0 -54.667 5.99902 -93 17.999 -115s35 -33 69 -33h42v293h-42c-35.333 0 -58.666 -9.33301 -69.999 -28s-17 -57.667 -17 -117z" />
    <glyph glyph-name="periodcentered" unicode="&#xb7;" horiz-adv-x="280" 
d="M208 275c0 -19.333 -6.5 -35.833 -19.5 -49.5s-29.167 -20.5 -48.5 -20.5s-35.5 6.83301 -48.5 20.5s-19.5 30.167 -19.5 49.5s6.5 35.833 19.5 49.5s29.167 20.5 48.5 20.5s35.5 -6.83301 48.5 -20.5s19.5 -30.167 19.5 -49.5z" />
    <glyph glyph-name="cedilla" unicode="&#xb8;" horiz-adv-x="279" 
d="M223 -116c0 -54.667 -31 -82 -93 -82c-26.667 0 -52 7.33301 -76 22l13 25c20 -9.33301 40 -14 60 -14c30.667 0 46 13 46 39c0 21.333 -23.333 33.333 -70 36v17l22 77l25 -4l-13 -45c29.333 -2 51 -9.66699 65 -23s21 -29.333 21 -48z" />
    <glyph glyph-name="onesuperior" unicode="&#xb9;" horiz-adv-x="310" 
d="M200 638v-320.002c0 -18 5.5 -29.667 16.5 -35s33.833 -8.66602 68.5 -9.99902v-23h-236v23c35.333 1.33301 58.333 4.5 69 9.5s16 16.833 16 35.5v264c-36 -17.333 -66.333 -29.666 -91 -36.999l-7 22l116 71h48z" />
    <glyph glyph-name="ordmasculine" unicode="&#xba;" horiz-adv-x="393" 
d="M369 529c0 -58.667 -16.001 -105 -48.001 -139s-73.667 -51 -125 -51c-50.667 0 -92 17.333 -124 52s-48 81.667 -48 141c0 60 15.833 107.5 47.5 142.5s72.834 52.5 123.501 52.5c54 0 96.5 -18.5 127.5 -55.5s46.5 -84.5 46.5 -142.5zM299.999 526
c0 110.667 -34.333 166 -103 166c-36.667 0 -62.667 -12.833 -78 -38.5s-23 -63.167 -23 -112.5c0 -58 8 -100.333 24 -127s42.333 -40 79 -40c67.333 0 101 50.667 101 152z" />
    <glyph glyph-name="guillemotright" unicode="&#xbb;" horiz-adv-x="496" 
d="M243 64l113 177l-113 177l32 29l165 -206l-165 -206zM47 64l113 177l-113 177l32 29l165 -206l-165 -206z" />
    <glyph glyph-name="onequarter" unicode="&#xbc;" horiz-adv-x="904" 
d="M200 638v-320.002c0 -18 5.5 -29.667 16.5 -35s33.833 -8.66602 68.5 -9.99902v-23h-236v23c35.333 1.33301 58.333 4.5 69 9.5s16 16.833 16 35.5v264c-36 -17.333 -66.333 -29.666 -91 -36.999l-7 22l116 71h48zM705 723.998l-484 -847h-43l484 847h43zM765 -20.002
v111h-192v22l140 275h65l-152 -267h139c0 60.667 7.33301 114 22 160l44 9v-169h52v-30h-52v-101z" />
    <glyph glyph-name="onehalf" unicode="&#xbd;" horiz-adv-x="905" 
d="M200 638v-320.002c0 -18 5.5 -29.667 16.5 -35s33.833 -8.66602 68.5 -9.99902v-23h-236v23c35.333 1.33301 58.333 4.5 69 9.5s16 16.833 16 35.5v264c-36 -17.333 -66.333 -29.666 -91 -36.999l-7 22l116 71h48zM705 723.998l-484 -847h-43l484 847h43zM740 394.998
c36.667 0 66.501 -9.49902 89.501 -28.499s34.5 -45.167 34.5 -78.5c0 -22 -6.83301 -44 -20.5 -66s-27.667 -39.833 -42 -53.5s-37.5 -34.167 -69.5 -61.5l-64 -55h215l-10 -52h-259v38l76 78c37.333 38 63.166 67.833 77.499 89.5s21.833 47.167 22.5 76.5
c0 23.333 -6.66699 41.166 -20 53.499s-31.666 18.5 -54.999 18.5c-30 0 -57.333 -9 -82 -27l-14 20c37.333 32 77.666 48 120.999 48z" />
    <glyph glyph-name="threequarters" unicode="&#xbe;" horiz-adv-x="911" 
d="M772 -20v111h-192l-1 21l141 276h65l-152 -267h139c0 60.667 7.33301 114 22 160l44 9v-169h52v-30h-52v-101zM136 605c-28.667 0 -56.334 -8.33594 -83.001 -25.0029l-16 24c34.667 27.333 75 41 121 41c34 0 61.667 -7.83301 83 -23.5s32 -38.167 32 -67.5
c0 -48 -29.667 -79.667 -89 -95c30 -3.33301 53.833 -14.166 71.5 -32.499s26.5 -40.166 26.5 -65.499c0 -40.667 -17.667 -72.667 -53 -96s-78.333 -35 -129 -35c-25.333 0 -48.666 2.66699 -69.999 8l-8 26c14 -2.66699 31.333 -4 52 -4c40 0 72.833 9.33301 98.5 28
s38.5 44 38.5 76c0 26.667 -6.83301 45.667 -20.5 57s-34.167 17 -61.5 17c-10.667 0 -20.667 -0.666992 -30 -2l3 36h10c32 0 55.833 4.83301 71.5 14.5s23.5 27.834 23.5 54.501c0 20.667 -6.33301 36.5 -19 47.5s-30 16.5 -52 16.5zM712 723.997l-484 -847h-43l484 847
h43z" />
    <glyph glyph-name="questiondown" unicode="&#xbf;" horiz-adv-x="436" 
d="M390 -59l-0.000976562 -86.999c-41.333 -29.333 -93.666 -44 -156.999 -44c-50 0 -90 12 -120 36s-45 62 -45 114c0 60 32 111 96 153c30.667 19.333 51.667 37.333 63 54s17 39.667 17 69c0 15.333 -2.33301 33 -7 53h30c14.667 -24 22 -49.667 22 -77
c0 -44 -18.333 -83.333 -55 -118c-2 -2 -8 -7.33301 -18 -16s-16.833 -15 -20.5 -19s-9.33398 -10.667 -17.001 -20s-13.167 -17.833 -16.5 -25.5s-6.5 -17.167 -9.5 -28.5s-4.5 -23.333 -4.5 -36c0 -30.667 8.83301 -54.834 26.5 -72.501s40.5 -26.5 68.5 -26.5
c56.667 0 88.334 30.333 95.001 91h52zM312.999 452.001c0 -19.333 -6.66699 -35.833 -20 -49.5s-29.333 -20.5 -48 -20.5c-18 0 -33.333 6.83301 -46 20.5s-19 30.167 -19 49.5c0 18 6.33301 33.333 19 46s28 19 46 19s33.833 -6.33301 47.5 -19s20.5 -28 20.5 -46z" />
    <glyph glyph-name="Agrave" unicode="&#xc0;" horiz-adv-x="653" 
d="M463 105l-34 110h-240l-34 -110c-4 -14 -6 -26 -6 -36c0 -14.667 5.5 -24.667 16.5 -30s29.833 -8.66602 56.5 -9.99902v-29h-202v29c24 2.66699 41.833 10 53.5 22s22.5 34 32.5 66l183 566h79l181 -564c9.33301 -31.333 19.333 -53.5 30 -66.5s28.667 -20.833 54 -23.5
v-29h-233v29c24 1.33301 41.333 5.5 52 12.5s16 17.833 16 32.5c0 9.33301 -1.66699 19.666 -5 30.999zM249 409l-47.001 -151.998h215l-46 152c-36 117.333 -55.333 181.666 -58 192.999h-4c-5.33301 -20.667 -11.166 -41.334 -17.499 -62.001l-22 -68.5zM434.999 758.002
l-18 -29l-204 67l40 84z" />
    <glyph glyph-name="Aacute" unicode="&#xc1;" horiz-adv-x="653" 
d="M463 105l-34 110h-240l-34 -110c-4 -14 -6 -26 -6 -36c0 -14.667 5.5 -24.667 16.5 -30s29.833 -8.66602 56.5 -9.99902v-29h-202v29c24 2.66699 41.833 10 53.5 22s22.5 34 32.5 66l183 566h79l181 -564c9.33301 -31.333 19.333 -53.5 30 -66.5s28.667 -20.833 54 -23.5
v-29h-233v29c24 1.33301 41.333 5.5 52 12.5s16 17.833 16 32.5c0 9.33301 -1.66699 19.666 -5 30.999zM249 409l-47.001 -151.998h215l-46 152c-36 117.333 -55.333 181.666 -58 192.999h-4c-5.33301 -20.667 -11.166 -41.334 -17.499 -62.001l-22 -68.5zM231.999 728.002
l-17 30l182 122l40 -84z" />
    <glyph glyph-name="Acircumflex" unicode="&#xc2;" horiz-adv-x="653" 
d="M463 105l-34 110h-240l-34 -110c-4 -14 -6 -26 -6 -36c0 -14.667 5.5 -24.667 16.5 -30s29.833 -8.66602 56.5 -9.99902v-29h-202v29c24 2.66699 41.833 10 53.5 22s22.5 34 32.5 66l183 566h79l181 -564c9.33301 -31.333 19.333 -53.5 30 -66.5s28.667 -20.833 54 -23.5
v-29h-233v29c24 1.33301 41.333 5.5 52 12.5s16 17.833 16 32.5c0 9.33301 -1.66699 19.666 -5 30.999zM249 409l-47.001 -151.998h215l-46 152c-36 117.333 -55.333 181.666 -58 192.999h-4c-5.33301 -20.667 -11.166 -41.334 -17.499 -62.001l-22 -68.5zM460.999 731.002
l-135 80l-135 -80l-21 24l156 143l156 -143z" />
    <glyph glyph-name="Atilde" unicode="&#xc3;" horiz-adv-x="653" 
d="M463 105l-34 110h-240l-34 -110c-4 -14 -6 -26 -6 -36c0 -14.667 5.5 -24.667 16.5 -30s29.833 -8.66602 56.5 -9.99902v-29h-202v29c24 2.66699 41.833 10 53.5 22s22.5 34 32.5 66l183 566h79l181 -564c9.33301 -31.333 19.333 -53.5 30 -66.5s28.667 -20.833 54 -23.5
v-29h-233v29c24 1.33301 41.333 5.5 52 12.5s16 17.833 16 32.5c0 9.33301 -1.66699 19.666 -5 30.999zM249 409l-47.001 -151.998h215l-46 152c-36 117.333 -55.333 181.666 -58 192.999h-4c-5.33301 -20.667 -11.166 -41.334 -17.499 -62.001l-22 -68.5zM393.999 812.002
c32 0 57.666 14.333 76.999 43l25 -10c-21.333 -60.667 -55.333 -91 -102 -91c-22.667 0 -47.667 7.33301 -75 22s-48.333 22 -63 22c-29.333 0 -54 -15 -74 -45l-24 10c17.333 63.333 50 95 98 95c20.667 0 44.334 -7.66699 71.001 -23s49 -23 67 -23z" />
    <glyph glyph-name="Adieresis" unicode="&#xc4;" horiz-adv-x="653" 
d="M463 105l-34 110h-240l-34 -110c-4 -14 -6 -26 -6 -36c0 -14.667 5.5 -24.667 16.5 -30s29.833 -8.66602 56.5 -9.99902v-29h-202v29c24 2.66699 41.833 10 53.5 22s22.5 34 32.5 66l183 566h79l181 -564c9.33301 -31.333 19.333 -53.5 30 -66.5s28.667 -20.833 54 -23.5
v-29h-233v29c24 1.33301 41.333 5.5 52 12.5s16 17.833 16 32.5c0 9.33301 -1.66699 19.666 -5 30.999zM249 409l-47.001 -151.998h215l-46 152c-36 117.333 -55.333 181.666 -58 192.999h-4c-5.33301 -20.667 -11.166 -41.334 -17.499 -62.001l-22 -68.5zM278.999 784.002
c0 -16.667 -5.5 -30.334 -16.5 -41.001s-24.833 -16 -41.5 -16c-16 0 -29.5 5.33301 -40.5 16s-16.5 24.334 -16.5 41.001s5.5 30.334 16.5 41.001s24.5 16 40.5 16c16.667 0 30.5 -5.33301 41.5 -16s16.5 -24.334 16.5 -41.001zM487.999 784.002
c0 -16.667 -5.5 -30.334 -16.5 -41.001s-24.5 -16 -40.5 -16c-16.667 0 -30.5 5.33301 -41.5 16s-16.5 24.334 -16.5 41.001s5.5 30.334 16.5 41.001s24.833 16 41.5 16c16 0 29.5 -5.33301 40.5 -16s16.5 -24.334 16.5 -41.001z" />
    <glyph glyph-name="Aring" unicode="&#xc5;" horiz-adv-x="653" 
d="M463 105l-34 110h-240l-34 -110c-4 -14 -6 -26 -6 -36c0 -14.667 5.5 -24.667 16.5 -30s29.833 -8.66602 56.5 -9.99902v-29h-202v29c24 2.66699 41.833 10 53.5 22s22.5 34 32.5 66l183 566h79l181 -564c9.33301 -31.333 19.333 -53.5 30 -66.5s28.667 -20.833 54 -23.5
v-29h-233v29c24 1.33301 41.333 5.5 52 12.5s16 17.833 16 32.5c0 9.33301 -1.66699 19.666 -5 30.999zM249 409l-47.001 -151.998h215l-46 152c-36 117.333 -55.333 181.666 -58 192.999h-4c-5.33301 -20.667 -11.166 -41.334 -17.499 -62.001l-22 -68.5zM325.999 719.002
c-28 0 -51.333 9.5 -70 28.5s-28 42.5 -28 70.5s9.33301 51.5 28 70.5s42 28.5 70 28.5c28.667 0 52.334 -9.5 71.001 -28.5s28 -42.5 28 -70.5s-9.33301 -51.5 -28 -70.5s-42.334 -28.5 -71.001 -28.5zM325.999 888.002c-19.333 0 -34.833 -6.66699 -46.5 -20
s-17.5 -30.333 -17.5 -51c0 -19.333 5.83301 -35.5 17.5 -48.5s27.167 -19.5 46.5 -19.5s35 6.5 47 19.5s18 29.167 18 48.5c0 20.667 -6 37.667 -18 51s-27.667 20 -47 20z" />
    <glyph glyph-name="AE" unicode="&#xc6;" horiz-adv-x="891" 
d="M112 101l253.999 475.999c8 14.667 12 26.667 12 36c0 24.667 -24.333 38.334 -73 41.001v29h526l10 -144h-31c-12 40 -24.333 66.833 -37 80.5s-34 20.5 -64 20.5h-173v-262h99c33.333 0 56.5 4.83301 69.5 14.5s20.5 28.5 22.5 56.5h29v-184h-29
c-2 27.333 -9.5 46 -22.5 56s-35.833 15 -68.5 15h-100v-293h174c40.667 0 68.167 7.66699 82.5 23s23.5 46.333 27.5 93h33v-159h-480v29c30.667 2.66699 51.667 9.66699 63 21s17 30.666 17 57.999v137h-210l-78 -147c-9.33301 -17.333 -14 -29.666 -14 -36.999
c0 -18 19 -28.667 57 -32v-29h-188v29c21.333 2.66699 38.333 8.66699 51 18s26.334 27.333 41.001 54zM450.999 642.999l-187 -356h189v167c0 64.667 0.666992 127.667 2 189h-4z" />
    <glyph glyph-name="Ccedilla" unicode="&#xc7;" horiz-adv-x="571" 
d="M415 -116c0 -54.667 -31 -82.001 -93 -82.001c-28 0 -53.333 7 -76 21l13 27c21.333 -10 41.333 -15 60 -15c30.667 0 46 13 46 39c0 21.333 -24 33.333 -72 36v17l18 63c-88.667 7.33301 -155 41 -199 101s-66 141.667 -66 245c0 112.667 26.333 200.667 79 264
s123 95 211 95c86 0 150 -14.667 192 -44v-109h-58c-10 40 -24.833 68.667 -44.5 86s-50.5 26 -92.5 26c-62.667 0 -110.667 -24.667 -144 -74s-50 -130 -50 -242c0 -78 8.66699 -140.333 26 -187s40.333 -78.5 69 -95.5s65.334 -25.5 110.001 -25.5
c41.333 0 72.5 8.33301 93.5 25s35.167 44.334 42.5 83.001h53v-102l3 2c-46 -32.667 -111.333 -49 -196 -49l-9 -34c29.333 -2 50.666 -9.5 63.999 -22.5s20 -29.167 20 -48.5z" />
    <glyph glyph-name="Egrave" unicode="&#xc8;" horiz-adv-x="557" 
d="M39 0v29.002c30.667 2.66699 51.667 9.66699 63 21s17 30.666 17 57.999v467c0 27.333 -5.66699 46.666 -17 57.999s-32.333 18.333 -63 21v29h458l10 -144h-31c-12 40 -24.333 66.833 -37 80.5s-34 20.5 -64 20.5h-173v-262h99c33.333 0 56.5 4.83301 69.5 14.5
s20.5 28.5 22.5 56.5h29v-184h-29c-2 27.333 -9.5 46 -22.5 56s-35.833 15 -68.5 15h-100v-293h174c40.667 0 68.167 7.66699 82.5 23s23.5 46.333 27.5 93h33v-159h-480zM402 758.002l-18 -29l-204 67l40 84z" />
    <glyph glyph-name="Eacute" unicode="&#xc9;" horiz-adv-x="557" 
d="M39 0v29.002c30.667 2.66699 51.667 9.66699 63 21s17 30.666 17 57.999v467c0 27.333 -5.66699 46.666 -17 57.999s-32.333 18.333 -63 21v29h458l10 -144h-31c-12 40 -24.333 66.833 -37 80.5s-34 20.5 -64 20.5h-173v-262h99c33.333 0 56.5 4.83301 69.5 14.5
s20.5 28.5 22.5 56.5h29v-184h-29c-2 27.333 -9.5 46 -22.5 56s-35.833 15 -68.5 15h-100v-293h174c40.667 0 68.167 7.66699 82.5 23s23.5 46.333 27.5 93h33v-159h-480zM199 728.002l-17 30l182 122l40 -84z" />
    <glyph glyph-name="Ecircumflex" unicode="&#xca;" horiz-adv-x="557" 
d="M39 0v29.002c30.667 2.66699 51.667 9.66699 63 21s17 30.666 17 57.999v467c0 27.333 -5.66699 46.666 -17 57.999s-32.333 18.333 -63 21v29h458l10 -144h-31c-12 40 -24.333 66.833 -37 80.5s-34 20.5 -64 20.5h-173v-262h99c33.333 0 56.5 4.83301 69.5 14.5
s20.5 28.5 22.5 56.5h29v-184h-29c-2 27.333 -9.5 46 -22.5 56s-35.833 15 -68.5 15h-100v-293h174c40.667 0 68.167 7.66699 82.5 23s23.5 46.333 27.5 93h33v-159h-480zM428 731.002l-135 80l-135 -80l-21 24l156 143l156 -143z" />
    <glyph glyph-name="Edieresis" unicode="&#xcb;" horiz-adv-x="557" 
d="M39 0v29.002c30.667 2.66699 51.667 9.66699 63 21s17 30.666 17 57.999v467c0 27.333 -5.66699 46.666 -17 57.999s-32.333 18.333 -63 21v29h458l10 -144h-31c-12 40 -24.333 66.833 -37 80.5s-34 20.5 -64 20.5h-173v-262h99c33.333 0 56.5 4.83301 69.5 14.5
s20.5 28.5 22.5 56.5h29v-184h-29c-2 27.333 -9.5 46 -22.5 56s-35.833 15 -68.5 15h-100v-293h174c40.667 0 68.167 7.66699 82.5 23s23.5 46.333 27.5 93h33v-159h-480zM246 784.002c0 -16.667 -5.5 -30.334 -16.5 -41.001s-24.833 -16 -41.5 -16
c-16 0 -29.5 5.33301 -40.5 16s-16.5 24.334 -16.5 41.001s5.5 30.334 16.5 41.001s24.5 16 40.5 16c16.667 0 30.5 -5.33301 41.5 -16s16.5 -24.334 16.5 -41.001zM455 784.002c0 -16.667 -5.5 -30.334 -16.5 -41.001s-24.5 -16 -40.5 -16
c-16.667 0 -30.5 5.33301 -41.5 16s-16.5 24.334 -16.5 41.001s5.5 30.334 16.5 41.001s24.833 16 41.5 16c16 0 29.5 -5.33301 40.5 -16s16.5 -24.334 16.5 -41.001z" />
    <glyph glyph-name="Igrave" unicode="&#xcc;" horiz-adv-x="321" 
d="M119 108v467c0 27.333 -5.66699 46.666 -17 57.999s-32.333 18.333 -63 21v29h243v-29c-30.667 -2.66699 -51.667 -9.66699 -63 -21s-17 -30.666 -17 -57.999v-467c0 -27.333 5.66699 -46.666 17 -57.999s32.333 -18.333 63 -21v-29h-243v29
c30.667 2.66699 51.667 9.66699 63 21s17 30.666 17 57.999zM269 758l-18 -29l-204 67l40 84z" />
    <glyph glyph-name="Iacute" unicode="&#xcd;" horiz-adv-x="321" 
d="M119 108v467c0 27.333 -5.66699 46.666 -17 57.999s-32.333 18.333 -63 21v29h243v-29c-30.667 -2.66699 -51.667 -9.66699 -63 -21s-17 -30.666 -17 -57.999v-467c0 -27.333 5.66699 -46.666 17 -57.999s32.333 -18.333 63 -21v-29h-243v29
c30.667 2.66699 51.667 9.66699 63 21s17 30.666 17 57.999zM66 728l-17 30l182 122l40 -84z" />
    <glyph glyph-name="Icircumflex" unicode="&#xce;" horiz-adv-x="321" 
d="M119 108v467c0 27.333 -5.66699 46.666 -17 57.999s-32.333 18.333 -63 21v29h243v-29c-30.667 -2.66699 -51.667 -9.66699 -63 -21s-17 -30.666 -17 -57.999v-467c0 -27.333 5.66699 -46.666 17 -57.999s32.333 -18.333 63 -21v-29h-243v29
c30.667 2.66699 51.667 9.66699 63 21s17 30.666 17 57.999zM295 731l-135 80l-135 -80l-21 24l156 143l156 -143z" />
    <glyph glyph-name="Idieresis" unicode="&#xcf;" horiz-adv-x="321" 
d="M119 108v467c0 27.333 -5.66699 46.666 -17 57.999s-32.333 18.333 -63 21v29h243v-29c-30.667 -2.66699 -51.667 -9.66699 -63 -21s-17 -30.666 -17 -57.999v-467c0 -27.333 5.66699 -46.666 17 -57.999s32.333 -18.333 63 -21v-29h-243v29
c30.667 2.66699 51.667 9.66699 63 21s17 30.666 17 57.999zM113 784c0 -16.667 -5.5 -30.334 -16.5 -41.001s-24.833 -16 -41.5 -16c-16 0 -29.5 5.33301 -40.5 16s-16.5 24.334 -16.5 41.001s5.5 30.334 16.5 41.001s24.5 16 40.5 16c16.667 0 30.5 -5.33301 41.5 -16
s16.5 -24.334 16.5 -41.001zM322 784c0 -16.667 -5.5 -30.334 -16.5 -41.001s-24.5 -16 -40.5 -16c-16.667 0 -30.5 5.33301 -41.5 16s-16.5 24.334 -16.5 41.001s5.5 30.334 16.5 41.001s24.833 16 41.5 16c16 0 29.5 -5.33301 40.5 -16s16.5 -24.334 16.5 -41.001z" />
    <glyph glyph-name="Eth" unicode="&#xd0;" horiz-adv-x="664" 
d="M37 342l-0.00195312 40.001h84v193c0 27.333 -5.66699 46.666 -17 57.999s-32.333 18.333 -63 21v29h247c104 0 185 -28.167 243 -84.5s87 -142.166 87 -257.499c0 -51.333 -5.83301 -97 -17.5 -137s-30.167 -75.667 -55.5 -107s-59.666 -55.333 -102.999 -72
s-94.666 -25 -153.999 -25h-247v29c30.667 2.66699 51.667 9.66699 63 21s17 30.666 17 57.999v234h-84zM525.998 329.001c0 112.667 -18.501 193 -55.501 241s-93.833 72 -170.5 72h-93v-260h129v-40h-129v-297h91c80.667 0 138.834 20.167 174.501 60.5
s53.5 114.833 53.5 223.5z" />
    <glyph glyph-name="Ntilde" unicode="&#xd1;" horiz-adv-x="679" 
d="M518 330v245.002c0 27.333 -5.66699 46.666 -17 57.999s-32.333 18.333 -63 21v29h207v-29c-28 -2.66699 -47 -9.5 -57 -20.5s-15 -30.5 -15 -58.5v-575h-61l-249 407c-46 74 -75.667 131 -89 171h-6c4 -26.667 6 -89 6 -187v-283c0 -27.333 5.66699 -46.666 17 -57.999
s32.333 -18.333 63 -21v-29h-215v29c30.667 2.66699 51.667 9.66699 63 21s17 30.666 17 57.999v467c0 27.333 -5.66699 46.666 -17 57.999s-32.333 18.333 -63 21v29h152l254 -417c38 -62 62.667 -110.667 74 -146h6c-4.66699 28 -7 98 -7 210zM410 812.002
c32 0 57.666 14.333 76.999 43l25 -10c-21.333 -60.667 -55.333 -91 -102 -91c-22.667 0 -47.667 7.33301 -75 22s-48.333 22 -63 22c-29.333 0 -54 -15 -74 -45l-24 10c17.333 63.333 50 95 98 95c20.667 0 44.334 -7.66699 71.001 -23s49 -23 67 -23z" />
    <glyph glyph-name="Ograve" unicode="&#xd2;" horiz-adv-x="666" 
d="M336 -11c-93.333 0 -164.999 32.499 -214.999 97.499s-75 150.833 -75 257.5c0 110.667 25.667 196.834 77 258.501s120.666 92.5 207.999 92.5c50 0 94 -9.66699 132 -29s68.167 -45.833 90.5 -79.5s39 -71.334 50 -113.001s16.5 -87.167 16.5 -136.5
c0 -105.333 -25.333 -189.666 -76 -252.999s-120 -95 -208 -95zM331.001 653.999c-67.333 0 -116.667 -24.833 -148 -74.5s-47 -124.5 -47 -224.5c0 -218 66.667 -327 200 -327c128 0 192 100 192 300c0 108 -15.333 189.333 -46 244s-81 82 -151 82zM442 757.999l-18 -29
l-204 67l40 84z" />
    <glyph glyph-name="Oacute" unicode="&#xd3;" horiz-adv-x="666" 
d="M336 -11c-93.333 0 -164.999 32.499 -214.999 97.499s-75 150.833 -75 257.5c0 110.667 25.667 196.834 77 258.501s120.666 92.5 207.999 92.5c50 0 94 -9.66699 132 -29s68.167 -45.833 90.5 -79.5s39 -71.334 50 -113.001s16.5 -87.167 16.5 -136.5
c0 -105.333 -25.333 -189.666 -76 -252.999s-120 -95 -208 -95zM331.001 653.999c-67.333 0 -116.667 -24.833 -148 -74.5s-47 -124.5 -47 -224.5c0 -218 66.667 -327 200 -327c128 0 192 100 192 300c0 108 -15.333 189.333 -46 244s-81 82 -151 82zM239 727.999l-17 30
l182 122l40 -84z" />
    <glyph glyph-name="Ocircumflex" unicode="&#xd4;" horiz-adv-x="666" 
d="M336 -11c-93.333 0 -164.999 32.499 -214.999 97.499s-75 150.833 -75 257.5c0 110.667 25.667 196.834 77 258.501s120.666 92.5 207.999 92.5c50 0 94 -9.66699 132 -29s68.167 -45.833 90.5 -79.5s39 -71.334 50 -113.001s16.5 -87.167 16.5 -136.5
c0 -105.333 -25.333 -189.666 -76 -252.999s-120 -95 -208 -95zM331.001 653.999c-67.333 0 -116.667 -24.833 -148 -74.5s-47 -124.5 -47 -224.5c0 -218 66.667 -327 200 -327c128 0 192 100 192 300c0 108 -15.333 189.333 -46 244s-81 82 -151 82zM468 730.999l-135 80
l-135 -80l-21 24l156 143l156 -143z" />
    <glyph glyph-name="Otilde" unicode="&#xd5;" horiz-adv-x="666" 
d="M336 -11c-93.333 0 -164.999 32.499 -214.999 97.499s-75 150.833 -75 257.5c0 110.667 25.667 196.834 77 258.501s120.666 92.5 207.999 92.5c50 0 94 -9.66699 132 -29s68.167 -45.833 90.5 -79.5s39 -71.334 50 -113.001s16.5 -87.167 16.5 -136.5
c0 -105.333 -25.333 -189.666 -76 -252.999s-120 -95 -208 -95zM331.001 653.999c-67.333 0 -116.667 -24.833 -148 -74.5s-47 -124.5 -47 -224.5c0 -218 66.667 -327 200 -327c128 0 192 100 192 300c0 108 -15.333 189.333 -46 244s-81 82 -151 82zM401 811.999
c32 0 57.666 14.333 76.999 43l25 -10c-21.333 -60.667 -55.333 -91 -102 -91c-22.667 0 -47.667 7.33301 -75 22s-48.333 22 -63 22c-29.333 0 -54 -15 -74 -45l-24 10c17.333 63.333 50 95 98 95c20.667 0 44.334 -7.66699 71.001 -23s49 -23 67 -23z" />
    <glyph glyph-name="Odieresis" unicode="&#xd6;" horiz-adv-x="666" 
d="M336 -11c-93.333 0 -164.999 32.499 -214.999 97.499s-75 150.833 -75 257.5c0 110.667 25.667 196.834 77 258.501s120.666 92.5 207.999 92.5c50 0 94 -9.66699 132 -29s68.167 -45.833 90.5 -79.5s39 -71.334 50 -113.001s16.5 -87.167 16.5 -136.5
c0 -105.333 -25.333 -189.666 -76 -252.999s-120 -95 -208 -95zM331.001 653.999c-67.333 0 -116.667 -24.833 -148 -74.5s-47 -124.5 -47 -224.5c0 -218 66.667 -327 200 -327c128 0 192 100 192 300c0 108 -15.333 189.333 -46 244s-81 82 -151 82zM286 783.999
c0 -16.667 -5.5 -30.334 -16.5 -41.001s-24.833 -16 -41.5 -16c-16 0 -29.5 5.33301 -40.5 16s-16.5 24.334 -16.5 41.001s5.5 30.334 16.5 41.001s24.5 16 40.5 16c16.667 0 30.5 -5.33301 41.5 -16s16.5 -24.334 16.5 -41.001zM495 783.999
c0 -16.667 -5.5 -30.334 -16.5 -41.001s-24.5 -16 -40.5 -16c-16.667 0 -30.5 5.33301 -41.5 16s-16.5 24.334 -16.5 41.001s5.5 30.334 16.5 41.001s24.833 16 41.5 16c16 0 29.5 -5.33301 40.5 -16s16.5 -24.334 16.5 -41.001z" />
    <glyph glyph-name="multiply" unicode="&#xd7;" horiz-adv-x="495" 
d="M56 428l31 32l160 -160l160 160l32 -32l-160 -160l160 -159l-32 -32l-160 160l-160 -160l-31 32l159 159z" />
    <glyph glyph-name="Oslash" unicode="&#xd8;" horiz-adv-x="666" 
d="M574 722l-55.999 -94.001c68 -64 102 -161 102 -291c0 -105.333 -25.333 -189.666 -76 -252.999s-120 -95 -208 -95c-64 0 -120.333 17 -169 51l-58 -98l-31 17l62 105c-62.667 63.333 -94 156.666 -94 279.999c0 110.667 25.667 196.834 77 258.501
s120.666 92.5 207.999 92.5c57.333 0 109.333 -14.333 156 -43l54 88zM528.001 327.999c0 99.333 -15 180 -45 242l-285 -480c32 -41.333 78 -62 138 -62c128 0 192 100 192 300zM331.001 653.999c-67.333 0 -116.666 -24.833 -147.999 -74.5s-47 -124.5 -47 -224.5
c0 -93.333 13.667 -170 41 -230l282 478c-32.667 34 -75.334 51 -128.001 51z" />
    <glyph glyph-name="Ugrave" unicode="&#xd9;" horiz-adv-x="680" 
d="M521 221v354.001c0 27.333 -6 46.666 -18 57.999s-34.333 18.333 -67 21v29h212v-29c-28 -2.66699 -47 -9.5 -57 -20.5s-15 -30.5 -15 -58.5v-354c0 -80 -19.167 -138.667 -57.5 -176s-95.166 -56 -170.499 -56c-160.667 0 -241 75 -241 225v361
c0 29.333 -5 49.5 -15 60.5s-30 17.167 -60 18.5v29h243v-29c-36 -1.33301 -59.167 -7.33301 -69.5 -18s-15.5 -31 -15.5 -61v-339c0 -69.333 12.333 -118.833 37 -148.5s69.667 -44.5 135 -44.5c57.333 0 98.166 13.833 122.499 41.5s36.5 73.167 36.5 136.5zM463 758.001
l-18 -29l-204 67l40 84z" />
    <glyph glyph-name="Uacute" unicode="&#xda;" horiz-adv-x="680" 
d="M521 221v354.001c0 27.333 -6 46.666 -18 57.999s-34.333 18.333 -67 21v29h212v-29c-28 -2.66699 -47 -9.5 -57 -20.5s-15 -30.5 -15 -58.5v-354c0 -80 -19.167 -138.667 -57.5 -176s-95.166 -56 -170.499 -56c-160.667 0 -241 75 -241 225v361
c0 29.333 -5 49.5 -15 60.5s-30 17.167 -60 18.5v29h243v-29c-36 -1.33301 -59.167 -7.33301 -69.5 -18s-15.5 -31 -15.5 -61v-339c0 -69.333 12.333 -118.833 37 -148.5s69.667 -44.5 135 -44.5c57.333 0 98.166 13.833 122.499 41.5s36.5 73.167 36.5 136.5zM260 728.001
l-17 30l182 122l40 -84z" />
    <glyph glyph-name="Ucircumflex" unicode="&#xdb;" horiz-adv-x="680" 
d="M521 221v354.001c0 27.333 -6 46.666 -18 57.999s-34.333 18.333 -67 21v29h212v-29c-28 -2.66699 -47 -9.5 -57 -20.5s-15 -30.5 -15 -58.5v-354c0 -80 -19.167 -138.667 -57.5 -176s-95.166 -56 -170.499 -56c-160.667 0 -241 75 -241 225v361
c0 29.333 -5 49.5 -15 60.5s-30 17.167 -60 18.5v29h243v-29c-36 -1.33301 -59.167 -7.33301 -69.5 -18s-15.5 -31 -15.5 -61v-339c0 -69.333 12.333 -118.833 37 -148.5s69.667 -44.5 135 -44.5c57.333 0 98.166 13.833 122.499 41.5s36.5 73.167 36.5 136.5zM489 731.001
l-135 80l-135 -80l-21 24l156 143l156 -143z" />
    <glyph glyph-name="Udieresis" unicode="&#xdc;" horiz-adv-x="680" 
d="M521 221v354.001c0 27.333 -6 46.666 -18 57.999s-34.333 18.333 -67 21v29h212v-29c-28 -2.66699 -47 -9.5 -57 -20.5s-15 -30.5 -15 -58.5v-354c0 -80 -19.167 -138.667 -57.5 -176s-95.166 -56 -170.499 -56c-160.667 0 -241 75 -241 225v361
c0 29.333 -5 49.5 -15 60.5s-30 17.167 -60 18.5v29h243v-29c-36 -1.33301 -59.167 -7.33301 -69.5 -18s-15.5 -31 -15.5 -61v-339c0 -69.333 12.333 -118.833 37 -148.5s69.667 -44.5 135 -44.5c57.333 0 98.166 13.833 122.499 41.5s36.5 73.167 36.5 136.5zM307 784.001
c0 -16.667 -5.5 -30.334 -16.5 -41.001s-24.833 -16 -41.5 -16c-16 0 -29.5 5.33301 -40.5 16s-16.5 24.334 -16.5 41.001s5.5 30.334 16.5 41.001s24.5 16 40.5 16c16.667 0 30.5 -5.33301 41.5 -16s16.5 -24.334 16.5 -41.001zM516 784.001
c0 -16.667 -5.5 -30.334 -16.5 -41.001s-24.5 -16 -40.5 -16c-16.667 0 -30.5 5.33301 -41.5 16s-16.5 24.334 -16.5 41.001s5.5 30.334 16.5 41.001s24.833 16 41.5 16c16 0 29.5 -5.33301 40.5 -16s16.5 -24.334 16.5 -41.001z" />
    <glyph glyph-name="Yacute" unicode="&#xdd;" horiz-adv-x="594" 
d="M318 337l3.99805 -0.000976562l114 238c8.66699 18 13 32.667 13 44c0 20 -19.667 31.667 -59 35v29h187v-29c-20 -3.33301 -36.667 -11.166 -50 -23.499s-28.666 -36.166 -45.999 -71.499l-138 -281v-170c0 -28.667 5.83301 -48.667 17.5 -60
s34.167 -17.666 67.5 -18.999v-29h-253v29c33.333 1.33301 55.833 7.66602 67.5 18.999s17.5 31.333 17.5 60v164l-150 298c-15.333 30 -29.666 50.667 -42.999 62s-30 18.666 -50 21.999v29h226v-29c-35.333 -2 -53 -13 -53 -33c0 -11.333 5 -27.333 15 -48z
M216.998 727.999l-17 30l182 122l40 -84z" />
    <glyph glyph-name="Thorn" unicode="&#xde;" horiz-adv-x="571" 
d="M449 354c0 58.667 -11 99.166 -33 121.499s-64.667 33.5 -128 33.5h-86v-296h104c51.333 0 88 10.833 110 32.5s33 57.834 33 108.501zM202 574.999v-23.999h93c87.333 0 149.833 -16.167 187.5 -48.5s56.5 -78.5 56.5 -138.5c0 -128 -75.667 -192 -227 -192h-110v-61
c0 -30 6 -50.833 18 -62.5s35.333 -18.167 70 -19.5v-29h-251v29c30.667 2.66699 51.667 9.66699 63 21s17 30.666 17 57.999v467c0 27.333 -5.66699 46.666 -17 57.999s-32.333 18.333 -63 21v29h243v-29c-30.667 -2.66699 -51.667 -9.66699 -63 -21
s-17 -30.666 -17 -57.999z" />
    <glyph glyph-name="germandbls" unicode="&#xdf;" horiz-adv-x="581" 
d="M102 485v49c0 61.333 18.5 108 55.5 140s86.167 48 147.5 48c53.333 0 97 -12.333 131 -37s51 -57.334 51 -98.001c0 -32.667 -10.167 -59.167 -30.5 -79.5s-50.5 -41.833 -90.5 -64.5c-22 -12.667 -33 -23.334 -33 -32.001c0 -10 9 -19.667 27 -29
c60.667 -32.667 107.667 -66.667 141 -102s50 -77.666 50 -126.999c0 -47.333 -15.667 -86.166 -47 -116.499s-73.666 -45.5 -126.999 -45.5c-55.333 0 -100.666 13.333 -135.999 40l19 38c38 -22.667 76.333 -34 115 -34c60 0 90 35.667 90 107
c0 22.667 -2.66699 42.834 -8 60.501s-14.333 34.167 -27 49.5s-25.334 28.333 -38.001 39s-30 24 -52 40c-17.333 12 -29.333 20.667 -36 26s-12.5 12 -17.5 20s-7.5 17.333 -7.5 28c0 12.667 4.16699 23.5 12.5 32.5s23.5 20.5 45.5 34.5c24 15.333 41.5 31.333 52.5 48
s16.5 37.334 16.5 62.001c0 35.333 -8.83301 60.666 -26.5 75.999s-43.834 23 -78.501 23c-42.667 0 -73.167 -12.833 -91.5 -38.5s-27.5 -65.167 -27.5 -118.5v-524h-149v28c27.333 2.66699 45.833 8.66699 55.5 18s14.5 27.666 14.5 54.999v335h-63v27z" />
    <glyph glyph-name="agrave" unicode="&#xe0;" horiz-adv-x="506" 
d="M410 128c0 -36.667 4.66895 -60.999 14.002 -72.999s29.333 -19.667 60 -23v-29c-18 -6 -39 -9 -63 -9c-30.667 0 -51.834 6.66699 -63.501 20s-19.5 34.333 -23.5 63c-12 -24 -30.333 -45.167 -55 -63.5s-53.334 -27.5 -86.001 -27.5
c-46.667 0 -84.167 12.167 -112.5 36.5s-42.5 58.5 -42.5 102.5c0 105.333 85.333 158 256 158c18.667 0 32.334 -0.333008 41.001 -1v47c0 45.333 -7 77.833 -21 97.5s-39.333 29.5 -76 29.5c-71.333 0 -112 -30 -122 -90h-51v85c59.333 32.667 119.666 49 180.999 49
c112 0 168 -55 168 -165c0 -6 -0.666992 -33.333 -2 -82s-2 -90.334 -2 -125.001zM330.002 118.001l3.00098 122.001c-14.667 1.33301 -28.334 2 -41.001 2c-59.333 0 -102.333 -8.66699 -129 -26s-40 -45.333 -40 -84c0 -34.667 7.33301 -59.167 22 -73.5
s38 -21.5 70 -21.5c23.333 0 45 7.66699 65 23s36.667 34.666 50 57.999zM334.003 597.002l-17 -29l-203 92l48 83z" />
    <glyph glyph-name="aacute" unicode="&#xe1;" horiz-adv-x="506" 
d="M410 128c0 -36.667 4.66895 -60.999 14.002 -72.999s29.333 -19.667 60 -23v-29c-18 -6 -39 -9 -63 -9c-30.667 0 -51.834 6.66699 -63.501 20s-19.5 34.333 -23.5 63c-12 -24 -30.333 -45.167 -55 -63.5s-53.334 -27.5 -86.001 -27.5
c-46.667 0 -84.167 12.167 -112.5 36.5s-42.5 58.5 -42.5 102.5c0 105.333 85.333 158 256 158c18.667 0 32.334 -0.333008 41.001 -1v47c0 45.333 -7 77.833 -21 97.5s-39.333 29.5 -76 29.5c-71.333 0 -112 -30 -122 -90h-51v85c59.333 32.667 119.666 49 180.999 49
c112 0 168 -55 168 -165c0 -6 -0.666992 -33.333 -2 -82s-2 -90.334 -2 -125.001zM330.002 118.001l3.00098 122.001c-14.667 1.33301 -28.334 2 -41.001 2c-59.333 0 -102.333 -8.66699 -129 -26s-40 -45.333 -40 -84c0 -34.667 7.33301 -59.167 22 -73.5
s38 -21.5 70 -21.5c23.333 0 45 7.66699 65 23s36.667 34.666 50 57.999zM147.003 568.002l-17 29l171 146l49 -83z" />
    <glyph glyph-name="acircumflex" unicode="&#xe2;" horiz-adv-x="506" 
d="M410 128c0 -36.667 4.66895 -60.999 14.002 -72.999s29.333 -19.667 60 -23v-29c-18 -6 -39 -9 -63 -9c-30.667 0 -51.834 6.66699 -63.501 20s-19.5 34.333 -23.5 63c-12 -24 -30.333 -45.167 -55 -63.5s-53.334 -27.5 -86.001 -27.5
c-46.667 0 -84.167 12.167 -112.5 36.5s-42.5 58.5 -42.5 102.5c0 105.333 85.333 158 256 158c18.667 0 32.334 -0.333008 41.001 -1v47c0 45.333 -7 77.833 -21 97.5s-39.333 29.5 -76 29.5c-71.333 0 -112 -30 -122 -90h-51v85c59.333 32.667 119.666 49 180.999 49
c112 0 168 -55 168 -165c0 -6 -0.666992 -33.333 -2 -82s-2 -90.334 -2 -125.001zM330.002 118.001l3.00098 122.001c-14.667 1.33301 -28.334 2 -41.001 2c-59.333 0 -102.333 -8.66699 -129 -26s-40 -45.333 -40 -84c0 -34.667 7.33301 -59.167 22 -73.5
s38 -21.5 70 -21.5c23.333 0 45 7.66699 65 23s36.667 34.666 50 57.999zM375.003 567.002l-135 84l-135 -84l-21 24l156 147l156 -147z" />
    <glyph glyph-name="atilde" unicode="&#xe3;" horiz-adv-x="506" 
d="M410 128c0 -36.667 4.66895 -60.999 14.002 -72.999s29.333 -19.667 60 -23v-29c-18 -6 -39 -9 -63 -9c-30.667 0 -51.834 6.66699 -63.501 20s-19.5 34.333 -23.5 63c-12 -24 -30.333 -45.167 -55 -63.5s-53.334 -27.5 -86.001 -27.5
c-46.667 0 -84.167 12.167 -112.5 36.5s-42.5 58.5 -42.5 102.5c0 105.333 85.333 158 256 158c18.667 0 32.334 -0.333008 41.001 -1v47c0 45.333 -7 77.833 -21 97.5s-39.333 29.5 -76 29.5c-71.333 0 -112 -30 -122 -90h-51v85c59.333 32.667 119.666 49 180.999 49
c112 0 168 -55 168 -165c0 -6 -0.666992 -33.333 -2 -82s-2 -90.334 -2 -125.001zM330.002 118.001l3.00098 122.001c-14.667 1.33301 -28.334 2 -41.001 2c-59.333 0 -102.333 -8.66699 -129 -26s-40 -45.333 -40 -84c0 -34.667 7.33301 -59.167 22 -73.5
s38 -21.5 70 -21.5c23.333 0 45 7.66699 65 23s36.667 34.666 50 57.999zM295.003 663.002c30 0 53.002 13.334 69.002 40.001l26 -11c-8.66699 -28 -21 -51.167 -37 -69.5s-35.333 -27.5 -58 -27.5c-18 0 -40 4.83301 -66 14.5s-45.333 14.5 -58 14.5
c-16.667 0 -29.834 -3.33301 -39.501 -10s-18.834 -17.334 -27.501 -32.001l-23 10c15.333 68 45.333 102 90 102c17.333 0 38.833 -5.16699 64.5 -15.5s45.5 -15.5 59.5 -15.5z" />
    <glyph glyph-name="adieresis" unicode="&#xe4;" horiz-adv-x="506" 
d="M410 128c0 -36.667 4.66895 -60.999 14.002 -72.999s29.333 -19.667 60 -23v-29c-18 -6 -39 -9 -63 -9c-30.667 0 -51.834 6.66699 -63.501 20s-19.5 34.333 -23.5 63c-12 -24 -30.333 -45.167 -55 -63.5s-53.334 -27.5 -86.001 -27.5
c-46.667 0 -84.167 12.167 -112.5 36.5s-42.5 58.5 -42.5 102.5c0 105.333 85.333 158 256 158c18.667 0 32.334 -0.333008 41.001 -1v47c0 45.333 -7 77.833 -21 97.5s-39.333 29.5 -76 29.5c-71.333 0 -112 -30 -122 -90h-51v85c59.333 32.667 119.666 49 180.999 49
c112 0 168 -55 168 -165c0 -6 -0.666992 -33.333 -2 -82s-2 -90.334 -2 -125.001zM330.002 118.001l3.00098 122.001c-14.667 1.33301 -28.334 2 -41.001 2c-59.333 0 -102.333 -8.66699 -129 -26s-40 -45.333 -40 -84c0 -34.667 7.33301 -59.167 22 -73.5
s38 -21.5 70 -21.5c23.333 0 45 7.66699 65 23s36.667 34.666 50 57.999zM192.003 635.002c0 -16 -5.5 -29.5 -16.5 -40.5s-24.5 -16.5 -40.5 -16.5s-29.5 5.5 -40.5 16.5s-16.5 24.5 -16.5 40.5s5.5 29.5 16.5 40.5s24.5 16.5 40.5 16.5s29.5 -5.5 40.5 -16.5
s16.5 -24.5 16.5 -40.5zM401.003 635.002c0 -16 -5.5 -29.5 -16.5 -40.5s-24.5 -16.5 -40.5 -16.5s-29.5 5.5 -40.5 16.5s-16.5 24.5 -16.5 40.5s5.5 29.5 16.5 40.5s24.5 16.5 40.5 16.5s29.5 -5.5 40.5 -16.5s16.5 -24.5 16.5 -40.5z" />
    <glyph glyph-name="aring" unicode="&#xe5;" horiz-adv-x="506" 
d="M410 128c0 -36.667 4.66895 -60.999 14.002 -72.999s29.333 -19.667 60 -23v-29c-18 -6 -39 -9 -63 -9c-30.667 0 -51.834 6.66699 -63.501 20s-19.5 34.333 -23.5 63c-12 -24 -30.333 -45.167 -55 -63.5s-53.334 -27.5 -86.001 -27.5
c-46.667 0 -84.167 12.167 -112.5 36.5s-42.5 58.5 -42.5 102.5c0 105.333 85.333 158 256 158c18.667 0 32.334 -0.333008 41.001 -1v47c0 45.333 -7 77.833 -21 97.5s-39.333 29.5 -76 29.5c-71.333 0 -112 -30 -122 -90h-51v85c59.333 32.667 119.666 49 180.999 49
c112 0 168 -55 168 -165c0 -6 -0.666992 -33.333 -2 -82s-2 -90.334 -2 -125.001zM330.002 118.001l3.00098 122.001c-14.667 1.33301 -28.334 2 -41.001 2c-59.333 0 -102.333 -8.66699 -129 -26s-40 -45.333 -40 -84c0 -34.667 7.33301 -59.167 22 -73.5
s38 -21.5 70 -21.5c23.333 0 45 7.66699 65 23s36.667 34.666 50 57.999zM239.003 560.002c-28 0 -51.333 9.5 -70 28.5s-28 42.5 -28 70.5s9.33301 51.5 28 70.5s42 28.5 70 28.5c28.667 0 52.334 -9.5 71.001 -28.5s28 -42.5 28 -70.5s-9.33301 -51.5 -28 -70.5
s-42.334 -28.5 -71.001 -28.5zM239.003 729.002c-19.333 0 -34.833 -6.66699 -46.5 -20s-17.5 -30.333 -17.5 -51c0 -19.333 5.83301 -35.5 17.5 -48.5s27.167 -19.5 46.5 -19.5s35 6.5 47 19.5s18 29.167 18 48.5c0 20.667 -6 37.667 -18 51s-27.667 20 -47 20z" />
    <glyph glyph-name="ae" unicode="&#xe6;" horiz-adv-x="764" 
d="M386 437c39.333 42.667 88.667 63.998 148 63.998c61.333 0 109 -20.667 143 -62s51 -99.333 51 -174v-24h-319c0.666992 -73.333 14 -124.666 40 -153.999s67 -44 123 -44c46 0 89.667 13 131 39l16 -28c-56.667 -43.333 -113.667 -65 -171 -65
c-77.333 0 -136.666 28.667 -177.999 86c-41.333 -57.333 -100.333 -86 -177 -86c-47.333 0 -85 11.667 -113 35s-42 57 -42 101c0 106 85.333 159 256 159h35v49c0 44.667 -6.33301 76.334 -19 95.001s-36.667 28 -72 28c-71.333 0 -112 -30 -122 -90h-51v85
c59.333 32.667 119.666 49 180.999 49c68 0 114.667 -21 140 -63zM532.001 458.998c-37.333 0 -66 -13.167 -86 -39.5s-32 -71.5 -36 -135.5h235c0 62.667 -8.83301 107.5 -26.5 134.5s-46.5 40.5 -86.5 40.5zM215.001 42.998c50 0 93.667 26.667 131 80
c-10.667 28 -16.667 67.333 -18 118h-36c-59.333 0 -102.333 -8.5 -129 -25.5s-40 -44.833 -40 -83.5c0 -59.333 30.667 -89 92 -89z" />
    <glyph glyph-name="ccedilla" unicode="&#xe7;" horiz-adv-x="457" 
d="M225 -198c-28 0 -53.334 7.00098 -76.001 21.001l13 27c21.333 -10 41.333 -15 60 -15c30.667 0 46 13 46 39c0 21.333 -23.667 33.333 -71 36v17l19 65c-53.333 9.33301 -96.333 34.666 -129 75.999s-49 97 -49 167c0 82.667 20.667 147 62 193s95 69 161 69
c56.667 0 104.667 -12 144 -36v-89h-56c-5.33301 30.667 -14.666 52.5 -27.999 65.5s-34 19.5 -62 19.5c-89.333 0 -134 -67.333 -134 -202c0 -78.667 11.667 -134.5 35 -167.5s60 -49.5 110 -49.5c28.667 0 52.167 3.83301 70.5 11.5s38.833 21.167 61.5 40.5l21 -22
c-47.333 -52.667 -103 -79 -167 -79h-14l-9 -34c29.333 -2 50.833 -9.66699 64.5 -23s20.5 -29.333 20.5 -48c0 -54.667 -31 -82 -93 -82z" />
    <glyph glyph-name="egrave" unicode="&#xe8;" horiz-adv-x="477" 
d="M285 43c46 0 89.667 12.998 131 38.998l16 -28c-56.667 -43.333 -113.667 -65 -171 -65c-70 0 -124.667 22.667 -164 68s-59 108.333 -59 189c0 78.667 19.5 140.834 58.5 186.501s89.167 68.5 150.5 68.5s109 -20.667 143 -62s51 -99.333 51 -174v-24h-319
c0.666992 -73.333 14 -124.666 40 -153.999s67 -44 123 -44zM245 458.998c-37.333 0 -66 -13.167 -86 -39.5s-32 -71.5 -36 -135.5h235c0 62.667 -8.83301 107.5 -26.5 134.5s-46.5 40.5 -86.5 40.5zM346 596.998l-17 -29l-203 92l48 83z" />
    <glyph glyph-name="eacute" unicode="&#xe9;" horiz-adv-x="477" 
d="M285 43c46 0 89.667 12.998 131 38.998l16 -28c-56.667 -43.333 -113.667 -65 -171 -65c-70 0 -124.667 22.667 -164 68s-59 108.333 -59 189c0 78.667 19.5 140.834 58.5 186.501s89.167 68.5 150.5 68.5s109 -20.667 143 -62s51 -99.333 51 -174v-24h-319
c0.666992 -73.333 14 -124.666 40 -153.999s67 -44 123 -44zM245 458.998c-37.333 0 -66 -13.167 -86 -39.5s-32 -71.5 -36 -135.5h235c0 62.667 -8.83301 107.5 -26.5 134.5s-46.5 40.5 -86.5 40.5zM158 567.998l-17 29l171 146l49 -83z" />
    <glyph glyph-name="ecircumflex" unicode="&#xea;" horiz-adv-x="477" 
d="M285 43c46 0 89.667 12.998 131 38.998l16 -28c-56.667 -43.333 -113.667 -65 -171 -65c-70 0 -124.667 22.667 -164 68s-59 108.333 -59 189c0 78.667 19.5 140.834 58.5 186.501s89.167 68.5 150.5 68.5s109 -20.667 143 -62s51 -99.333 51 -174v-24h-319
c0.666992 -73.333 14 -124.666 40 -153.999s67 -44 123 -44zM245 458.998c-37.333 0 -66 -13.167 -86 -39.5s-32 -71.5 -36 -135.5h235c0 62.667 -8.83301 107.5 -26.5 134.5s-46.5 40.5 -86.5 40.5zM380 566.998l-135 84l-135 -84l-21 24l156 147l156 -147z" />
    <glyph glyph-name="edieresis" unicode="&#xeb;" horiz-adv-x="477" 
d="M285 43c46 0 89.667 12.998 131 38.998l16 -28c-56.667 -43.333 -113.667 -65 -171 -65c-70 0 -124.667 22.667 -164 68s-59 108.333 -59 189c0 78.667 19.5 140.834 58.5 186.501s89.167 68.5 150.5 68.5s109 -20.667 143 -62s51 -99.333 51 -174v-24h-319
c0.666992 -73.333 14 -124.666 40 -153.999s67 -44 123 -44zM245 458.998c-37.333 0 -66 -13.167 -86 -39.5s-32 -71.5 -36 -135.5h235c0 62.667 -8.83301 107.5 -26.5 134.5s-46.5 40.5 -86.5 40.5zM198 634.998c0 -16 -5.5 -29.5 -16.5 -40.5s-24.5 -16.5 -40.5 -16.5
s-29.5 5.5 -40.5 16.5s-16.5 24.5 -16.5 40.5s5.5 29.5 16.5 40.5s24.5 16.5 40.5 16.5s29.5 -5.5 40.5 -16.5s16.5 -24.5 16.5 -40.5zM407 634.998c0 -16 -5.5 -29.5 -16.5 -40.5s-24.5 -16.5 -40.5 -16.5s-29.5 5.5 -40.5 16.5s-16.5 24.5 -16.5 40.5s5.5 29.5 16.5 40.5
s24.5 16.5 40.5 16.5s29.5 -5.5 40.5 -16.5s16.5 -24.5 16.5 -40.5z" />
    <glyph glyph-name="igrave" unicode="&#xec;" horiz-adv-x="282" 
d="M252 0h-219v28c27.333 2.66699 45.833 8.66699 55.5 18s14.5 27.666 14.5 54.999v247c0 35.333 -4.83301 58.5 -14.5 69.5s-29.167 17.167 -58.5 18.5v25l139 37h13v-397c0 -27.333 4.5 -45.666 13.5 -54.999s27.833 -15.333 56.5 -18v-28zM238 597l-17 -29l-203 92
l48 83z" />
    <glyph glyph-name="iacute" unicode="&#xed;" horiz-adv-x="282" 
d="M252 0h-219v28c27.333 2.66699 45.833 8.66699 55.5 18s14.5 27.666 14.5 54.999v247c0 35.333 -4.83301 58.5 -14.5 69.5s-29.167 17.167 -58.5 18.5v25l139 37h13v-397c0 -27.333 4.5 -45.666 13.5 -54.999s27.833 -15.333 56.5 -18v-28zM48 568l-17 29l171 146l49 -83
z" />
    <glyph glyph-name="icircumflex" unicode="&#xee;" horiz-adv-x="282" 
d="M252 0h-219v28c27.333 2.66699 45.833 8.66699 55.5 18s14.5 27.666 14.5 54.999v247c0 35.333 -4.83301 58.5 -14.5 69.5s-29.167 17.167 -58.5 18.5v25l139 37h13v-397c0 -27.333 4.5 -45.666 13.5 -54.999s27.833 -15.333 56.5 -18v-28zM275 567l-135 84l-135 -84
l-21 24l156 147l156 -147z" />
    <glyph glyph-name="idieresis" unicode="&#xef;" horiz-adv-x="282" 
d="M252 0h-219v28c27.333 2.66699 45.833 8.66699 55.5 18s14.5 27.666 14.5 54.999v247c0 35.333 -4.83301 58.5 -14.5 69.5s-29.167 17.167 -58.5 18.5v25l139 37h13v-397c0 -27.333 4.5 -45.666 13.5 -54.999s27.833 -15.333 56.5 -18v-28zM94 635
c0 -16 -5.5 -29.5 -16.5 -40.5s-24.5 -16.5 -40.5 -16.5s-29.5 5.5 -40.5 16.5s-16.5 24.5 -16.5 40.5s5.5 29.5 16.5 40.5s24.5 16.5 40.5 16.5s29.5 -5.5 40.5 -16.5s16.5 -24.5 16.5 -40.5zM303 635c0 -16 -5.5 -29.5 -16.5 -40.5s-24.5 -16.5 -40.5 -16.5
s-29.5 5.5 -40.5 16.5s-16.5 24.5 -16.5 40.5s5.5 29.5 16.5 40.5s24.5 16.5 40.5 16.5s29.5 -5.5 40.5 -16.5s16.5 -24.5 16.5 -40.5z" />
    <glyph glyph-name="eth" unicode="&#xf0;" horiz-adv-x="527" 
d="M125 536l-14 33.002l123 51c-40 24.667 -84.667 44.667 -134 60l12 31c67.333 -16.667 127 -39.334 179 -68.001l124 49l14 -31l-101 -41c105.333 -77.333 158 -197.333 158 -360c0 -86.667 -20.5 -153.667 -61.5 -201s-95.167 -71 -162.5 -71
c-66 0 -119.833 23.5 -161.5 70.5s-62.5 108.5 -62.5 184.5c0 78.667 21.5 141 64.5 187s96.5 69 160.5 69c34 0 67.333 -9.66699 100 -29c-24 49.333 -55.667 90.666 -95 123.999zM400 250.002c0 66.667 -6 122.333 -18 167c-44 26 -80.667 39 -110 39
c-98.667 0 -148 -70.333 -148 -211c0 -70 11 -123.167 33 -159.5s57.667 -54.5 107 -54.5c90.667 0 136 73 136 219z" />
    <glyph glyph-name="ntilde" unicode="&#xf1;" horiz-adv-x="579" 
d="M484 366v-264.999c0 -28.667 4.16699 -47.5 12.5 -56.5s25.833 -14.5 52.5 -16.5v-28h-214v28c28.667 2.66699 47.5 8.33398 56.5 17.001s13.5 25 13.5 49v254c0 30 -6.5 51.667 -19.5 65s-32.833 20 -59.5 20c-28.667 0 -53.834 -6.16699 -75.501 -18.5
s-44.5 -30.5 -68.5 -54.5v-266c0 -24 4.5 -40.333 13.5 -49s27.833 -14.334 56.5 -17.001v-28h-219v28c27.333 2.66699 45.833 8.66699 55.5 18s14.5 27.666 14.5 54.999v246c0 35.333 -4.83301 58.5 -14.5 69.5s-29.167 17.167 -58.5 18.5v25l120 38h13
c8.66699 -22 13.667 -53 15 -93c58.667 61.333 117.667 92 177 92c38.667 0 69.834 -11.5 93.501 -34.5s35.5 -55.167 35.5 -96.5zM350 663.001c30 0 53.002 13.334 69.002 40.001l26 -11c-8.66699 -28 -21 -51.167 -37 -69.5s-35.333 -27.5 -58 -27.5
c-18 0 -40 4.83301 -66 14.5s-45.333 14.5 -58 14.5c-16.667 0 -29.834 -3.33301 -39.501 -10s-18.834 -17.334 -27.501 -32.001l-23 10c15.333 68 45.333 102 90 102c17.333 0 38.833 -5.16699 64.5 -15.5s45.5 -15.5 59.5 -15.5z" />
    <glyph glyph-name="ograve" unicode="&#xf2;" horiz-adv-x="524" 
d="M486 239c0 -77.333 -20.667 -138.501 -62 -183.501s-95.333 -67.5 -162 -67.5c-69.333 0 -124 22.5 -164 67.5s-60 107.833 -60 188.5c0 79.333 20 141.833 60 187.5s94 68.5 162 68.5c72 0 127.667 -24.167 167 -72.5s59 -111.166 59 -188.499zM400 234.999
c0 148 -46.667 222 -140 222c-50 0 -85.167 -17 -105.5 -51s-30.5 -84.667 -30.5 -152c0 -78 10.833 -134.667 32.5 -170s57.5 -53 107.5 -53c44.667 0 78.5 17.5 101.5 52.5s34.5 85.5 34.5 151.5zM358 596.999l-17 -29l-203 92l48 83z" />
    <glyph glyph-name="oacute" unicode="&#xf3;" horiz-adv-x="524" 
d="M486 239c0 -77.333 -20.667 -138.501 -62 -183.501s-95.333 -67.5 -162 -67.5c-69.333 0 -124 22.5 -164 67.5s-60 107.833 -60 188.5c0 79.333 20 141.833 60 187.5s94 68.5 162 68.5c72 0 127.667 -24.167 167 -72.5s59 -111.166 59 -188.499zM400 234.999
c0 148 -46.667 222 -140 222c-50 0 -85.167 -17 -105.5 -51s-30.5 -84.667 -30.5 -152c0 -78 10.833 -134.667 32.5 -170s57.5 -53 107.5 -53c44.667 0 78.5 17.5 101.5 52.5s34.5 85.5 34.5 151.5zM169 567.999l-17 29l171 146l49 -83z" />
    <glyph glyph-name="ocircumflex" unicode="&#xf4;" horiz-adv-x="524" 
d="M486 239c0 -77.333 -20.667 -138.501 -62 -183.501s-95.333 -67.5 -162 -67.5c-69.333 0 -124 22.5 -164 67.5s-60 107.833 -60 188.5c0 79.333 20 141.833 60 187.5s94 68.5 162 68.5c72 0 127.667 -24.167 167 -72.5s59 -111.166 59 -188.499zM400 234.999
c0 148 -46.667 222 -140 222c-50 0 -85.167 -17 -105.5 -51s-30.5 -84.667 -30.5 -152c0 -78 10.833 -134.667 32.5 -170s57.5 -53 107.5 -53c44.667 0 78.5 17.5 101.5 52.5s34.5 85.5 34.5 151.5zM396 566.999l-135 84l-135 -84l-21 24l156 147l156 -147z" />
    <glyph glyph-name="otilde" unicode="&#xf5;" horiz-adv-x="524" 
d="M486 239c0 -77.333 -20.667 -138.501 -62 -183.501s-95.333 -67.5 -162 -67.5c-69.333 0 -124 22.5 -164 67.5s-60 107.833 -60 188.5c0 79.333 20 141.833 60 187.5s94 68.5 162 68.5c72 0 127.667 -24.167 167 -72.5s59 -111.166 59 -188.499zM400 234.999
c0 148 -46.667 222 -140 222c-50 0 -85.167 -17 -105.5 -51s-30.5 -84.667 -30.5 -152c0 -78 10.833 -134.667 32.5 -170s57.5 -53 107.5 -53c44.667 0 78.5 17.5 101.5 52.5s34.5 85.5 34.5 151.5zM325 662.999c30 0 53.002 13.334 69.002 40.001l26 -11
c-8.66699 -28 -21 -51.167 -37 -69.5s-35.333 -27.5 -58 -27.5c-18 0 -40 4.83301 -66 14.5s-45.333 14.5 -58 14.5c-16.667 0 -29.834 -3.33301 -39.501 -10s-18.834 -17.334 -27.501 -32.001l-23 10c15.333 68 45.333 102 90 102c17.333 0 38.833 -5.16699 64.5 -15.5
s45.5 -15.5 59.5 -15.5z" />
    <glyph glyph-name="odieresis" unicode="&#xf6;" horiz-adv-x="524" 
d="M486 239c0 -77.333 -20.667 -138.501 -62 -183.501s-95.333 -67.5 -162 -67.5c-69.333 0 -124 22.5 -164 67.5s-60 107.833 -60 188.5c0 79.333 20 141.833 60 187.5s94 68.5 162 68.5c72 0 127.667 -24.167 167 -72.5s59 -111.166 59 -188.499zM400 234.999
c0 148 -46.667 222 -140 222c-50 0 -85.167 -17 -105.5 -51s-30.5 -84.667 -30.5 -152c0 -78 10.833 -134.667 32.5 -170s57.5 -53 107.5 -53c44.667 0 78.5 17.5 101.5 52.5s34.5 85.5 34.5 151.5zM215 634.999c0 -16 -5.5 -29.5 -16.5 -40.5s-24.5 -16.5 -40.5 -16.5
s-29.5 5.5 -40.5 16.5s-16.5 24.5 -16.5 40.5s5.5 29.5 16.5 40.5s24.5 16.5 40.5 16.5s29.5 -5.5 40.5 -16.5s16.5 -24.5 16.5 -40.5zM424 634.999c0 -16 -5.5 -29.5 -16.5 -40.5s-24.5 -16.5 -40.5 -16.5s-29.5 5.5 -40.5 16.5s-16.5 24.5 -16.5 40.5s5.5 29.5 16.5 40.5
s24.5 16.5 40.5 16.5s29.5 -5.5 40.5 -16.5s16.5 -24.5 16.5 -40.5z" />
    <glyph glyph-name="divide" unicode="&#xf7;" horiz-adv-x="605" 
d="M56 245v47h493v-47h-493zM366 478c0 -18.667 -6.16699 -34.334 -18.5 -47.001s-27.166 -19 -44.499 -19s-32.166 6.16699 -44.499 18.5s-18.5 27.5 -18.5 45.5s6.16699 33.333 18.5 46s27.166 19 44.499 19s32.166 -6.16699 44.499 -18.5s18.5 -27.166 18.5 -44.499z
M366 55c0 -18.667 -6.16797 -34.332 -18.501 -46.999s-27.166 -19 -44.499 -19c-18 0 -33 6.16699 -45 18.5s-18 27.5 -18 45.5c0 17.333 6.16699 32.5 18.5 45.5s27.166 19.5 44.499 19.5c16.667 0 31.334 -6.33301 44.001 -19s19 -27.334 19 -44.001z" />
    <glyph glyph-name="oslash" unicode="&#xf8;" horiz-adv-x="524" 
d="M457 535l-52 -87c54 -48 81 -117.667 81 -209c0 -77.333 -20.833 -138.5 -62.5 -183.5s-95.5 -67.5 -161.5 -67.5c-39.333 0 -78.333 10 -117 30l-52 -87l-27 17l53 89c-54 46.667 -81 115.667 -81 207c0 78.667 20.5 141 61.5 187s94.5 69 160.5 69
c41.333 0 80 -10.333 116 -31l51 84zM124 254c0 -67.333 9.33398 -121.333 28.001 -162l197 331c-24.667 22.667 -54.334 34 -89.001 34c-50 0 -85.167 -17 -105.5 -51s-30.5 -84.667 -30.5 -152zM400.001 235c0 60.667 -9.99902 113 -29.999 157l-197 -329
c21.333 -21.333 51.666 -32 90.999 -32c44.667 0 78.5 17.5 101.5 52.5s34.5 85.5 34.5 151.5z" />
    <glyph glyph-name="ugrave" unicode="&#xf9;" horiz-adv-x="576" 
d="M473 498l0.00195312 -363.998c0 -35.333 4.83301 -58.5 14.5 -69.5s29.167 -17.167 58.5 -18.5v-25l-113 -34h-12c-10 26.667 -17.333 58 -22 94c-28.667 -30.667 -56 -53.834 -82 -69.501s-56 -23.5 -90 -23.5c-40 0 -72 11 -96 33s-36 54.333 -36 97v229
c0 36 -4.66699 59.333 -14 70s-28 16.667 -56 18v25l131 38h18v-363c0 -30.667 6.66699 -52.334 20 -65.001s33.666 -19 60.999 -19c28.667 0 52.667 5.83301 72 17.5s41.666 30.167 66.999 55.5v223c0 36 -4.66699 59.333 -14 70s-28 16.667 -56 18v25l131 38h18z
M382.002 597.002l-17 -29l-203 92l48 83z" />
    <glyph glyph-name="uacute" unicode="&#xfa;" horiz-adv-x="576" 
d="M473 498l0.00195312 -363.998c0 -35.333 4.83301 -58.5 14.5 -69.5s29.167 -17.167 58.5 -18.5v-25l-113 -34h-12c-10 26.667 -17.333 58 -22 94c-28.667 -30.667 -56 -53.834 -82 -69.501s-56 -23.5 -90 -23.5c-40 0 -72 11 -96 33s-36 54.333 -36 97v229
c0 36 -4.66699 59.333 -14 70s-28 16.667 -56 18v25l131 38h18v-363c0 -30.667 6.66699 -52.334 20 -65.001s33.666 -19 60.999 -19c28.667 0 52.667 5.83301 72 17.5s41.666 30.167 66.999 55.5v223c0 36 -4.66699 59.333 -14 70s-28 16.667 -56 18v25l131 38h18z
M192.002 568.002l-17 29l171 146l49 -83z" />
    <glyph glyph-name="ucircumflex" unicode="&#xfb;" horiz-adv-x="576" 
d="M473 498l0.00195312 -363.998c0 -35.333 4.83301 -58.5 14.5 -69.5s29.167 -17.167 58.5 -18.5v-25l-113 -34h-12c-10 26.667 -17.333 58 -22 94c-28.667 -30.667 -56 -53.834 -82 -69.501s-56 -23.5 -90 -23.5c-40 0 -72 11 -96 33s-36 54.333 -36 97v229
c0 36 -4.66699 59.333 -14 70s-28 16.667 -56 18v25l131 38h18v-363c0 -30.667 6.66699 -52.334 20 -65.001s33.666 -19 60.999 -19c28.667 0 52.667 5.83301 72 17.5s41.666 30.167 66.999 55.5v223c0 36 -4.66699 59.333 -14 70s-28 16.667 -56 18v25l131 38h18z
M419.002 567.002l-135 84l-135 -84l-21 24l156 147l156 -147z" />
    <glyph glyph-name="udieresis" unicode="&#xfc;" horiz-adv-x="576" 
d="M473 498l0.00195312 -363.998c0 -35.333 4.83301 -58.5 14.5 -69.5s29.167 -17.167 58.5 -18.5v-25l-113 -34h-12c-10 26.667 -17.333 58 -22 94c-28.667 -30.667 -56 -53.834 -82 -69.501s-56 -23.5 -90 -23.5c-40 0 -72 11 -96 33s-36 54.333 -36 97v229
c0 36 -4.66699 59.333 -14 70s-28 16.667 -56 18v25l131 38h18v-363c0 -30.667 6.66699 -52.334 20 -65.001s33.666 -19 60.999 -19c28.667 0 52.667 5.83301 72 17.5s41.666 30.167 66.999 55.5v223c0 36 -4.66699 59.333 -14 70s-28 16.667 -56 18v25l131 38h18z
M238.002 635.002c0 -16 -5.5 -29.5 -16.5 -40.5s-24.5 -16.5 -40.5 -16.5s-29.5 5.5 -40.5 16.5s-16.5 24.5 -16.5 40.5s5.5 29.5 16.5 40.5s24.5 16.5 40.5 16.5s29.5 -5.5 40.5 -16.5s16.5 -24.5 16.5 -40.5zM447.002 635.002c0 -16 -5.5 -29.5 -16.5 -40.5
s-24.5 -16.5 -40.5 -16.5s-29.5 5.5 -40.5 16.5s-16.5 24.5 -16.5 40.5s5.5 29.5 16.5 40.5s24.5 16.5 40.5 16.5s29.5 -5.5 40.5 -16.5s16.5 -24.5 16.5 -40.5z" />
    <glyph glyph-name="yacute" unicode="&#xfd;" horiz-adv-x="505" 
d="M110 -212l-21.999 63.9971c42.667 12 76.167 28 100.5 48s43.833 54.333 58.5 103l-38 -6c-16.667 64.667 -33.667 121.334 -51 170.001l-80 218c-9.33301 25.333 -19 43 -29 53s-24.667 16.333 -44 19v28h210v-28c-23.333 -1.33301 -39.833 -4.66602 -49.5 -9.99902
s-14.5 -13.333 -14.5 -24c0 -5.33301 2.33301 -15 7 -29l72 -202c15.333 -42.667 27.666 -89.667 36.999 -141h4c7.33301 25.333 20 65.333 38 120l72 223c4.66699 12.667 7 23.334 7 32.001c0 18 -21.333 28.333 -64 31v28h176v-28c-19.333 -2.66699 -34 -9 -44 -19
s-19.667 -27.667 -29 -53l-140 -403c-20 -58 -43.5 -102.333 -70.5 -133s-62.5 -51 -106.5 -61zM178.001 567.997l-17 29l171 146l49 -83z" />
    <glyph glyph-name="thorn" unicode="&#xfe;" horiz-adv-x="552" 
d="M93 581c0 35.333 -5.16797 58.5029 -15.501 69.5029s-30.5 17.167 -60.5 18.5v27l131 28h13c7.33301 -23.333 11 -55.333 11 -96v-213c50.667 54.667 104 82 160 82s100.167 -20.833 132.5 -62.5s48.5 -102.834 48.5 -183.501c0 -82 -16.667 -146 -50 -192
s-80.333 -69 -141 -69c-56.667 0 -106.667 21.667 -150 65v-151c0 -26.667 5.33301 -44.834 16 -54.501s31.334 -15.5 62.001 -17.5v-28h-227v28c27.333 2.66699 45.833 8.66699 55.5 18s14.5 27.666 14.5 54.999v676zM426.999 253.003
c0 68 -9.50098 115.834 -28.501 143.501s-49.5 41.5 -91.5 41.5c-26.667 0 -52.334 -7.33301 -77.001 -22s-44 -30.667 -58 -48v-258c14.667 -14.667 26.834 -25.834 36.501 -33.501s22.834 -15 39.501 -22s35 -10.5 55 -10.5c43.333 0 74.833 15.5 94.5 46.5
s29.5 85.167 29.5 162.5z" />
    <glyph glyph-name="ydieresis" unicode="&#xff;" horiz-adv-x="505" 
d="M110 -212l-21.999 63.9971c42.667 12 76.167 28 100.5 48s43.833 54.333 58.5 103l-38 -6c-16.667 64.667 -33.667 121.334 -51 170.001l-80 218c-9.33301 25.333 -19 43 -29 53s-24.667 16.333 -44 19v28h210v-28c-23.333 -1.33301 -39.833 -4.66602 -49.5 -9.99902
s-14.5 -13.333 -14.5 -24c0 -5.33301 2.33301 -15 7 -29l72 -202c15.333 -42.667 27.666 -89.667 36.999 -141h4c7.33301 25.333 20 65.333 38 120l72 223c4.66699 12.667 7 23.334 7 32.001c0 18 -21.333 28.333 -64 31v28h176v-28c-19.333 -2.66699 -34 -9 -44 -19
s-19.667 -27.667 -29 -53l-140 -403c-20 -58 -43.5 -102.333 -70.5 -133s-62.5 -51 -106.5 -61zM223.001 634.997c0 -16 -5.5 -29.5 -16.5 -40.5s-24.5 -16.5 -40.5 -16.5s-29.5 5.5 -40.5 16.5s-16.5 24.5 -16.5 40.5s5.5 29.5 16.5 40.5s24.5 16.5 40.5 16.5
s29.5 -5.5 40.5 -16.5s16.5 -24.5 16.5 -40.5zM432.001 634.997c0 -16 -5.5 -29.5 -16.5 -40.5s-24.5 -16.5 -40.5 -16.5s-29.5 5.5 -40.5 16.5s-16.5 24.5 -16.5 40.5s5.5 29.5 16.5 40.5s24.5 16.5 40.5 16.5s29.5 -5.5 40.5 -16.5s16.5 -24.5 16.5 -40.5z" />
    <glyph glyph-name="Amacron" unicode="&#x100;" horiz-adv-x="653" 
d="M463 105l-34 110h-240l-34 -110c-4 -14 -6 -26 -6 -36c0 -14.667 5.5 -24.667 16.5 -30s29.833 -8.66602 56.5 -9.99902v-29h-202v29c24 2.66699 41.833 10 53.5 22s22.5 34 32.5 66l183 566h79l181 -564c9.33301 -31.333 19.333 -53.5 30 -66.5s28.667 -20.833 54 -23.5
v-29h-233v29c24 1.33301 41.333 5.5 52 12.5s16 17.833 16 32.5c0 9.33301 -1.66699 19.666 -5 30.999zM249 409l-47.001 -151.998h215l-46 152c-36 117.333 -55.333 181.666 -58 192.999h-4c-5.33301 -20.667 -11.166 -41.334 -17.499 -62.001l-22 -68.5zM460.999 769.002
h-269v51h269v-51z" />
    <glyph glyph-name="amacron" unicode="&#x101;" horiz-adv-x="506" 
d="M410 128c0 -36.667 4.66895 -60.999 14.002 -72.999s29.333 -19.667 60 -23v-29c-18 -6 -39 -9 -63 -9c-30.667 0 -51.834 6.66699 -63.501 20s-19.5 34.333 -23.5 63c-12 -24 -30.333 -45.167 -55 -63.5s-53.334 -27.5 -86.001 -27.5
c-46.667 0 -84.167 12.167 -112.5 36.5s-42.5 58.5 -42.5 102.5c0 105.333 85.333 158 256 158c18.667 0 32.334 -0.333008 41.001 -1v47c0 45.333 -7 77.833 -21 97.5s-39.333 29.5 -76 29.5c-71.333 0 -112 -30 -122 -90h-51v85c59.333 32.667 119.666 49 180.999 49
c112 0 168 -55 168 -165c0 -6 -0.666992 -33.333 -2 -82s-2 -90.334 -2 -125.001zM330.002 118.001l3.00098 122.001c-14.667 1.33301 -28.334 2 -41.001 2c-59.333 0 -102.333 -8.66699 -129 -26s-40 -45.333 -40 -84c0 -34.667 7.33301 -59.167 22 -73.5
s38 -21.5 70 -21.5c23.333 0 45 7.66699 65 23s36.667 34.666 50 57.999zM373.003 590.002h-269v51h269v-51z" />
    <glyph glyph-name="Abreve" unicode="&#x102;" horiz-adv-x="653" 
d="M463 105l-34 110h-240l-34 -110c-4 -14 -6 -26 -6 -36c0 -14.667 5.5 -24.667 16.5 -30s29.833 -8.66602 56.5 -9.99902v-29h-202v29c24 2.66699 41.833 10 53.5 22s22.5 34 32.5 66l183 566h79l181 -564c9.33301 -31.333 19.333 -53.5 30 -66.5s28.667 -20.833 54 -23.5
v-29h-233v29c24 1.33301 41.333 5.5 52 12.5s16 17.833 16 32.5c0 9.33301 -1.66699 19.666 -5 30.999zM249 409l-47.001 -151.998h215l-46 152c-36 117.333 -55.333 181.666 -58 192.999h-4c-5.33301 -20.667 -11.166 -41.334 -17.499 -62.001l-22 -68.5zM325.999 741.002
c-32.667 0 -63.835 13.333 -93.502 40s-51.5 56.667 -65.5 90l22 20c44.667 -52 90.334 -78 137.001 -78s92.334 26 137.001 78l23 -20c-14 -33.333 -36 -63.333 -66 -90s-61.333 -40 -94 -40z" />
    <glyph glyph-name="abreve" unicode="&#x103;" horiz-adv-x="506" 
d="M410 128c0 -36.667 4.66895 -60.999 14.002 -72.999s29.333 -19.667 60 -23v-29c-18 -6 -39 -9 -63 -9c-30.667 0 -51.834 6.66699 -63.501 20s-19.5 34.333 -23.5 63c-12 -24 -30.333 -45.167 -55 -63.5s-53.334 -27.5 -86.001 -27.5
c-46.667 0 -84.167 12.167 -112.5 36.5s-42.5 58.5 -42.5 102.5c0 105.333 85.333 158 256 158c18.667 0 32.334 -0.333008 41.001 -1v47c0 45.333 -7 77.833 -21 97.5s-39.333 29.5 -76 29.5c-71.333 0 -112 -30 -122 -90h-51v85c59.333 32.667 119.666 49 180.999 49
c112 0 168 -55 168 -165c0 -6 -0.666992 -33.333 -2 -82s-2 -90.334 -2 -125.001zM330.002 118.001l3.00098 122.001c-14.667 1.33301 -28.334 2 -41.001 2c-59.333 0 -102.333 -8.66699 -129 -26s-40 -45.333 -40 -84c0 -34.667 7.33301 -59.167 22 -73.5
s38 -21.5 70 -21.5c23.333 0 45 7.66699 65 23s36.667 34.666 50 57.999zM242.003 567.002c-31.333 0 -60.332 13.5 -86.999 40.5s-46.334 57.5 -59.001 91.5l22 16c34 -50.667 74.667 -76 122 -76c45.333 0 86 25.333 122 76l23 -16c-12.667 -34 -32 -64.5 -58 -91.5
s-54.333 -40.5 -85 -40.5z" />
    <glyph glyph-name="Aogonek" unicode="&#x104;" horiz-adv-x="653" 
d="M462 -153l13 -17.999c-24.667 -22.667 -54.334 -34 -89.001 -34c-28.667 0 -51.167 7.5 -67.5 22.5s-24.5 35.167 -24.5 60.5c0 26 10.833 51.5 32.5 76.5s47.5 44.167 77.5 57.5c22 10 38.167 19.5 48.5 28.5s15.5 20.167 15.5 33.5
c0 9.33301 -1.66699 19.666 -5 30.999l-34 110h-240l-34 -110c-4 -14 -6 -26 -6 -36c0 -14.667 5.5 -24.667 16.5 -30s29.833 -8.66602 56.5 -9.99902v-29h-202v29c24 2.66699 41.833 10 53.5 22s22.5 34 32.5 66l183 566h79l181 -564
c9.33301 -31.333 19.333 -53.5 30 -66.5s28.667 -20.833 54 -23.5v-29h-156c-39.333 0 -68.333 -11.833 -87 -35.5s-28 -47.834 -28 -72.501c0 -16.667 4.5 -30 13.5 -40s21.167 -15 36.5 -15c18.667 0 35.334 3.33301 50.001 10zM249 409.001l-47.001 -151.998h215l-46 152
c-36 117.333 -55.333 181.666 -58 192.999h-4c-5.33301 -20.667 -11.166 -41.334 -17.499 -62.001l-22 -68.5z" />
    <glyph glyph-name="aogonek" unicode="&#x105;" horiz-adv-x="508" 
d="M334 79c-12 -24 -30.333 -45.501 -55 -64.501s-53.334 -28.5 -86.001 -28.5c-46.667 0 -84.167 12.167 -112.5 36.5s-42.5 58.5 -42.5 102.5c0 105.333 85.333 158 256 158c18.667 0 32.334 -0.333008 41.001 -1v47c0 45.333 -7 77.833 -21 97.5s-39.333 29.5 -76 29.5
c-71.333 0 -112 -30 -122 -90h-51v85c59.333 32.667 119.666 49 180.999 49c112 0 168 -55 168 -165c0 -6 -0.666992 -33.333 -2 -82s-2 -90.334 -2 -125.001c0 -36.667 4.66699 -61 14 -73s29.333 -19.667 60 -23v-28c-68.667 -15.333 -103 -52.666 -103 -111.999
c0 -16.667 4.5 -30 13.5 -40s21.167 -15 36.5 -15c18.667 0 35.334 3.33301 50.001 10l13 -18c-24.667 -22.667 -54.334 -34 -89.001 -34c-28.667 0 -51.167 7.5 -67.5 22.5s-24.5 35.167 -24.5 60.5c0 44 28.333 83 85 117c-21.333 4 -36.666 12.833 -45.999 26.5
s-15.333 32.834 -18 57.501zM330 117.999l3.00098 122.001c-14.667 1.33301 -28.334 2 -41.001 2c-59.333 0 -102.333 -8.66699 -129 -26s-40 -45.333 -40 -84c0 -34.667 7.33301 -59.167 22 -73.5s38 -21.5 70 -21.5c23.333 0 45 7.66699 65 23s36.667 34.666 50 57.999z
" />
    <glyph glyph-name="Cacute" unicode="&#x106;" horiz-adv-x="571" 
d="M344 -11c-100 0 -174.668 30.332 -224.001 90.999s-74 146 -74 256c0 112.667 26.333 200.667 79 264s123 95 211 95c86 0 150 -14.667 192 -44v-109h-58c-10 40 -24.833 68.667 -44.5 86s-50.5 26 -92.5 26c-62.667 0 -110.667 -24.667 -144 -74s-50 -130 -50 -242
c0 -78 8.66699 -140.333 26 -187s40.333 -78.5 69 -95.5s65.334 -25.5 110.001 -25.5c41.333 0 72.5 8.33301 93.5 25s35.167 44.334 42.5 83.001h53v-102l3 2c-46 -32.667 -110 -49 -192 -49zM236.999 727.999l-17 30l182 122l40 -84z" />
    <glyph glyph-name="cacute" unicode="&#x107;" horiz-adv-x="457" 
d="M405 461l-0.000976562 -88.999h-56c-5.33301 30.667 -14.666 52.5 -27.999 65.5s-34 19.5 -62 19.5c-89.333 0 -134 -67.333 -134 -202c0 -78.667 11.667 -134.5 35 -167.5s60 -49.5 110 -49.5c28.667 0 52.167 3.83301 70.5 11.5s38.833 21.167 61.5 40.5l21 -22
c-47.333 -52.667 -103 -79 -167 -79c-63.333 0 -115.5 21.167 -156.5 63.5s-61.5 103.166 -61.5 182.499c0 82.667 20.667 147 62 193s95 69 161 69c56.667 0 104.667 -12 144 -36zM170.999 568.001l-17 29l171 146l49 -83z" />
    <glyph glyph-name="Ccircumflex" unicode="&#x108;" horiz-adv-x="571" 
d="M344 -11c-100 0 -174.668 30.332 -224.001 90.999s-74 146 -74 256c0 112.667 26.333 200.667 79 264s123 95 211 95c86 0 150 -14.667 192 -44v-109h-58c-10 40 -24.833 68.667 -44.5 86s-50.5 26 -92.5 26c-62.667 0 -110.667 -24.667 -144 -74s-50 -130 -50 -242
c0 -78 8.66699 -140.333 26 -187s40.333 -78.5 69 -95.5s65.334 -25.5 110.001 -25.5c41.333 0 72.5 8.33301 93.5 25s35.167 44.334 42.5 83.001h53v-102l3 2c-46 -32.667 -110 -49 -192 -49zM465.999 730.999l-135 80l-135 -80l-21 24l156 143l156 -143z" />
    <glyph glyph-name="ccircumflex" unicode="&#x109;" horiz-adv-x="457" 
d="M405 461l-0.000976562 -88.999h-56c-5.33301 30.667 -14.666 52.5 -27.999 65.5s-34 19.5 -62 19.5c-89.333 0 -134 -67.333 -134 -202c0 -78.667 11.667 -134.5 35 -167.5s60 -49.5 110 -49.5c28.667 0 52.167 3.83301 70.5 11.5s38.833 21.167 61.5 40.5l21 -22
c-47.333 -52.667 -103 -79 -167 -79c-63.333 0 -115.5 21.167 -156.5 63.5s-61.5 103.166 -61.5 182.499c0 82.667 20.667 147 62 193s95 69 161 69c56.667 0 104.667 -12 144 -36zM388.999 567.001l-135 84l-135 -84l-21 24l156 147l156 -147z" />
    <glyph glyph-name="Cdotaccent" unicode="&#x10a;" horiz-adv-x="571" 
d="M344 -11c-100 0 -174.668 30.332 -224.001 90.999s-74 146 -74 256c0 112.667 26.333 200.667 79 264s123 95 211 95c86 0 150 -14.667 192 -44v-109h-58c-10 40 -24.833 68.667 -44.5 86s-50.5 26 -92.5 26c-62.667 0 -110.667 -24.667 -144 -74s-50 -130 -50 -242
c0 -78 8.66699 -140.333 26 -187s40.333 -78.5 69 -95.5s65.334 -25.5 110.001 -25.5c41.333 0 72.5 8.33301 93.5 25s35.167 44.334 42.5 83.001h53v-102l3 2c-46 -32.667 -110 -49 -192 -49zM388.999 804.999c0 -16.667 -5.66699 -30.834 -17 -42.501
s-25.333 -17.5 -42 -17.5s-30.667 5.83301 -42 17.5s-17 25.834 -17 42.501s5.66699 30.834 17 42.501s25.333 17.5 42 17.5s30.667 -5.83301 42 -17.5s17 -25.834 17 -42.501z" />
    <glyph glyph-name="cdotaccent" unicode="&#x10b;" horiz-adv-x="457" 
d="M405 461l-0.000976562 -88.999h-56c-5.33301 30.667 -14.666 52.5 -27.999 65.5s-34 19.5 -62 19.5c-89.333 0 -134 -67.333 -134 -202c0 -78.667 11.667 -134.5 35 -167.5s60 -49.5 110 -49.5c28.667 0 52.167 3.83301 70.5 11.5s38.833 21.167 61.5 40.5l21 -22
c-47.333 -52.667 -103 -79 -167 -79c-63.333 0 -115.5 21.167 -156.5 63.5s-61.5 103.166 -61.5 182.499c0 82.667 20.667 147 62 193s95 69 161 69c56.667 0 104.667 -12 144 -36zM311.999 641.001c0 -16.667 -5.66699 -30.834 -17 -42.501s-25.333 -17.5 -42 -17.5
s-30.667 5.83301 -42 17.5s-17 25.834 -17 42.501s5.66699 30.834 17 42.501s25.333 17.5 42 17.5s30.667 -5.83301 42 -17.5s17 -25.834 17 -42.501z" />
    <glyph glyph-name="Ccaron" unicode="&#x10c;" horiz-adv-x="571" 
d="M344 -11c-100 0 -174.668 30.332 -224.001 90.999s-74 146 -74 256c0 112.667 26.333 200.667 79 264s123 95 211 95c86 0 150 -14.667 192 -44v-109h-58c-10 40 -24.833 68.667 -44.5 86s-50.5 26 -92.5 26c-62.667 0 -110.667 -24.667 -144 -74s-50 -130 -50 -242
c0 -78 8.66699 -140.333 26 -187s40.333 -78.5 69 -95.5s65.334 -25.5 110.001 -25.5c41.333 0 72.5 8.33301 93.5 25s35.167 44.334 42.5 83.001h53v-102l3 2c-46 -32.667 -110 -49 -192 -49zM330.999 817.999l135 80l21 -24l-156 -144l-156 144l21 24z" />
    <glyph glyph-name="ccaron" unicode="&#x10d;" horiz-adv-x="457" 
d="M405 461l-0.000976562 -88.999h-56c-5.33301 30.667 -14.666 52.5 -27.999 65.5s-34 19.5 -62 19.5c-89.333 0 -134 -67.333 -134 -202c0 -78.667 11.667 -134.5 35 -167.5s60 -49.5 110 -49.5c28.667 0 52.167 3.83301 70.5 11.5s38.833 21.167 61.5 40.5l21 -22
c-47.333 -52.667 -103 -79 -167 -79c-63.333 0 -115.5 21.167 -156.5 63.5s-61.5 103.166 -61.5 182.499c0 82.667 20.667 147 62 193s95 69 161 69c56.667 0 104.667 -12 144 -36zM254.999 637.001l135 84l21 -24l-156 -147l-156 147l21 24z" />
    <glyph glyph-name="Dcaron" unicode="&#x10e;" horiz-adv-x="662" 
d="M39 0l-0.00195312 29c30.667 3.33301 51.667 10.333 63 21s17 30 17 58v467c0 27.333 -5.66699 46.666 -17 57.999s-32.333 18.333 -63 21v29h247c104 0 185 -28.167 243 -84.5s87 -142.166 87 -257.499c0 -51.333 -5.83301 -97 -17.5 -137s-30.167 -75.667 -55.5 -107
s-59.666 -55.333 -102.999 -72s-94.666 -25 -153.999 -25h-247zM204.998 45h90.999c80.667 0 138.834 20.167 174.501 60.5s53.5 114.833 53.5 223.5c0 112.667 -18.5 193 -55.5 241s-93.833 72 -170.5 72h-93v-597zM308.997 818l135 80l21 -24l-156 -144l-156 144l21 24z
" />
    <glyph glyph-name="dcaron" unicode="&#x10f;" horiz-adv-x="559" 
d="M379 72c-19.333 -24 -42.832 -43.666 -70.499 -58.999s-54.167 -23 -79.5 -23c-54.667 0 -100.167 20.333 -136.5 61s-54.5 103 -54.5 187c0 78 17.833 140.667 53.5 188s84.167 71 145.5 71c52.667 0 100 -22.333 142 -67v151c0 35.333 -5.16699 58.5 -15.5 69.5
s-30.5 17.167 -60.5 18.5v27l141 28h14v-589c0 -35.333 5.16699 -58.5 15.5 -69.5s31.5 -17.167 63.5 -18.5v-25l-123 -35h-9c-12.667 25.333 -21.334 53.666 -26.001 84.999zM124.001 250.001c0 -76.667 9.49902 -130.833 28.499 -162.5s49.833 -47.5 92.5 -47.5
c40.667 0 85.334 27.667 134.001 83v259c-16 19.333 -35.5 34.833 -58.5 46.5s-45.833 17.5 -68.5 17.5c-43.333 0 -75.5 -14 -96.5 -42s-31.5 -79.333 -31.5 -154zM615 710.002l-60 -182l-33 9l15 186z" />
    <glyph glyph-name="Dcroat" unicode="&#x110;" horiz-adv-x="664" 
d="M37 342l-0.00195312 40.001h84v193c0 27.333 -5.66699 46.666 -17 57.999s-32.333 18.333 -63 21v29h247c104 0 185 -28.167 243 -84.5s87 -142.166 87 -257.499c0 -51.333 -5.83301 -97 -17.5 -137s-30.167 -75.667 -55.5 -107s-59.666 -55.333 -102.999 -72
s-94.666 -25 -153.999 -25h-247v29c30.667 2.66699 51.667 9.66699 63 21s17 30.666 17 57.999v234h-84zM525.998 329.001c0 112.667 -18.501 193 -55.501 241s-93.833 72 -170.5 72h-93v-260h129v-40h-129v-297h91c80.667 0 138.834 20.167 174.501 60.5
s53.5 114.833 53.5 223.5z" />
    <glyph glyph-name="dcroat" unicode="&#x111;" horiz-adv-x="561" 
d="M379 72c-19.333 -24 -42.833 -43.665 -70.5 -58.998s-54.167 -23 -79.5 -23c-54.667 0 -100.167 20.333 -136.5 61s-54.5 103 -54.5 187c0 78 17.833 140.667 53.5 188s84.167 71 145.5 71c52.667 0 100 -22.333 142 -67v134h-166v35h165
c-1.33301 28.667 -6.66602 47.167 -15.999 55.5s-29 13.166 -59 14.499v27l141 28h14v-125h74v-35h-74v-429c0 -35.333 5.16699 -58.5 15.5 -69.5s31.5 -17.167 63.5 -18.5v-25l-123 -35h-9c-12.667 25.333 -21.334 53.666 -26.001 84.999zM124 250.002
c0 -76.667 9.49902 -130.833 28.499 -162.5s49.833 -47.5 92.5 -47.5c40.667 0 85.334 27.667 134.001 83v259c-16 19.333 -35.5 34.833 -58.5 46.5s-45.833 17.5 -68.5 17.5c-43.333 0 -75.5 -14 -96.5 -42s-31.5 -79.333 -31.5 -154z" />
    <glyph glyph-name="Emacron" unicode="&#x112;" horiz-adv-x="557" 
d="M39 0v29.002c30.667 2.66699 51.667 9.66699 63 21s17 30.666 17 57.999v467c0 27.333 -5.66699 46.666 -17 57.999s-32.333 18.333 -63 21v29h458l10 -144h-31c-12 40 -24.333 66.833 -37 80.5s-34 20.5 -64 20.5h-173v-262h99c33.333 0 56.5 4.83301 69.5 14.5
s20.5 28.5 22.5 56.5h29v-184h-29c-2 27.333 -9.5 46 -22.5 56s-35.833 15 -68.5 15h-100v-293h174c40.667 0 68.167 7.66699 82.5 23s23.5 46.333 27.5 93h33v-159h-480zM428 769.002h-269v51h269v-51z" />
    <glyph glyph-name="emacron" unicode="&#x113;" horiz-adv-x="477" 
d="M285 43c46 0 89.667 12.998 131 38.998l16 -28c-56.667 -43.333 -113.667 -65 -171 -65c-70 0 -124.667 22.667 -164 68s-59 108.333 -59 189c0 78.667 19.5 140.834 58.5 186.501s89.167 68.5 150.5 68.5s109 -20.667 143 -62s51 -99.333 51 -174v-24h-319
c0.666992 -73.333 14 -124.666 40 -153.999s67 -44 123 -44zM245 458.998c-37.333 0 -66 -13.167 -86 -39.5s-32 -71.5 -36 -135.5h235c0 62.667 -8.83301 107.5 -26.5 134.5s-46.5 40.5 -86.5 40.5zM376 589.998h-269v51h269v-51z" />
    <glyph glyph-name="Ebreve" unicode="&#x114;" horiz-adv-x="557" 
d="M39 0v29.002c30.667 2.66699 51.667 9.66699 63 21s17 30.666 17 57.999v467c0 27.333 -5.66699 46.666 -17 57.999s-32.333 18.333 -63 21v29h458l10 -144h-31c-12 40 -24.333 66.833 -37 80.5s-34 20.5 -64 20.5h-173v-262h99c33.333 0 56.5 4.83301 69.5 14.5
s20.5 28.5 22.5 56.5h29v-184h-29c-2 27.333 -9.5 46 -22.5 56s-35.833 15 -68.5 15h-100v-293h174c40.667 0 68.167 7.66699 82.5 23s23.5 46.333 27.5 93h33v-159h-480zM283 741.002c-32.667 0 -63.835 13.333 -93.502 40s-51.5 56.667 -65.5 90l22 20
c44.667 -52 90.334 -78 137.001 -78s92.334 26 137.001 78l23 -20c-14 -33.333 -36 -63.333 -66 -90s-61.333 -40 -94 -40z" />
    <glyph glyph-name="ebreve" unicode="&#x115;" horiz-adv-x="477" 
d="M285 43c46 0 89.667 12.998 131 38.998l16 -28c-56.667 -43.333 -113.667 -65 -171 -65c-70 0 -124.667 22.667 -164 68s-59 108.333 -59 189c0 78.667 19.5 140.834 58.5 186.501s89.167 68.5 150.5 68.5s109 -20.667 143 -62s51 -99.333 51 -174v-24h-319
c0.666992 -73.333 14 -124.666 40 -153.999s67 -44 123 -44zM245 458.998c-37.333 0 -66 -13.167 -86 -39.5s-32 -71.5 -36 -135.5h235c0 62.667 -8.83301 107.5 -26.5 134.5s-46.5 40.5 -86.5 40.5zM242 566.998c-31.333 0 -60.332 13.5 -86.999 40.5
s-46.334 57.5 -59.001 91.5l22 16c34 -50.667 74.667 -76 122 -76c45.333 0 86 25.333 122 76l23 -16c-12.667 -34 -32 -64.5 -58 -91.5s-54.333 -40.5 -85 -40.5z" />
    <glyph glyph-name="Edotaccent" unicode="&#x116;" horiz-adv-x="557" 
d="M39 0v29.002c30.667 2.66699 51.667 9.66699 63 21s17 30.666 17 57.999v467c0 27.333 -5.66699 46.666 -17 57.999s-32.333 18.333 -63 21v29h458l10 -144h-31c-12 40 -24.333 66.833 -37 80.5s-34 20.5 -64 20.5h-173v-262h99c33.333 0 56.5 4.83301 69.5 14.5
s20.5 28.5 22.5 56.5h29v-184h-29c-2 27.333 -9.5 46 -22.5 56s-35.833 15 -68.5 15h-100v-293h174c40.667 0 68.167 7.66699 82.5 23s23.5 46.333 27.5 93h33v-159h-480zM351 805.002c0 -16.667 -5.66699 -30.834 -17 -42.501s-25.333 -17.5 -42 -17.5
s-30.667 5.83301 -42 17.5s-17 25.834 -17 42.501s5.66699 30.834 17 42.501s25.333 17.5 42 17.5s30.667 -5.83301 42 -17.5s17 -25.834 17 -42.501z" />
    <glyph glyph-name="edotaccent" unicode="&#x117;" horiz-adv-x="477" 
d="M285 43c46 0 89.667 12.998 131 38.998l16 -28c-56.667 -43.333 -113.667 -65 -171 -65c-70 0 -124.667 22.667 -164 68s-59 108.333 -59 189c0 78.667 19.5 140.834 58.5 186.501s89.167 68.5 150.5 68.5s109 -20.667 143 -62s51 -99.333 51 -174v-24h-319
c0.666992 -73.333 14 -124.666 40 -153.999s67 -44 123 -44zM245 458.998c-37.333 0 -66 -13.167 -86 -39.5s-32 -71.5 -36 -135.5h235c0 62.667 -8.83301 107.5 -26.5 134.5s-46.5 40.5 -86.5 40.5zM303 640.998c0 -16.667 -5.66699 -30.834 -17 -42.501
s-25.333 -17.5 -42 -17.5s-30.667 5.83301 -42 17.5s-17 25.834 -17 42.501s5.66699 30.834 17 42.501s25.333 17.5 42 17.5s30.667 -5.83301 42 -17.5s17 -25.834 17 -42.501z" />
    <glyph glyph-name="Eogonek" unicode="&#x118;" horiz-adv-x="557" 
d="M424 -205c-28.667 0 -51.167 7.50098 -67.5 22.501s-24.5 35.167 -24.5 60.5c0 48 30.333 88.667 91 122h-384v29c30.667 2.66699 51.667 9.66699 63 21s17 30.666 17 57.999v467c0 27.333 -5.66699 46.666 -17 57.999s-32.333 18.333 -63 21v29h458l10 -144h-31
c-12 40 -24.333 66.833 -37 80.5s-34 20.5 -64 20.5h-173v-262h99c33.333 0 56.5 4.83301 69.5 14.5s20.5 28.5 22.5 56.5h29v-184h-29c-2 27.333 -9.5 46 -22.5 56s-35.833 15 -68.5 15h-100v-293h174c40.667 0 68.167 7.66699 82.5 23s23.5 46.333 27.5 93h33v-159h-20
c-32 0 -56.5 -10.667 -73.5 -32s-25.5 -46.666 -25.5 -75.999c0 -16.667 4.5 -30 13.5 -40s21.167 -15 36.5 -15c18.667 0 35.334 3.33301 50.001 10l13 -18c-24.667 -22.667 -54.334 -34 -89.001 -34z" />
    <glyph glyph-name="eogonek" unicode="&#x119;" horiz-adv-x="477" 
d="M388 -153l13 -18.002c-24.667 -22.667 -54.334 -34 -89.001 -34c-28.667 0 -51.167 7.5 -67.5 22.5s-24.5 35.167 -24.5 60.5c0 46 23.667 83.667 71 113c-12 -1.33301 -22 -2 -30 -2c-70 0 -124.667 22.667 -164 68s-59 108.333 -59 189
c0 78.667 19.5 140.834 58.5 186.501s89.167 68.5 150.5 68.5s109 -20.667 143 -62s51 -99.333 51 -174v-24h-319c0.666992 -73.333 14 -124.666 40 -153.999s67 -44 123 -44c46 0 89.667 13 131 39l16 -28c-21.333 -16 -46.333 -32.333 -75 -49
c-46 -26 -69 -63.667 -69 -113c0 -16.667 4.5 -30 13.5 -40s21.167 -15 36.5 -15c18.667 0 35.334 3.33301 50.001 10zM245 458.998c-37.333 0 -66 -13.167 -86 -39.5s-32 -71.5 -36 -135.5h235c0 62.667 -8.83301 107.5 -26.5 134.5s-46.5 40.5 -86.5 40.5z" />
    <glyph glyph-name="Ecaron" unicode="&#x11a;" horiz-adv-x="557" 
d="M39 0v29.002c30.667 2.66699 51.667 9.66699 63 21s17 30.666 17 57.999v467c0 27.333 -5.66699 46.666 -17 57.999s-32.333 18.333 -63 21v29h458l10 -144h-31c-12 40 -24.333 66.833 -37 80.5s-34 20.5 -64 20.5h-173v-262h99c33.333 0 56.5 4.83301 69.5 14.5
s20.5 28.5 22.5 56.5h29v-184h-29c-2 27.333 -9.5 46 -22.5 56s-35.833 15 -68.5 15h-100v-293h174c40.667 0 68.167 7.66699 82.5 23s23.5 46.333 27.5 93h33v-159h-480zM293 818.002l135 80l21 -24l-156 -144l-156 144l21 24z" />
    <glyph glyph-name="ecaron" unicode="&#x11b;" horiz-adv-x="477" 
d="M285 43c46 0 89.667 12.998 131 38.998l16 -28c-56.667 -43.333 -113.667 -65 -171 -65c-70 0 -124.667 22.667 -164 68s-59 108.333 -59 189c0 78.667 19.5 140.834 58.5 186.501s89.167 68.5 150.5 68.5s109 -20.667 143 -62s51 -99.333 51 -174v-24h-319
c0.666992 -73.333 14 -124.666 40 -153.999s67 -44 123 -44zM245 458.998c-37.333 0 -66 -13.167 -86 -39.5s-32 -71.5 -36 -135.5h235c0 62.667 -8.83301 107.5 -26.5 134.5s-46.5 40.5 -86.5 40.5zM246 636.998l135 84l21 -24l-156 -147l-156 147l21 24z" />
    <glyph glyph-name="Gcircumflex" unicode="&#x11c;" horiz-adv-x="638" 
d="M463 60v165.997c0 30.667 -5.5 51.334 -16.5 62.001s-35.5 16.334 -73.5 17.001v29h238v-29c-25.333 -1.33301 -42.5 -7.66602 -51.5 -18.999s-13.5 -31.333 -13.5 -60v-188c-55.333 -32.667 -125.333 -49 -210 -49c-91.333 0 -162.5 30.667 -213.5 92
s-76.5 147 -76.5 257s26.667 197 80 261s123.333 96 210 96c91.333 0 160 -16 206 -48v-108h-58c-8 40.667 -22.833 70 -44.5 88s-58.834 27 -111.501 27c-128 0 -192 -107 -192 -321c0 -98 16.333 -173.167 49 -225.5s86.334 -78.5 161.001 -78.5
c44.667 0 83.667 10.333 117 31zM481 730.997l-135 80l-135 -80l-21 24l156 143l156 -143z" />
    <glyph glyph-name="gcircumflex" unicode="&#x11d;" horiz-adv-x="519" 
d="M250 -189c-67.333 0 -118.168 10.334 -152.501 31.001s-51.5 47.667 -51.5 81c0 26.667 16 49 48 67l32 2c-6.66699 -14.667 -10 -31 -10 -49c0 -30.667 9.83301 -53.334 29.5 -68.001s53.834 -22 102.501 -22c97.333 0 146 32 146 96c0 32 -10 53 -30 63
s-64 15.667 -132 17c-32 0.666992 -59.333 2.33398 -82 5.00098c-44 5.33301 -66 30.666 -66 75.999c0 36.667 31.333 65.334 94 86.001c-37.333 8.66699 -66.666 26.167 -87.999 52.5s-32 56.166 -32 89.499c0 48 16.5 86.833 49.5 116.5s77.167 44.5 132.5 44.5
c24 0 49.333 -3.66699 76 -11c34.667 -10.667 60.334 -16 77.001 -16c25.333 0 51.666 9.33301 78.999 28l30 -58c-22.667 -10.667 -44 -16 -64 -16s-44.333 5.33301 -73 16c38 -28.667 57 -64 57 -106c0 -38 -13.833 -71.333 -41.5 -100s-71.834 -45 -132.501 -49h-24
c-20 -6 -37 -14.167 -51 -24.5s-21 -20.833 -21 -31.5c0 -18.667 14 -28 42 -28h92c60 0 104.667 -10 134 -30s44 -55 44 -105c0 -47.333 -20.167 -85.333 -60.5 -114s-91.5 -43 -153.5 -43zM238.998 226.001c64.667 0 97 37.667 97 113c0 40.667 -8 70.667 -24 90
s-40.667 29 -74 29c-64.667 0 -97 -38.667 -97 -116s32.667 -116 98 -116zM393.998 567.001l-135 84l-135 -84l-21 24l156 147l156 -147z" />
    <glyph glyph-name="Gbreve" unicode="&#x11e;" horiz-adv-x="638" 
d="M463 60v165.997c0 30.667 -5.5 51.334 -16.5 62.001s-35.5 16.334 -73.5 17.001v29h238v-29c-25.333 -1.33301 -42.5 -7.66602 -51.5 -18.999s-13.5 -31.333 -13.5 -60v-188c-55.333 -32.667 -125.333 -49 -210 -49c-91.333 0 -162.5 30.667 -213.5 92
s-76.5 147 -76.5 257s26.667 197 80 261s123.333 96 210 96c91.333 0 160 -16 206 -48v-108h-58c-8 40.667 -22.833 70 -44.5 88s-58.834 27 -111.501 27c-128 0 -192 -107 -192 -321c0 -98 16.333 -173.167 49 -225.5s86.334 -78.5 161.001 -78.5
c44.667 0 83.667 10.333 117 31zM346 740.997c-32.667 0 -63.835 13.333 -93.502 40s-51.5 56.667 -65.5 90l22 20c44.667 -52 90.334 -78 137.001 -78s92.334 26 137.001 78l23 -20c-14 -33.333 -36 -63.333 -66 -90s-61.333 -40 -94 -40z" />
    <glyph glyph-name="gbreve" unicode="&#x11f;" horiz-adv-x="519" 
d="M250 -189c-67.333 0 -118.168 10.334 -152.501 31.001s-51.5 47.667 -51.5 81c0 26.667 16 49 48 67l32 2c-6.66699 -14.667 -10 -31 -10 -49c0 -30.667 9.83301 -53.334 29.5 -68.001s53.834 -22 102.501 -22c97.333 0 146 32 146 96c0 32 -10 53 -30 63
s-64 15.667 -132 17c-32 0.666992 -59.333 2.33398 -82 5.00098c-44 5.33301 -66 30.666 -66 75.999c0 36.667 31.333 65.334 94 86.001c-37.333 8.66699 -66.666 26.167 -87.999 52.5s-32 56.166 -32 89.499c0 48 16.5 86.833 49.5 116.5s77.167 44.5 132.5 44.5
c24 0 49.333 -3.66699 76 -11c34.667 -10.667 60.334 -16 77.001 -16c25.333 0 51.666 9.33301 78.999 28l30 -58c-22.667 -10.667 -44 -16 -64 -16s-44.333 5.33301 -73 16c38 -28.667 57 -64 57 -106c0 -38 -13.833 -71.333 -41.5 -100s-71.834 -45 -132.501 -49h-24
c-20 -6 -37 -14.167 -51 -24.5s-21 -20.833 -21 -31.5c0 -18.667 14 -28 42 -28h92c60 0 104.667 -10 134 -30s44 -55 44 -105c0 -47.333 -20.167 -85.333 -60.5 -114s-91.5 -43 -153.5 -43zM238.998 226.001c64.667 0 97 37.667 97 113c0 40.667 -8 70.667 -24 90
s-40.667 29 -74 29c-64.667 0 -97 -38.667 -97 -116s32.667 -116 98 -116zM260.998 567.001c-31.333 0 -60.332 13.5 -86.999 40.5s-46.334 57.5 -59.001 91.5l22 16c34 -50.667 74.667 -76 122 -76c45.333 0 86 25.333 122 76l23 -16c-12.667 -34 -32 -64.5 -58 -91.5
s-54.333 -40.5 -85 -40.5z" />
    <glyph glyph-name="Gdotaccent" unicode="&#x120;" horiz-adv-x="638" 
d="M463 60v165.997c0 30.667 -5.5 51.334 -16.5 62.001s-35.5 16.334 -73.5 17.001v29h238v-29c-25.333 -1.33301 -42.5 -7.66602 -51.5 -18.999s-13.5 -31.333 -13.5 -60v-188c-55.333 -32.667 -125.333 -49 -210 -49c-91.333 0 -162.5 30.667 -213.5 92
s-76.5 147 -76.5 257s26.667 197 80 261s123.333 96 210 96c91.333 0 160 -16 206 -48v-108h-58c-8 40.667 -22.833 70 -44.5 88s-58.834 27 -111.501 27c-128 0 -192 -107 -192 -321c0 -98 16.333 -173.167 49 -225.5s86.334 -78.5 161.001 -78.5
c44.667 0 83.667 10.333 117 31zM404 804.997c0 -16.667 -5.66699 -30.834 -17 -42.501s-25.333 -17.5 -42 -17.5s-30.667 5.83301 -42 17.5s-17 25.834 -17 42.501s5.66699 30.834 17 42.501s25.333 17.5 42 17.5s30.667 -5.83301 42 -17.5s17 -25.834 17 -42.501z" />
    <glyph glyph-name="gdotaccent" unicode="&#x121;" horiz-adv-x="519" 
d="M250 -189c-67.333 0 -118.168 10.334 -152.501 31.001s-51.5 47.667 -51.5 81c0 26.667 16 49 48 67l32 2c-6.66699 -14.667 -10 -31 -10 -49c0 -30.667 9.83301 -53.334 29.5 -68.001s53.834 -22 102.501 -22c97.333 0 146 32 146 96c0 32 -10 53 -30 63
s-64 15.667 -132 17c-32 0.666992 -59.333 2.33398 -82 5.00098c-44 5.33301 -66 30.666 -66 75.999c0 36.667 31.333 65.334 94 86.001c-37.333 8.66699 -66.666 26.167 -87.999 52.5s-32 56.166 -32 89.499c0 48 16.5 86.833 49.5 116.5s77.167 44.5 132.5 44.5
c24 0 49.333 -3.66699 76 -11c34.667 -10.667 60.334 -16 77.001 -16c25.333 0 51.666 9.33301 78.999 28l30 -58c-22.667 -10.667 -44 -16 -64 -16s-44.333 5.33301 -73 16c38 -28.667 57 -64 57 -106c0 -38 -13.833 -71.333 -41.5 -100s-71.834 -45 -132.501 -49h-24
c-20 -6 -37 -14.167 -51 -24.5s-21 -20.833 -21 -31.5c0 -18.667 14 -28 42 -28h92c60 0 104.667 -10 134 -30s44 -55 44 -105c0 -47.333 -20.167 -85.333 -60.5 -114s-91.5 -43 -153.5 -43zM238.998 226.001c64.667 0 97 37.667 97 113c0 40.667 -8 70.667 -24 90
s-40.667 29 -74 29c-64.667 0 -97 -38.667 -97 -116s32.667 -116 98 -116zM318.998 641.001c0 -16.667 -5.66699 -30.834 -17 -42.501s-25.333 -17.5 -42 -17.5s-30.667 5.83301 -42 17.5s-17 25.834 -17 42.501s5.66699 30.834 17 42.501s25.333 17.5 42 17.5
s30.667 -5.83301 42 -17.5s17 -25.834 17 -42.501z" />
    <glyph glyph-name="Gcommaaccent" unicode="&#x122;" horiz-adv-x="638" 
d="M463 60v165.997c0 30.667 -5.5 51.334 -16.5 62.001s-35.5 16.334 -73.5 17.001v29h238v-29c-25.333 -1.33301 -42.5 -7.66602 -51.5 -18.999s-13.5 -31.333 -13.5 -60v-188c-55.333 -32.667 -125.333 -49 -210 -49c-91.333 0 -162.5 30.667 -213.5 92
s-76.5 147 -76.5 257s26.667 197 80 261s123.333 96 210 96c91.333 0 160 -16 206 -48v-108h-58c-8 40.667 -22.833 70 -44.5 88s-58.834 27 -111.501 27c-128 0 -192 -107 -192 -321c0 -98 16.333 -173.167 49 -225.5s86.334 -78.5 161.001 -78.5
c44.667 0 83.667 10.333 117 31zM417 -144.003c0 -31.333 -10.6689 -59 -32.002 -83s-51.666 -40 -90.999 -48l-18 26c24.667 7.33301 41.5 15.5 50.5 24.5s13.5 19.5 13.5 31.5c0 10 -8.66699 18.667 -26 26c-20 8.66699 -30 24 -30 46c0 14.667 5.83301 27.167 17.5 37.5
s26.834 15.5 45.501 15.5c22.667 0 40 -7 52 -21s18 -32.333 18 -55z" />
    <glyph glyph-name="gcommaaccent" unicode="&#x123;" horiz-adv-x="519" 
d="M250 -189c-67.333 0 -118.168 10.334 -152.501 31.001s-51.5 47.667 -51.5 81c0 26.667 16 49 48 67l32 2c-6.66699 -14.667 -10 -31 -10 -49c0 -30.667 9.83301 -53.334 29.5 -68.001s53.834 -22 102.501 -22c97.333 0 146 32 146 96c0 32 -10 53 -30 63
s-64 15.667 -132 17c-32 0.666992 -59.333 2.33398 -82 5.00098c-44 5.33301 -66 30.666 -66 75.999c0 36.667 31.333 65.334 94 86.001c-37.333 8.66699 -66.666 26.167 -87.999 52.5s-32 56.166 -32 89.499c0 48 16.5 86.833 49.5 116.5s77.167 44.5 132.5 44.5
c24 0 49.333 -3.66699 76 -11c34.667 -10.667 60.334 -16 77.001 -16c25.333 0 51.666 9.33301 78.999 28l30 -58c-22.667 -10.667 -44 -16 -64 -16s-44.333 5.33301 -73 16c38 -28.667 57 -64 57 -106c0 -38 -13.833 -71.333 -41.5 -100s-71.834 -45 -132.501 -49h-24
c-20 -6 -37 -14.167 -51 -24.5s-21 -20.833 -21 -31.5c0 -18.667 14 -28 42 -28h92c60 0 104.667 -10 134 -30s44 -55 44 -105c0 -47.333 -20.167 -85.333 -60.5 -114s-91.5 -43 -153.5 -43zM238.998 226.001c64.667 0 97 37.667 97 113c0 40.667 -8 70.667 -24 90
s-40.667 29 -74 29c-64.667 0 -97 -38.667 -97 -116s32.667 -116 98 -116zM188.998 643.001c0 31.333 10.167 58.832 30.5 82.499s49.5 39.5 87.5 47.5l18 -24c-23.333 -8 -39.5 -16.5 -48.5 -25.5s-13.5 -19.5 -13.5 -31.5c0 -12.667 8.66699 -20.667 26 -24
c18.667 -9.33301 28 -25.333 28 -48c0 -15.333 -5.66699 -28.166 -17 -38.499s-26 -15.5 -44 -15.5c-21.333 0 -37.833 7.16699 -49.5 21.5s-17.5 32.833 -17.5 55.5z" />
    <glyph glyph-name="Hcircumflex" unicode="&#x124;" horiz-adv-x="700" 
d="M498 108v232h-296v-232c0 -27.333 5.66699 -46.666 17 -57.999s32.333 -18.333 63 -21v-29h-243v29c30.667 2.66699 51.667 9.66699 63 21s17 30.666 17 57.999v467c0 27.333 -5.66699 46.666 -17 57.999s-32.333 18.333 -63 21v29h243v-29
c-30.667 -2.66699 -51.667 -9.66699 -63 -21s-17 -30.666 -17 -57.999v-191h296v191c0 27.333 -5.66699 46.666 -17 57.999s-32.333 18.333 -63 21v29h243v-29c-30.667 -2.66699 -51.667 -9.66699 -63 -21s-17 -30.666 -17 -57.999v-467
c0 -27.333 5.66699 -46.666 17 -57.999s32.333 -18.333 63 -21v-29h-243v29c30.667 2.66699 51.667 9.66699 63 21s17 30.666 17 57.999zM485 731l-135 80l-135 -80l-21 24l156 143l156 -143z" />
    <glyph glyph-name="hcircumflex" unicode="&#x125;" horiz-adv-x="579" 
d="M182 628l-0.00195312 -218.999c28.667 28.667 56.334 50.5 83.001 65.5s56.667 22.5 90 22.5c38.667 0 69.834 -11.5 93.501 -34.5s35.5 -55.167 35.5 -96.5v-265c0 -28.667 4.16699 -47.5 12.5 -56.5s25.833 -14.5 52.5 -16.5v-28h-214v28
c28.667 2.66699 47.5 8.33398 56.5 17.001s13.5 25 13.5 49v254c0 30 -6.5 51.667 -19.5 65s-32.833 20 -59.5 20c-28.667 0 -53.667 -6 -75 -18s-44.333 -30 -69 -54v-267c0 -24 4.5 -40.333 13.5 -49s27.833 -14.334 56.5 -17.001v-28h-219v28
c27.333 2.66699 45.833 8.66699 55.5 18s14.5 27.666 14.5 54.999v481c0 35.333 -5.16699 58.5 -15.5 69.5s-30.5 17.167 -60.5 18.5v27l131 27h13c7.33301 -24.667 11 -56.667 11 -96zM422.998 759.001l-135 80l-135 -80l-21 24l156 143l156 -143z" />
    <glyph glyph-name="Hbar" unicode="&#x126;" horiz-adv-x="700" 
d="M49 494v40h70v41c0 27.333 -5.66699 46.666 -17 57.999s-32.333 18.333 -63 21v29h243v-29c-30.667 -2.66699 -51.667 -9.66699 -63 -21s-17 -30.666 -17 -57.999v-41h296v41c0 27.333 -5.66699 46.666 -17 57.999s-32.333 18.333 -63 21v29h243v-29
c-30.667 -2.66699 -51.667 -9.66699 -63 -21s-17 -30.666 -17 -57.999v-41h70v-40h-70v-386c0 -27.333 5.66699 -46.666 17 -57.999s32.333 -18.333 63 -21v-29h-243v29c30.667 2.66699 51.667 9.66699 63 21s17 30.666 17 57.999v232h-296v-232
c0 -27.333 5.66699 -46.666 17 -57.999s32.333 -18.333 63 -21v-29h-243v29c30.667 2.66699 51.667 9.66699 63 21s17 30.666 17 57.999v386h-70zM202 384h296v110h-296v-110z" />
    <glyph glyph-name="hbar" unicode="&#x127;" horiz-adv-x="579" 
d="M182 628l-0.00195312 -28.998h163v-35h-163v-155c28.667 28.667 56.334 50.5 83.001 65.5s56.667 22.5 90 22.5c38.667 0 69.834 -11.5 93.501 -34.5s35.5 -55.167 35.5 -96.5v-265c0 -28.667 4.16699 -47.5 12.5 -56.5s25.833 -14.5 52.5 -16.5v-28h-214v28
c28.667 2.66699 47.5 8.33398 56.5 17.001s13.5 25 13.5 49v254c0 30 -6.5 51.667 -19.5 65s-32.833 20 -59.5 20c-28.667 0 -53.667 -6 -75 -18s-44.333 -30 -69 -54v-267c0 -24 4.5 -40.333 13.5 -49s27.833 -14.334 56.5 -17.001v-28h-219v28
c27.333 2.66699 45.833 8.66699 55.5 18s14.5 27.666 14.5 54.999v463h-77v35h76c-1.33301 28.667 -6.83301 47.167 -16.5 55.5s-29.167 13.166 -58.5 14.499v27l132 28h12c7.33301 -24.667 11 -56.667 11 -96z" />
    <glyph glyph-name="Itilde" unicode="&#x128;" horiz-adv-x="321" 
d="M119 108v467c0 27.333 -5.66699 46.666 -17 57.999s-32.333 18.333 -63 21v29h243v-29c-30.667 -2.66699 -51.667 -9.66699 -63 -21s-17 -30.666 -17 -57.999v-467c0 -27.333 5.66699 -46.666 17 -57.999s32.333 -18.333 63 -21v-29h-243v29
c30.667 2.66699 51.667 9.66699 63 21s17 30.666 17 57.999zM228 812c32 0 57.666 14.333 76.999 43l25 -10c-21.333 -60.667 -55.333 -91 -102 -91c-22.667 0 -47.667 7.33301 -75 22s-48.333 22 -63 22c-29.333 0 -54 -15 -74 -45l-24 10c17.333 63.333 50 95 98 95
c20.667 0 44.334 -7.66699 71.001 -23s49 -23 67 -23z" />
    <glyph glyph-name="itilde" unicode="&#x129;" horiz-adv-x="282" 
d="M252 0h-219v28c27.333 2.66699 45.833 8.66699 55.5 18s14.5 27.666 14.5 54.999v247c0 35.333 -4.83301 58.5 -14.5 69.5s-29.167 17.167 -58.5 18.5v25l139 37h13v-397c0 -27.333 4.5 -45.666 13.5 -54.999s27.833 -15.333 56.5 -18v-28zM184 663
c30 0 53.002 13.334 69.002 40.001l26 -11c-8.66699 -28 -21 -51.167 -37 -69.5s-35.333 -27.5 -58 -27.5c-18 0 -40 4.83301 -66 14.5s-45.333 14.5 -58 14.5c-16.667 0 -29.834 -3.33301 -39.501 -10s-18.834 -17.334 -27.501 -32.001l-23 10c15.333 68 45.333 102 90 102
c17.333 0 38.833 -5.16699 64.5 -15.5s45.5 -15.5 59.5 -15.5z" />
    <glyph glyph-name="Imacron" unicode="&#x12a;" horiz-adv-x="321" 
d="M119 108v467c0 27.333 -5.66699 46.666 -17 57.999s-32.333 18.333 -63 21v29h243v-29c-30.667 -2.66699 -51.667 -9.66699 -63 -21s-17 -30.666 -17 -57.999v-467c0 -27.333 5.66699 -46.666 17 -57.999s32.333 -18.333 63 -21v-29h-243v29
c30.667 2.66699 51.667 9.66699 63 21s17 30.666 17 57.999zM295 769h-269v51h269v-51z" />
    <glyph glyph-name="imacron" unicode="&#x12b;" horiz-adv-x="282" 
d="M234 590h-226v51h226v-51zM252 0h-219v28c27.333 2.66699 45.833 8.66699 55.5 18s14.5 27.666 14.5 54.999v247c0 35.333 -4.83301 58.5 -14.5 69.5s-29.167 17.167 -58.5 18.5v25l139 37h13v-397c0 -27.333 4.5 -45.666 13.5 -54.999s27.833 -15.333 56.5 -18v-28z" />
    <glyph glyph-name="Ibreve" unicode="&#x12c;" horiz-adv-x="321" 
d="M119 108v467c0 27.333 -5.66699 46.666 -17 57.999s-32.333 18.333 -63 21v29h243v-29c-30.667 -2.66699 -51.667 -9.66699 -63 -21s-17 -30.666 -17 -57.999v-467c0 -27.333 5.66699 -46.666 17 -57.999s32.333 -18.333 63 -21v-29h-243v29
c30.667 2.66699 51.667 9.66699 63 21s17 30.666 17 57.999zM160 741c-32.667 0 -63.835 13.333 -93.502 40s-51.5 56.667 -65.5 90l22 20c44.667 -52 90.334 -78 137.001 -78s92.334 26 137.001 78l23 -20c-14 -33.333 -36 -63.333 -66 -90s-61.333 -40 -94 -40z" />
    <glyph glyph-name="ibreve" unicode="&#x12d;" horiz-adv-x="282" 
d="M252 0h-219v28c27.333 2.66699 45.833 8.66699 55.5 18s14.5 27.666 14.5 54.999v247c0 35.333 -4.83301 58.5 -14.5 69.5s-29.167 17.167 -58.5 18.5v25l139 37h13v-397c0 -27.333 4.5 -45.666 13.5 -54.999s27.833 -15.333 56.5 -18v-28zM132 567
c-31.333 0 -60.332 13.5 -86.999 40.5s-46.334 57.5 -59.001 91.5l22 16c34 -50.667 74.667 -76 122 -76c45.333 0 86 25.333 122 76l23 -16c-12.667 -34 -32 -64.5 -58 -91.5s-54.333 -40.5 -85 -40.5z" />
    <glyph glyph-name="Iogonek" unicode="&#x12e;" horiz-adv-x="321" 
d="M268 -153l13 -18.002c-24.667 -22.667 -54.334 -34 -89.001 -34c-28.667 0 -51.167 7.5 -67.5 22.5s-24.5 35.167 -24.5 60.5c0 48.667 29.333 89.334 88 122.001h-149v29c30.667 2.66699 51.667 9.66699 63 21s17 30.666 17 57.999v467
c0 27.333 -5.66699 46.666 -17 57.999s-32.333 18.333 -63 21v29h243v-29c-30.667 -2.66699 -51.667 -9.66699 -63 -21s-17 -30.666 -17 -57.999v-467c0 -27.333 5.66699 -46.666 17 -57.999s32.333 -18.333 63 -21v-29h-13c-32.667 0 -57.667 -10.667 -75 -32
s-26 -46.666 -26 -75.999c0 -16.667 4.5 -30 13.5 -40s21.167 -15 36.5 -15c18.667 0 35.334 3.33301 50.001 10z" />
    <glyph glyph-name="iogonek" unicode="&#x12f;" horiz-adv-x="282" 
d="M252 0c-37.333 -2 -64 -13.332 -80 -33.999s-24 -45.334 -24 -74.001c0 -16.667 4.5 -30 13.5 -40s21.167 -15 36.5 -15c18.667 0 35.334 3.33301 50.001 10l13 -18c-24.667 -22.667 -54.334 -34 -89.001 -34c-28.667 0 -51.167 7.5 -67.5 22.5s-24.5 35.167 -24.5 60.5
c0 50 33 90.667 99 122h-146v28c27.333 2.66699 45.833 8.66699 55.5 18s14.5 27.666 14.5 54.999v247c0 35.333 -4.83301 58.5 -14.5 69.5s-29.167 17.167 -58.5 18.5v25l139 37h13v-397c0 -27.333 4.5 -45.666 13.5 -54.999s27.833 -15.333 56.5 -18v-28zM195 641.001
c0 -17.333 -5.66699 -31.666 -17 -42.999s-25.333 -17 -42 -17s-30.667 5.66699 -42 17s-17 25.666 -17 42.999s5.66699 31.666 17 42.999s25.333 17 42 17s30.667 -5.66699 42 -17s17 -25.666 17 -42.999z" />
    <glyph glyph-name="Idotaccent" unicode="&#x130;" horiz-adv-x="321" 
d="M119 108v467c0 27.333 -5.66699 46.666 -17 57.999s-32.333 18.333 -63 21v29h243v-29c-30.667 -2.66699 -51.667 -9.66699 -63 -21s-17 -30.666 -17 -57.999v-467c0 -27.333 5.66699 -46.666 17 -57.999s32.333 -18.333 63 -21v-29h-243v29
c30.667 2.66699 51.667 9.66699 63 21s17 30.666 17 57.999zM218 805c0 -16.667 -5.66699 -30.834 -17 -42.501s-25.333 -17.5 -42 -17.5s-30.667 5.83301 -42 17.5s-17 25.834 -17 42.501s5.66699 30.834 17 42.501s25.333 17.5 42 17.5s30.667 -5.83301 42 -17.5
s17 -25.834 17 -42.501z" />
    <glyph glyph-name="dotlessi" unicode="&#x131;" horiz-adv-x="282" 
d="M252 0h-219v28c27.333 2.66699 45.833 8.66699 55.5 18s14.5 27.666 14.5 54.999v247c0 35.333 -4.83301 58.5 -14.5 69.5s-29.167 17.167 -58.5 18.5v25l139 37h13v-397c0 -27.333 4.5 -45.666 13.5 -54.999s27.833 -15.333 56.5 -18v-28z" />
    <glyph glyph-name="IJ" unicode="&#x132;" horiz-adv-x="660" 
d="M119 108v467c0 27.333 -5.66699 46.666 -17 57.999s-32.333 18.333 -63 21v29h243v-29c-30.667 -2.66699 -51.667 -9.66699 -63 -21s-17 -30.666 -17 -57.999v-467c0 -27.333 5.66699 -46.666 17 -57.999s32.333 -18.333 63 -21v-29h-243v29
c30.667 2.66699 51.667 9.66699 63 21s17 30.666 17 57.999zM453 97l-0.000976562 477.999c0 28.667 -5.83301 48.667 -17.5 60s-34.167 17.666 -67.5 18.999v29h253v-29c-33.333 -1.33301 -55.833 -7.66602 -67.5 -18.999s-17.5 -31.333 -17.5 -60v-471
c0 -75.333 -12.667 -130.166 -38 -164.499s-72.666 -62.5 -141.999 -84.5l-20 31c50 27.333 82 54.833 96 82.5s21 70.5 21 128.5z" />
    <glyph glyph-name="ij" unicode="&#x133;" horiz-adv-x="517" 
d="M252 0h-219v28c27.333 2.66699 45.833 8.66699 55.5 18s14.5 27.666 14.5 54.999v247c0 35.333 -4.83301 58.5 -14.5 69.5s-29.167 17.167 -58.5 18.5v25l139 37h13v-397c0 -27.333 4.5 -45.666 13.5 -54.999s27.833 -15.333 56.5 -18v-28zM195 641
c0 -17.333 -5.66699 -31.666 -17 -42.999s-25.333 -17 -42 -17s-30.667 5.66699 -42 17s-17 25.666 -17 42.999s5.66699 31.666 17 42.999s25.333 17 42 17s30.667 -5.66699 42 -17s17 -25.666 17 -42.999zM359 9l0.00292969 338.001c0 35.333 -4.83301 58.666 -14.5 69.999
s-29.167 17.666 -58.5 18.999v25l139 37h13v-490c0 -34.667 -2.83301 -63.834 -8.5 -87.501s-15.334 -43.167 -29.001 -58.5s-26.834 -27.166 -39.501 -35.499s-31.334 -18.166 -56.001 -29.499l-25 33c30 14 50.667 34.167 62 60.5s17 65.833 17 118.5zM451.003 641.001
c0 -17.333 -5.66699 -31.666 -17 -42.999s-25.333 -17 -42 -17s-30.667 5.66699 -42 17s-17 25.666 -17 42.999s5.66699 31.666 17 42.999s25.333 17 42 17s30.667 -5.66699 42 -17s17 -25.666 17 -42.999z" />
    <glyph glyph-name="Jcircumflex" unicode="&#x134;" horiz-adv-x="335" 
d="M128 97l-0.000976562 477.999c0 28.667 -5.83301 48.667 -17.5 60s-34.167 17.666 -67.5 18.999v29h253v-29c-33.333 -1.33301 -55.833 -7.66602 -67.5 -18.999s-17.5 -31.333 -17.5 -60v-471c0 -75.333 -12.667 -130.166 -38 -164.499s-72.666 -62.5 -141.999 -84.5
l-20 31c50 27.333 82 54.833 96 82.5s21 70.5 21 128.5zM299.999 730.999l-135 80l-135 -80l-21 24l156 143l156 -143z" />
    <glyph glyph-name="jcircumflex" unicode="&#x135;" horiz-adv-x="259" 
d="M103 9l0.00292969 338.001c0 35.333 -4.83301 58.666 -14.5 69.999s-29.167 17.666 -58.5 18.999v25l139 37h13v-490c0 -34.667 -2.83301 -63.834 -8.5 -87.501s-15.334 -43.167 -29.001 -58.5s-26.834 -27.166 -39.501 -35.499s-31.334 -18.166 -56.001 -29.499l-25 33
c30 14 50.667 34.167 62 60.5s17 65.833 17 118.5zM276.003 567.001l-135 84l-135 -84l-21 24l156 147l156 -147z" />
    <glyph glyph-name="Kcommaaccent" unicode="&#x136;" horiz-adv-x="618" 
d="M119 108v467c0 27.333 -5.66699 46.666 -17 57.999s-32.333 18.333 -63 21v29h243v-29c-30.667 -2.66699 -51.667 -9.66699 -63 -21s-17 -30.666 -17 -57.999v-467c0 -27.333 5.66699 -46.666 17 -57.999s32.333 -18.333 63 -21v-29h-243v29
c30.667 2.66699 51.667 9.66699 63 21s17 30.666 17 57.999zM450 551l-144 -166l210 -306c12.667 -18.667 24.5 -31.167 35.5 -37.5s29.167 -10.5 54.5 -12.5v-29h-139l-236 359l182 212c16.667 20 25 36.667 25 50c0 20 -18 31 -54 33v29h200v-30
c-22 -4 -41.5 -12.5 -58.5 -25.5s-42.167 -38.5 -75.5 -76.5zM373 -144c0 -31.333 -10.6689 -59 -32.002 -83s-51.666 -40 -90.999 -48l-18 26c24.667 7.33301 41.5 15.5 50.5 24.5s13.5 19.5 13.5 31.5c0 10 -8.66699 18.667 -26 26c-20 8.66699 -30 24 -30 46
c0 14.667 5.83301 27.167 17.5 37.5s26.834 15.5 45.501 15.5c22.667 0 40 -7 52 -21s18 -32.333 18 -55z" />
    <glyph glyph-name="kcommaaccent" unicode="&#x137;" horiz-adv-x="529" 
d="M33 0v28.002c27.333 2.66699 45.833 8.66699 55.5 18s14.5 27.666 14.5 54.999v480c0 35.333 -5.16699 58.5 -15.5 69.5s-30.5 17.167 -60.5 18.5v27l132 28h13c6.66699 -25.333 10 -57.333 10 -96v-534c0 -24 4.5 -40.333 13.5 -49s27.833 -14.334 56.5 -17.001v-28
h-219zM410 0.00195312l-207 259.001l135 138c32.667 32.667 24.334 52.667 -24.999 60v28h176v-28c-15.333 -2 -29.333 -7.83301 -42 -17.5s-29.334 -24.834 -50.001 -45.501l-115 -113l152 -192c28.667 -36 57.667 -56.333 87 -61v-28h-111zM345 -143.997
c0 -31.333 -10.6689 -59 -32.002 -83s-51.666 -40 -90.999 -48l-18 26c24.667 7.33301 41.5 15.5 50.5 24.5s13.5 19.5 13.5 31.5c0 10 -8.66699 18.667 -26 26c-20 8.66699 -30 24 -30 46c0 14.667 5.83301 27.167 17.5 37.5s26.834 15.5 45.501 15.5
c22.667 0 40 -7 52 -21s18 -32.333 18 -55z" />
    <glyph glyph-name="kgreenlandic" unicode="&#x138;" horiz-adv-x="529" 
d="M33 0v28.002c27.333 2.66699 45.833 8.66699 55.5 18s14.5 27.666 14.5 54.999v243c0 35.333 -5.16699 58.5 -15.5 69.5s-30.5 17.167 -60.5 18.5v27l142 39h13v-404c0 -24 4.5 -40.333 13.5 -49s27.833 -14.334 56.5 -17.001v-28h-219zM410 0.00195312l-207 259l135 138
c32.667 32.667 24.334 52.667 -24.999 60v28h176v-28c-10.667 -1.33301 -21.667 -5.5 -33 -12.5s-20.833 -14 -28.5 -21s-18.834 -17.833 -33.501 -32.5l-112 -110l152 -192c28.667 -36 57.667 -56.333 87 -61v-28h-111z" />
    <glyph glyph-name="Lacute" unicode="&#x139;" horiz-adv-x="538" 
d="M202 573v-529.999h150c38 0 65.333 8.5 82 25.5s30 48.5 40 94.5h32l-15 -163h-452v29c30.667 2.66699 51.667 9.66699 63 21s17 30.666 17 57.999v467c0 27.333 -5.66699 46.666 -17 57.999s-32.333 18.333 -63 21v29h248v-29
c-35.333 -1.33301 -58.333 -7.66602 -69 -18.999s-16 -32 -16 -62zM100 728.001l-17 30l182 122l40 -84z" />
    <glyph glyph-name="lacute" unicode="&#x13a;" horiz-adv-x="290" 
d="M186 628v-523.999c0 -28 4.83301 -47 14.5 -57s29.5 -16.333 59.5 -19v-28h-227v28c28.667 2.66699 48.167 8.66699 58.5 18s15.5 27.666 15.5 54.999v480c0 35.333 -5.33301 58.5 -16 69.5s-32 17.167 -64 18.5v27l135 28h13c7.33301 -25.333 11 -57.333 11 -96z
M49 746.001l-17 30l182 122l40 -84z" />
    <glyph glyph-name="Lcommaaccent" unicode="&#x13b;" horiz-adv-x="538" 
d="M202 573v-529.999h150c38 0 65.333 8.5 82 25.5s30 48.5 40 94.5h32l-15 -163h-452v29c30.667 2.66699 51.667 9.66699 63 21s17 30.666 17 57.999v467c0 27.333 -5.66699 46.666 -17 57.999s-32.333 18.333 -63 21v29h248v-29
c-35.333 -1.33301 -58.333 -7.66602 -69 -18.999s-16 -32 -16 -62zM343 -143.999c0 -31.333 -10.6689 -59 -32.002 -83s-51.666 -40 -90.999 -48l-18 26c24.667 7.33301 41.5 15.5 50.5 24.5s13.5 19.5 13.5 31.5c0 10 -8.66699 18.667 -26 26c-20 8.66699 -30 24 -30 46
c0 14.667 5.83301 27.167 17.5 37.5s26.834 15.5 45.501 15.5c22.667 0 40 -7 52 -21s18 -32.333 18 -55z" />
    <glyph glyph-name="lcommaaccent" unicode="&#x13c;" horiz-adv-x="290" 
d="M186 628v-523.999c0 -28 4.83301 -47 14.5 -57s29.5 -16.333 59.5 -19v-28h-227v28c28.667 2.66699 48.167 8.66699 58.5 18s15.5 27.666 15.5 54.999v480c0 35.333 -5.33301 58.5 -16 69.5s-32 17.167 -64 18.5v27l135 28h13c7.33301 -25.333 11 -57.333 11 -96z
M214 -143.999c0 -31.333 -10.6689 -59 -32.002 -83s-51.666 -40 -90.999 -48l-18 26c24.667 7.33301 41.5 15.5 50.5 24.5s13.5 19.5 13.5 31.5c0 10 -8.66699 18.667 -26 26c-20 8.66699 -30 24 -30 46c0 14.667 5.83301 27.167 17.5 37.5s26.834 15.5 45.501 15.5
c22.667 0 40 -7 52 -21s18 -32.333 18 -55z" />
    <glyph glyph-name="Lcaron" unicode="&#x13d;" horiz-adv-x="538" 
d="M202 573v-529.999h150c38 0 65.333 8.5 82 25.5s30 48.5 40 94.5h32l-15 -163h-452v29c30.667 2.66699 51.667 9.66699 63 21s17 30.666 17 57.999v467c0 27.333 -5.66699 46.666 -17 57.999s-32.333 18.333 -63 21v29h248v-29
c-35.333 -1.33301 -58.333 -7.66602 -69 -18.999s-16 -32 -16 -62zM464 710.001l-60 -182l-33 9l15 186z" />
    <glyph glyph-name="lcaron" unicode="&#x13e;" horiz-adv-x="288" 
d="M186 628v-523.999c0 -28 4.83301 -47 14.5 -57s29.5 -16.333 59.5 -19v-28h-227v28c28.667 2.66699 48.167 8.66699 58.5 18s15.5 27.666 15.5 54.999v480c0 35.333 -5.33301 58.5 -16 69.5s-32 17.167 -64 18.5v27l135 28h13c7.33301 -25.333 11 -57.333 11 -96z
M343 710.001l-60 -182l-33 9l15 186z" />
    <glyph glyph-name="Ldot" unicode="&#x13f;" horiz-adv-x="538" 
d="M202 573v-529.999h150c38 0 65.333 8.5 82 25.5s30 48.5 40 94.5h32l-15 -163h-452v29c30.667 2.66699 51.667 9.66699 63 21s17 30.666 17 57.999v467c0 27.333 -5.66699 46.666 -17 57.999s-32.333 18.333 -63 21v29h248v-29
c-35.333 -1.33301 -58.333 -7.66602 -69 -18.999s-16 -32 -16 -62zM514 372.001c0 -19.333 -6.5 -35.833 -19.5 -49.5s-29.167 -20.5 -48.5 -20.5s-35.5 6.83301 -48.5 20.5s-19.5 30.167 -19.5 49.5s6.5 35.833 19.5 49.5s29.167 20.5 48.5 20.5s35.5 -6.83301 48.5 -20.5
s19.5 -30.167 19.5 -49.5z" />
    <glyph glyph-name="ldot" unicode="&#x140;" horiz-adv-x="348" 
d="M186 628v-523.999c0 -28 4.83301 -47 14.5 -57s29.5 -16.333 59.5 -19v-28h-227v28c28.667 2.66699 48.167 8.66699 58.5 18s15.5 27.666 15.5 54.999v480c0 35.333 -5.33301 58.5 -16 69.5s-32 17.167 -64 18.5v27l135 28h13c7.33301 -25.333 11 -57.333 11 -96z
M383 345.001c0 -16.667 -5.83301 -30.667 -17.5 -42s-25.834 -17 -42.501 -17s-30.834 5.66699 -42.501 17s-17.5 25.333 -17.5 42s5.83301 30.834 17.5 42.501s25.834 17.5 42.501 17.5s30.834 -5.83301 42.501 -17.5s17.5 -25.834 17.5 -42.501z" />
    <glyph glyph-name="Lslash" unicode="&#x141;" horiz-adv-x="538" 
d="M202 573v-210.999l194 71v-44l-194 -68v-278h150c38 0 65.333 8.5 82 25.5s30 48.5 40 94.5h32l-15 -163h-452v29c30.667 2.66699 51.667 9.66699 63 21s17 30.666 17 57.999v183l-78 -29v42l78 28v243c0 27.333 -5.66699 46.666 -17 57.999s-32.333 18.333 -63 21v29
h248v-29c-35.333 -1.33301 -58.333 -7.66602 -69 -18.999s-16 -32 -16 -62z" />
    <glyph glyph-name="lslash" unicode="&#x142;" horiz-adv-x="290" 
d="M186 628v-217.999l83 40v-40l-83 -39v-267c0 -28 4.83301 -47 14.5 -57s29.5 -16.333 59.5 -19v-28h-227v28c28.667 2.66699 48.167 8.66699 58.5 18s15.5 27.666 15.5 54.999v232l-82 -38v39l82 39v208c0 35.333 -5.33301 58.5 -16 69.5s-32 17.167 -64 18.5v27l135 28
h13c7.33301 -25.333 11 -57.333 11 -96z" />
    <glyph glyph-name="Nacute" unicode="&#x143;" horiz-adv-x="679" 
d="M518 330v245.002c0 27.333 -5.66699 46.666 -17 57.999s-32.333 18.333 -63 21v29h207v-29c-28 -2.66699 -47 -9.5 -57 -20.5s-15 -30.5 -15 -58.5v-575h-61l-249 407c-46 74 -75.667 131 -89 171h-6c4 -26.667 6 -89 6 -187v-283c0 -27.333 5.66699 -46.666 17 -57.999
s32.333 -18.333 63 -21v-29h-215v29c30.667 2.66699 51.667 9.66699 63 21s17 30.666 17 57.999v467c0 27.333 -5.66699 46.666 -17 57.999s-32.333 18.333 -63 21v29h152l254 -417c38 -62 62.667 -110.667 74 -146h6c-4.66699 28 -7 98 -7 210zM248 728.002l-17 30l182 122
l40 -84z" />
    <glyph glyph-name="nacute" unicode="&#x144;" horiz-adv-x="579" 
d="M484 366v-264.999c0 -28.667 4.16699 -47.5 12.5 -56.5s25.833 -14.5 52.5 -16.5v-28h-214v28c28.667 2.66699 47.5 8.33398 56.5 17.001s13.5 25 13.5 49v254c0 30 -6.5 51.667 -19.5 65s-32.833 20 -59.5 20c-28.667 0 -53.834 -6.16699 -75.501 -18.5
s-44.5 -30.5 -68.5 -54.5v-266c0 -24 4.5 -40.333 13.5 -49s27.833 -14.334 56.5 -17.001v-28h-219v28c27.333 2.66699 45.833 8.66699 55.5 18s14.5 27.666 14.5 54.999v246c0 35.333 -4.83301 58.5 -14.5 69.5s-29.167 17.167 -58.5 18.5v25l120 38h13
c8.66699 -22 13.667 -53 15 -93c58.667 61.333 117.667 92 177 92c38.667 0 69.834 -11.5 93.501 -34.5s35.5 -55.167 35.5 -96.5zM197 568.001l-17 29l171 146l49 -83z" />
    <glyph glyph-name="Ncommaaccent" unicode="&#x145;" horiz-adv-x="679" 
d="M518 330v245.002c0 27.333 -5.66699 46.666 -17 57.999s-32.333 18.333 -63 21v29h207v-29c-28 -2.66699 -47 -9.5 -57 -20.5s-15 -30.5 -15 -58.5v-575h-61l-249 407c-46 74 -75.667 131 -89 171h-6c4 -26.667 6 -89 6 -187v-283c0 -27.333 5.66699 -46.666 17 -57.999
s32.333 -18.333 63 -21v-29h-215v29c30.667 2.66699 51.667 9.66699 63 21s17 30.666 17 57.999v467c0 27.333 -5.66699 46.666 -17 57.999s-32.333 18.333 -63 21v29h152l254 -417c38 -62 62.667 -110.667 74 -146h6c-4.66699 28 -7 98 -7 210zM413 -143.998
c0 -31.333 -10.6689 -59 -32.002 -83s-51.666 -40 -90.999 -48l-18 26c24.667 7.33301 41.5 15.5 50.5 24.5s13.5 19.5 13.5 31.5c0 10 -8.66699 18.667 -26 26c-20 8.66699 -30 24 -30 46c0 14.667 5.83301 27.167 17.5 37.5s26.834 15.5 45.501 15.5
c22.667 0 40 -7 52 -21s18 -32.333 18 -55z" />
    <glyph glyph-name="ncommaaccent" unicode="&#x146;" horiz-adv-x="579" 
d="M484 366v-264.999c0 -28.667 4.16699 -47.5 12.5 -56.5s25.833 -14.5 52.5 -16.5v-28h-214v28c28.667 2.66699 47.5 8.33398 56.5 17.001s13.5 25 13.5 49v254c0 30 -6.5 51.667 -19.5 65s-32.833 20 -59.5 20c-28.667 0 -53.834 -6.16699 -75.501 -18.5
s-44.5 -30.5 -68.5 -54.5v-266c0 -24 4.5 -40.333 13.5 -49s27.833 -14.334 56.5 -17.001v-28h-219v28c27.333 2.66699 45.833 8.66699 55.5 18s14.5 27.666 14.5 54.999v246c0 35.333 -4.83301 58.5 -14.5 69.5s-29.167 17.167 -58.5 18.5v25l120 38h13
c8.66699 -22 13.667 -53 15 -93c58.667 61.333 117.667 92 177 92c38.667 0 69.834 -11.5 93.501 -34.5s35.5 -55.167 35.5 -96.5zM360 -143.999c0 -31.333 -10.6689 -59 -32.002 -83s-51.666 -40 -90.999 -48l-18 26c24.667 7.33301 41.5 15.5 50.5 24.5
s13.5 19.5 13.5 31.5c0 10 -8.66699 18.667 -26 26c-20 8.66699 -30 24 -30 46c0 14.667 5.83301 27.167 17.5 37.5s26.834 15.5 45.501 15.5c22.667 0 40 -7 52 -21s18 -32.333 18 -55z" />
    <glyph glyph-name="Ncaron" unicode="&#x147;" horiz-adv-x="679" 
d="M518 330v245.002c0 27.333 -5.66699 46.666 -17 57.999s-32.333 18.333 -63 21v29h207v-29c-28 -2.66699 -47 -9.5 -57 -20.5s-15 -30.5 -15 -58.5v-575h-61l-249 407c-46 74 -75.667 131 -89 171h-6c4 -26.667 6 -89 6 -187v-283c0 -27.333 5.66699 -46.666 17 -57.999
s32.333 -18.333 63 -21v-29h-215v29c30.667 2.66699 51.667 9.66699 63 21s17 30.666 17 57.999v467c0 27.333 -5.66699 46.666 -17 57.999s-32.333 18.333 -63 21v29h152l254 -417c38 -62 62.667 -110.667 74 -146h6c-4.66699 28 -7 98 -7 210zM342 818.002l135 80l21 -24
l-156 -144l-156 144l21 24z" />
    <glyph glyph-name="ncaron" unicode="&#x148;" horiz-adv-x="579" 
d="M484 366v-264.999c0 -28.667 4.16699 -47.5 12.5 -56.5s25.833 -14.5 52.5 -16.5v-28h-214v28c28.667 2.66699 47.5 8.33398 56.5 17.001s13.5 25 13.5 49v254c0 30 -6.5 51.667 -19.5 65s-32.833 20 -59.5 20c-28.667 0 -53.834 -6.16699 -75.501 -18.5
s-44.5 -30.5 -68.5 -54.5v-266c0 -24 4.5 -40.333 13.5 -49s27.833 -14.334 56.5 -17.001v-28h-219v28c27.333 2.66699 45.833 8.66699 55.5 18s14.5 27.666 14.5 54.999v246c0 35.333 -4.83301 58.5 -14.5 69.5s-29.167 17.167 -58.5 18.5v25l120 38h13
c8.66699 -22 13.667 -53 15 -93c58.667 61.333 117.667 92 177 92c38.667 0 69.834 -11.5 93.501 -34.5s35.5 -55.167 35.5 -96.5zM289 637.001l135 84l21 -24l-156 -147l-156 147l21 24z" />
    <glyph glyph-name="napostrophe" unicode="&#x149;" horiz-adv-x="837" 
d="M202 601c0 -38 -11.667 -71.833 -35 -101.5s-55 -50.167 -95 -61.5l-21 28c52.667 20.667 79 47 79 79c0 12 -9.66699 21.333 -29 28c-30 10.667 -45 30 -45 58c0 18.667 6.5 34.5 19.5 47.5s29.5 19.5 49.5 19.5c22.667 0 41.167 -9 55.5 -27s21.5 -41.333 21.5 -70z
M742 366v-264.999c0 -28.667 4.16699 -47.5 12.5 -56.5s25.833 -14.5 52.5 -16.5v-28h-214v28c28.667 2.66699 47.5 8.33398 56.5 17.001s13.5 25 13.5 49v254c0 30 -6.5 51.667 -19.5 65s-32.833 20 -59.5 20c-28.667 0 -53.834 -6.16699 -75.501 -18.5
s-44.5 -30.5 -68.5 -54.5v-266c0 -24 4.5 -40.333 13.5 -49s27.833 -14.334 56.5 -17.001v-28h-219v28c27.333 2.66699 45.833 8.66699 55.5 18s14.5 27.666 14.5 54.999v246c0 35.333 -4.83301 58.5 -14.5 69.5s-29.167 17.167 -58.5 18.5v25l120 38h13
c8.66699 -22 13.667 -53 15 -93c58.667 61.333 117.667 92 177 92c38.667 0 69.834 -11.5 93.501 -34.5s35.5 -55.167 35.5 -96.5z" />
    <glyph glyph-name="Eng" unicode="&#x14a;" horiz-adv-x="679" 
d="M518 330l0.000976562 245.002c0 27.333 -5.66699 46.666 -17 57.999s-32.333 18.333 -63 21v29h207v-29c-28 -2.66699 -47 -9.5 -57 -20.5s-15 -30.5 -15 -58.5v-504c0 -73.333 -12.833 -127.5 -38.5 -162.5s-72.834 -63.833 -141.501 -86.5l-20 31
c47.333 26 79.333 51.167 96 75.5s25.667 57.5 27 99.5l-233 379c-46 74 -75.667 131 -89 171h-6c4 -26.667 6 -89 6 -187v-283c0 -27.333 5.66699 -46.666 17 -57.999s32.333 -18.333 63 -21v-29h-215v29c30.667 2.66699 51.667 9.66699 63 21s17 30.666 17 57.999v467
c0 27.333 -5.66699 46.666 -17 57.999s-32.333 18.333 -63 21v29h152l254 -417c38 -62 62.667 -110.667 74 -146h6c-4.66699 28 -7 98 -7 210z" />
    <glyph glyph-name="eng" unicode="&#x14b;" horiz-adv-x="556" 
d="M405 9l0.00292969 339.001c0 30 -6.5 51.667 -19.5 65s-32.833 20 -59.5 20c-28.667 0 -53.834 -6.16699 -75.501 -18.5s-44.5 -30.5 -68.5 -54.5v-266c0 -24 4.5 -40.333 13.5 -49s27.833 -14.334 56.5 -17.001v-28h-219v28c27.333 2.66699 45.833 8.66699 55.5 18
s14.5 27.666 14.5 54.999v246c0 35.333 -4.83301 58.5 -14.5 69.5s-29.167 17.167 -58.5 18.5v25l120 38h13c8.66699 -22 13.667 -53 15 -93c58.667 61.333 117.667 92 177 92c38.667 0 69.834 -11.5 93.501 -34.5s35.5 -55.167 35.5 -96.5v-358
c0 -34.667 -2.83301 -63.834 -8.5 -87.501s-15.334 -43.167 -29.001 -58.5s-26.834 -27.166 -39.501 -35.499s-31.334 -18.166 -56.001 -29.499l-13.5 18l-11.5 15c30 14 50.667 34.167 62 60.5s17 65.833 17 118.5z" />
    <glyph glyph-name="Omacron" unicode="&#x14c;" horiz-adv-x="666" 
d="M336 -11c-93.333 0 -164.999 32.499 -214.999 97.499s-75 150.833 -75 257.5c0 110.667 25.667 196.834 77 258.501s120.666 92.5 207.999 92.5c50 0 94 -9.66699 132 -29s68.167 -45.833 90.5 -79.5s39 -71.334 50 -113.001s16.5 -87.167 16.5 -136.5
c0 -105.333 -25.333 -189.666 -76 -252.999s-120 -95 -208 -95zM331.001 653.999c-67.333 0 -116.667 -24.833 -148 -74.5s-47 -124.5 -47 -224.5c0 -218 66.667 -327 200 -327c128 0 192 100 192 300c0 108 -15.333 189.333 -46 244s-81 82 -151 82zM468 768.999h-269v51
h269v-51z" />
    <glyph glyph-name="omacron" unicode="&#x14d;" horiz-adv-x="524" 
d="M486 239c0 -77.333 -20.667 -138.501 -62 -183.501s-95.333 -67.5 -162 -67.5c-69.333 0 -124 22.5 -164 67.5s-60 107.833 -60 188.5c0 79.333 20 141.833 60 187.5s94 68.5 162 68.5c72 0 127.667 -24.167 167 -72.5s59 -111.166 59 -188.499zM400 234.999
c0 148 -46.667 222 -140 222c-50 0 -85.167 -17 -105.5 -51s-30.5 -84.667 -30.5 -152c0 -78 10.833 -134.667 32.5 -170s57.5 -53 107.5 -53c44.667 0 78.5 17.5 101.5 52.5s34.5 85.5 34.5 151.5zM398 589.999h-269v51h269v-51z" />
    <glyph glyph-name="Obreve" unicode="&#x14e;" horiz-adv-x="666" 
d="M336 -11c-93.333 0 -164.999 32.499 -214.999 97.499s-75 150.833 -75 257.5c0 110.667 25.667 196.834 77 258.501s120.666 92.5 207.999 92.5c50 0 94 -9.66699 132 -29s68.167 -45.833 90.5 -79.5s39 -71.334 50 -113.001s16.5 -87.167 16.5 -136.5
c0 -105.333 -25.333 -189.666 -76 -252.999s-120 -95 -208 -95zM331.001 653.999c-67.333 0 -116.667 -24.833 -148 -74.5s-47 -124.5 -47 -224.5c0 -218 66.667 -327 200 -327c128 0 192 100 192 300c0 108 -15.333 189.333 -46 244s-81 82 -151 82zM333 740.999
c-32.667 0 -63.835 13.333 -93.502 40s-51.5 56.667 -65.5 90l22 20c44.667 -52 90.334 -78 137.001 -78s92.334 26 137.001 78l23 -20c-14 -33.333 -36 -63.333 -66 -90s-61.333 -40 -94 -40z" />
    <glyph glyph-name="obreve" unicode="&#x14f;" horiz-adv-x="524" 
d="M486 239c0 -77.333 -20.667 -138.501 -62 -183.501s-95.333 -67.5 -162 -67.5c-69.333 0 -124 22.5 -164 67.5s-60 107.833 -60 188.5c0 79.333 20 141.833 60 187.5s94 68.5 162 68.5c72 0 127.667 -24.167 167 -72.5s59 -111.166 59 -188.499zM400 234.999
c0 148 -46.667 222 -140 222c-50 0 -85.167 -17 -105.5 -51s-30.5 -84.667 -30.5 -152c0 -78 10.833 -134.667 32.5 -170s57.5 -53 107.5 -53c44.667 0 78.5 17.5 101.5 52.5s34.5 85.5 34.5 151.5zM264 566.999c-31.333 0 -60.332 13.5 -86.999 40.5
s-46.334 57.5 -59.001 91.5l22 16c34 -50.667 74.667 -76 122 -76c45.333 0 86 25.333 122 76l23 -16c-12.667 -34 -32 -64.5 -58 -91.5s-54.333 -40.5 -85 -40.5z" />
    <glyph glyph-name="Ohungarumlaut" unicode="&#x150;" horiz-adv-x="666" 
d="M336 -11c-93.333 0 -164.999 32.499 -214.999 97.499s-75 150.833 -75 257.5c0 110.667 25.667 196.834 77 258.501s120.666 92.5 207.999 92.5c50 0 94 -9.66699 132 -29s68.167 -45.833 90.5 -79.5s39 -71.334 50 -113.001s16.5 -87.167 16.5 -136.5
c0 -105.333 -25.333 -189.666 -76 -252.999s-120 -95 -208 -95zM331.001 653.999c-67.333 0 -116.667 -24.833 -148 -74.5s-47 -124.5 -47 -224.5c0 -218 66.667 -327 200 -327c128 0 192 100 192 300c0 108 -15.333 189.333 -46 244s-81 82 -151 82zM348 896.999l-93 -168
l-33 14l51 185zM527 869.999l-119 -147l-29 21l80 168z" />
    <glyph glyph-name="ohungarumlaut" unicode="&#x151;" horiz-adv-x="524" 
d="M486 239c0 -77.333 -20.667 -138.501 -62 -183.501s-95.333 -67.5 -162 -67.5c-69.333 0 -124 22.5 -164 67.5s-60 107.833 -60 188.5c0 79.333 20 141.833 60 187.5s94 68.5 162 68.5c72 0 127.667 -24.167 167 -72.5s59 -111.166 59 -188.499zM400 234.999
c0 148 -46.667 222 -140 222c-50 0 -85.167 -17 -105.5 -51s-30.5 -84.667 -30.5 -152c0 -78 10.833 -134.667 32.5 -170s57.5 -53 107.5 -53c44.667 0 78.5 17.5 101.5 52.5s34.5 85.5 34.5 151.5zM298 765.999l-110 -201l-32 14l68 218zM481 736.999l-141 -178l-28 21
l100 201z" />
    <glyph glyph-name="OE" unicode="&#x152;" horiz-adv-x="918" 
d="M394 45l73 0.00195312v597h-75c-169.333 0 -254 -104.333 -254 -313c0 -55.333 6 -101.833 18 -139.5s29.833 -66.834 53.5 -87.501s50.167 -35.334 79.5 -44.001s64.333 -13 105 -13zM404 683.002h454l10 -144h-31c-12 40 -24.333 66.833 -37 80.5s-34 20.5 -64 20.5
h-173v-262h99c33.333 0 56.5 4.83301 69.5 14.5s20.5 28.5 22.5 56.5h29v-184h-29c-2 27.333 -9.5 46 -22.5 56s-35.833 15 -68.5 15h-100v-293h174c40.667 0 68.167 7.66699 82.5 23s23.5 46.333 27.5 93h33v-159h-476c-118.667 0 -208 31 -268 93s-90 144.667 -90 248
c0 114 32.667 199.5 98 256.5s152 85.5 260 85.5z" />
    <glyph glyph-name="oe" unicode="&#x153;" horiz-adv-x="841" 
d="M649 43c46 0 89.668 13 131.001 39l16 -28c-56.667 -43.333 -113.667 -65 -171 -65c-38.667 0 -74.334 9 -107.001 27s-57.667 42.667 -75 74c-21.333 -32 -47.833 -57 -79.5 -75s-65.5 -27 -101.5 -27c-66.667 0 -120.667 22.833 -162 68.5s-62 108.167 -62 187.5
c0 78.667 20.5 141 61.5 187s94.5 69 160.5 69c38 0 73 -9.16699 105 -27.5s57.333 -43.166 76 -74.499c18 33.333 42 58.833 72 76.5s62.667 26.5 98 26.5c61.333 0 109 -20.667 143 -62s51 -99.333 51 -174v-24h-319c0 -72.667 13.167 -123.834 39.5 -153.501
s67.5 -44.5 123.5 -44.5zM400.001 235c0 148 -46.667 222 -140 222c-50 0 -85.167 -17 -105.5 -51s-30.5 -84.667 -30.5 -152c0 -78 10.833 -134.667 32.5 -170s57.5 -53 107.5 -53c44.667 0 78.5 17.5 101.5 52.5s34.5 85.5 34.5 151.5zM609.001 459
c-37.333 0 -66 -13.167 -86 -39.5s-32 -71.5 -36 -135.5h235c0 62.667 -8.83301 107.5 -26.5 134.5s-46.5 40.5 -86.5 40.5z" />
    <glyph glyph-name="Racute" unicode="&#x154;" horiz-adv-x="607" 
d="M313 325l0.000976562 -4c41.333 -10 75.666 -32.667 102.999 -68c15.333 -18.667 49.666 -73.667 102.999 -165c11.333 -20 22.5 -34.5 33.5 -43.5s28.5 -14.167 52.5 -15.5v-29h-138c-60 120.667 -102.333 200 -127 238c-19.333 29.333 -39.166 51 -59.499 65
s-46.5 21.667 -78.5 23v-220c0 -27.333 5.5 -46.666 16.5 -57.999s31.5 -17.666 61.5 -18.999v-29h-241v29c30.667 2.66699 51.667 9.66699 63 21s17 30.666 17 57.999v467c0 27.333 -5.66699 46.666 -17 57.999s-32.333 18.333 -63 21v29h242c162 0 243 -61 243 -183
c0 -54 -19.667 -96.333 -59 -127s-90 -46.667 -152 -48zM435.001 499c0 53.333 -11.332 90.167 -33.999 110.5s-60.667 30.5 -114 30.5h-85v-284h80c49.333 0 87.166 10.833 113.499 32.5s39.5 58.5 39.5 110.5zM190.002 728.001l-17 30l182 122l40 -84z" />
    <glyph glyph-name="racute" unicode="&#x155;" horiz-adv-x="362" 
d="M180 386c44.667 76.667 91.002 115 139.002 115c7.33301 0 15.666 -1.33301 24.999 -4l-21 -92c-6 2 -15 3 -27 3c-40.667 0 -69.834 -10.333 -87.501 -31s-26.5 -55 -26.5 -103v-173c0 -27.333 5.66699 -45.666 17 -54.999s34 -15.333 68 -18v-28h-234v28
c27.333 2.66699 45.833 8.66699 55.5 18s14.5 27.666 14.5 54.999v246c0 35.333 -4.83301 58.5 -14.5 69.5s-29.167 17.167 -58.5 18.5v25l119 38h13c11.333 -28.667 17.333 -66 18 -112zM95.002 568l-17 29l171 146l49 -83z" />
    <glyph glyph-name="Rcommaaccent" unicode="&#x156;" horiz-adv-x="607" 
d="M313 325l0.000976562 -4c41.333 -10 75.666 -32.667 102.999 -68c15.333 -18.667 49.666 -73.667 102.999 -165c11.333 -20 22.5 -34.5 33.5 -43.5s28.5 -14.167 52.5 -15.5v-29h-138c-60 120.667 -102.333 200 -127 238c-19.333 29.333 -39.166 51 -59.499 65
s-46.5 21.667 -78.5 23v-220c0 -27.333 5.5 -46.666 16.5 -57.999s31.5 -17.666 61.5 -18.999v-29h-241v29c30.667 2.66699 51.667 9.66699 63 21s17 30.666 17 57.999v467c0 27.333 -5.66699 46.666 -17 57.999s-32.333 18.333 -63 21v29h242c162 0 243 -61 243 -183
c0 -54 -19.667 -96.333 -59 -127s-90 -46.667 -152 -48zM435.001 499c0 53.333 -11.332 90.167 -33.999 110.5s-60.667 30.5 -114 30.5h-85v-284h80c49.333 0 87.166 10.833 113.499 32.5s39.5 58.5 39.5 110.5zM377.002 -143.999c0 -31.333 -10.6689 -59 -32.002 -83
s-51.666 -40 -90.999 -48l-18 26c24.667 7.33301 41.5 15.5 50.5 24.5s13.5 19.5 13.5 31.5c0 10 -8.66699 18.667 -26 26c-20 8.66699 -30 24 -30 46c0 14.667 5.83301 27.167 17.5 37.5s26.834 15.5 45.501 15.5c22.667 0 40 -7 52 -21s18 -32.333 18 -55z" />
    <glyph glyph-name="rcommaaccent" unicode="&#x157;" horiz-adv-x="362" 
d="M180 386c44.667 76.667 91.002 115 139.002 115c7.33301 0 15.666 -1.33301 24.999 -4l-21 -92c-6 2 -15 3 -27 3c-40.667 0 -69.834 -10.333 -87.501 -31s-26.5 -55 -26.5 -103v-173c0 -27.333 5.66699 -45.666 17 -54.999s34 -15.333 68 -18v-28h-234v28
c27.333 2.66699 45.833 8.66699 55.5 18s14.5 27.666 14.5 54.999v246c0 35.333 -4.83301 58.5 -14.5 69.5s-29.167 17.167 -58.5 18.5v25l119 38h13c11.333 -28.667 17.333 -66 18 -112zM210.002 -144c0 -31.333 -10.6689 -59 -32.002 -83s-51.666 -40 -90.999 -48l-18 26
c24.667 7.33301 41.5 15.5 50.5 24.5s13.5 19.5 13.5 31.5c0 10 -8.66699 18.667 -26 26c-20 8.66699 -30 24 -30 46c0 14.667 5.83301 27.167 17.5 37.5s26.834 15.5 45.501 15.5c22.667 0 40 -7 52 -21s18 -32.333 18 -55z" />
    <glyph glyph-name="Rcaron" unicode="&#x158;" horiz-adv-x="607" 
d="M313 325l0.000976562 -4c41.333 -10 75.666 -32.667 102.999 -68c15.333 -18.667 49.666 -73.667 102.999 -165c11.333 -20 22.5 -34.5 33.5 -43.5s28.5 -14.167 52.5 -15.5v-29h-138c-60 120.667 -102.333 200 -127 238c-19.333 29.333 -39.166 51 -59.499 65
s-46.5 21.667 -78.5 23v-220c0 -27.333 5.5 -46.666 16.5 -57.999s31.5 -17.666 61.5 -18.999v-29h-241v29c30.667 2.66699 51.667 9.66699 63 21s17 30.666 17 57.999v467c0 27.333 -5.66699 46.666 -17 57.999s-32.333 18.333 -63 21v29h242c162 0 243 -61 243 -183
c0 -54 -19.667 -96.333 -59 -127s-90 -46.667 -152 -48zM435.001 499c0 53.333 -11.332 90.167 -33.999 110.5s-60.667 30.5 -114 30.5h-85v-284h80c49.333 0 87.166 10.833 113.499 32.5s39.5 58.5 39.5 110.5zM284.002 818.001l135 80l21 -24l-156 -144l-156 144l21 24z
" />
    <glyph glyph-name="rcaron" unicode="&#x159;" horiz-adv-x="362" 
d="M180 386c44.667 76.667 91.002 115 139.002 115c7.33301 0 15.666 -1.33301 24.999 -4l-21 -92c-6 2 -15 3 -27 3c-40.667 0 -69.834 -10.333 -87.501 -31s-26.5 -55 -26.5 -103v-173c0 -27.333 5.66699 -45.666 17 -54.999s34 -15.333 68 -18v-28h-234v28
c27.333 2.66699 45.833 8.66699 55.5 18s14.5 27.666 14.5 54.999v246c0 35.333 -4.83301 58.5 -14.5 69.5s-29.167 17.167 -58.5 18.5v25l119 38h13c11.333 -28.667 17.333 -66 18 -112zM192.002 637l135 84l21 -24l-156 -147l-156 147l21 24z" />
    <glyph glyph-name="Sacute" unicode="&#x15a;" horiz-adv-x="530" 
d="M241 -11c-77.333 0 -143.666 17.666 -198.999 52.999v120h57c6.66699 -46.667 21.167 -80.334 43.5 -101.001s59.833 -31 112.5 -31c53.333 0 92.166 12 116.499 36s36.5 56.333 36.5 97c0 41.333 -9.5 71.333 -28.5 90s-53.833 35.667 -104.5 51l-69 21
c-100.667 30.667 -151 90 -151 178c0 58 19.333 104.5 58 139.5s91.667 52.5 159 52.5c78.667 0 139.667 -16 183 -48v-104h-53c-6.66699 36.667 -20.5 64.334 -41.5 83.001s-54.833 28 -101.5 28c-41.333 0 -74 -10.667 -98 -32s-36 -50.666 -36 -87.999
c0 -36.667 9.16699 -63.5 27.5 -80.5s50.833 -32.5 97.5 -46.5l70 -21c108.667 -33.333 163 -96 163 -188c0 -66.667 -20.667 -118.167 -62 -154.5s-101.333 -54.5 -180 -54.5zM182 727.999l-17 30l182 122l40 -84z" />
    <glyph glyph-name="sacute" unicode="&#x15b;" horiz-adv-x="423" 
d="M198 -12c-63.333 0 -116.333 13.3301 -159 39.9971v93h55c4 -33.333 14.667 -57.166 32 -71.499s44.333 -21.5 81 -21.5c32 0 58.167 7.33301 78.5 22s30.5 37.334 30.5 68.001c0 26 -7.16699 45.667 -21.5 59s-37.5 23.666 -69.5 30.999l-59 14
c-81.333 19.333 -122 64.666 -122 135.999c0 46.667 15.167 81.834 45.5 105.501s71.5 35.5 123.5 35.5c50.667 0 98.667 -11.333 144 -34v-85h-53c-10 52.667 -43 79 -99 79c-30.667 0 -54.667 -7.16699 -72 -21.5s-26 -33.833 -26 -58.5c0 -22 6.16699 -39.333 18.5 -52
s34.5 -22.667 66.5 -30l59 -14c88 -21.333 132 -65.666 132 -132.999c0 -51.333 -15.833 -91.166 -47.5 -119.499s-77.5 -42.5 -137.5 -42.5zM118 567.997l-17 29l171 146l49 -83z" />
    <glyph glyph-name="Scircumflex" unicode="&#x15c;" horiz-adv-x="530" 
d="M241 -11c-77.333 0 -143.666 17.666 -198.999 52.999v120h57c6.66699 -46.667 21.167 -80.334 43.5 -101.001s59.833 -31 112.5 -31c53.333 0 92.166 12 116.499 36s36.5 56.333 36.5 97c0 41.333 -9.5 71.333 -28.5 90s-53.833 35.667 -104.5 51l-69 21
c-100.667 30.667 -151 90 -151 178c0 58 19.333 104.5 58 139.5s91.667 52.5 159 52.5c78.667 0 139.667 -16 183 -48v-104h-53c-6.66699 36.667 -20.5 64.334 -41.5 83.001s-54.833 28 -101.5 28c-41.333 0 -74 -10.667 -98 -32s-36 -50.666 -36 -87.999
c0 -36.667 9.16699 -63.5 27.5 -80.5s50.833 -32.5 97.5 -46.5l70 -21c108.667 -33.333 163 -96 163 -188c0 -66.667 -20.667 -118.167 -62 -154.5s-101.333 -54.5 -180 -54.5zM411 730.999l-135 80l-135 -80l-21 24l156 143l156 -143z" />
    <glyph glyph-name="scircumflex" unicode="&#x15d;" horiz-adv-x="423" 
d="M198 -12c-63.333 0 -116.333 13.3301 -159 39.9971v93h55c4 -33.333 14.667 -57.166 32 -71.499s44.333 -21.5 81 -21.5c32 0 58.167 7.33301 78.5 22s30.5 37.334 30.5 68.001c0 26 -7.16699 45.667 -21.5 59s-37.5 23.666 -69.5 30.999l-59 14
c-81.333 19.333 -122 64.666 -122 135.999c0 46.667 15.167 81.834 45.5 105.501s71.5 35.5 123.5 35.5c50.667 0 98.667 -11.333 144 -34v-85h-53c-10 52.667 -43 79 -99 79c-30.667 0 -54.667 -7.16699 -72 -21.5s-26 -33.833 -26 -58.5c0 -22 6.16699 -39.333 18.5 -52
s34.5 -22.667 66.5 -30l59 -14c88 -21.333 132 -65.666 132 -132.999c0 -51.333 -15.833 -91.166 -47.5 -119.499s-77.5 -42.5 -137.5 -42.5zM345 566.997l-135 84l-135 -84l-21 24l156 147l156 -147z" />
    <glyph glyph-name="Scedilla" unicode="&#x15e;" horiz-adv-x="530" 
d="M241 -11c-77.333 0 -143.666 17.666 -198.999 52.999v120h57c6.66699 -46.667 21.167 -80.334 43.5 -101.001s59.833 -31 112.5 -31c53.333 0 92.166 12 116.499 36s36.5 56.333 36.5 97c0 41.333 -9.5 71.333 -28.5 90s-53.833 35.667 -104.5 51l-69 21
c-100.667 30.667 -151 90 -151 178c0 58 19.333 104.5 58 139.5s91.667 52.5 159 52.5c78.667 0 139.667 -16 183 -48v-104h-53c-6.66699 36.667 -20.5 64.334 -41.5 83.001s-54.833 28 -101.5 28c-41.333 0 -74 -10.667 -98 -32s-36 -50.666 -36 -87.999
c0 -36.667 9.16699 -63.5 27.5 -80.5s50.833 -32.5 97.5 -46.5l70 -21c108.667 -33.333 163 -96 163 -188c0 -62 -18.333 -111 -55 -147s-90 -56.333 -160 -61l-10 -35c29.333 -2 51 -9.66699 65 -23s21 -29.333 21 -48c0 -54.667 -31 -82 -93 -82
c-26.667 0 -52 7.33301 -76 22l13 25c20 -9.33301 40 -14 60 -14c30.667 0 46 13 46 39c0 21.333 -23.333 33.333 -70 36v17z" />
    <glyph glyph-name="scedilla" unicode="&#x15f;" horiz-adv-x="423" 
d="M279 -116c0 -54.667 -31 -82.002 -93 -82.002c-26.667 0 -52 7.33301 -76 22l13 25c20 -9.33301 40 -14 60 -14c30.667 0 46 13 46 39c0 21.333 -23.333 33.333 -70 36v17l17 62c-54 2 -99.667 15 -137 39v93h55c4 -33.333 14.667 -57.166 32 -71.499
s44.333 -21.5 81 -21.5c32 0 58.167 7.33301 78.5 22s30.5 37.334 30.5 68.001c0 26 -7.16699 45.667 -21.5 59s-37.5 23.666 -69.5 30.999l-59 14c-81.333 19.333 -122 64.666 -122 135.999c0 46.667 15.167 81.834 45.5 105.501s71.5 35.5 123.5 35.5
c50.667 0 98.667 -11.333 144 -34v-85h-53c-10 52.667 -43 79 -99 79c-30.667 0 -54.667 -7.16699 -72 -21.5s-26 -33.833 -26 -58.5c0 -22 6.16699 -39.333 18.5 -52s34.5 -22.667 66.5 -30l59 -14c88 -21.333 132 -65.666 132 -132.999
c0 -50.667 -15.5 -90.167 -46.5 -118.5s-75.833 -42.833 -134.5 -43.5l-9 -33c29.333 -2 51 -9.66699 65 -23s21 -29.333 21 -48z" />
    <glyph glyph-name="Scaron" unicode="&#x160;" horiz-adv-x="530" 
d="M241 -11c-77.333 0 -143.666 17.666 -198.999 52.999v120h57c6.66699 -46.667 21.167 -80.334 43.5 -101.001s59.833 -31 112.5 -31c53.333 0 92.166 12 116.499 36s36.5 56.333 36.5 97c0 41.333 -9.5 71.333 -28.5 90s-53.833 35.667 -104.5 51l-69 21
c-100.667 30.667 -151 90 -151 178c0 58 19.333 104.5 58 139.5s91.667 52.5 159 52.5c78.667 0 139.667 -16 183 -48v-104h-53c-6.66699 36.667 -20.5 64.334 -41.5 83.001s-54.833 28 -101.5 28c-41.333 0 -74 -10.667 -98 -32s-36 -50.666 -36 -87.999
c0 -36.667 9.16699 -63.5 27.5 -80.5s50.833 -32.5 97.5 -46.5l70 -21c108.667 -33.333 163 -96 163 -188c0 -66.667 -20.667 -118.167 -62 -154.5s-101.333 -54.5 -180 -54.5zM276 817.999l135 80l21 -24l-156 -144l-156 144l21 24z" />
    <glyph glyph-name="scaron" unicode="&#x161;" horiz-adv-x="423" 
d="M198 -12c-63.333 0 -116.333 13.3301 -159 39.9971v93h55c4 -33.333 14.667 -57.166 32 -71.499s44.333 -21.5 81 -21.5c32 0 58.167 7.33301 78.5 22s30.5 37.334 30.5 68.001c0 26 -7.16699 45.667 -21.5 59s-37.5 23.666 -69.5 30.999l-59 14
c-81.333 19.333 -122 64.666 -122 135.999c0 46.667 15.167 81.834 45.5 105.501s71.5 35.5 123.5 35.5c50.667 0 98.667 -11.333 144 -34v-85h-53c-10 52.667 -43 79 -99 79c-30.667 0 -54.667 -7.16699 -72 -21.5s-26 -33.833 -26 -58.5c0 -22 6.16699 -39.333 18.5 -52
s34.5 -22.667 66.5 -30l59 -14c88 -21.333 132 -65.666 132 -132.999c0 -51.333 -15.833 -91.166 -47.5 -119.499s-77.5 -42.5 -137.5 -42.5zM210 636.997l135 84l21 -24l-156 -147l-156 147l21 24z" />
    <glyph glyph-name="Tcommaaccent" unicode="&#x162;" horiz-adv-x="547" 
d="M360 -116c0 -54.667 -31 -82 -93 -82c-26.667 0 -52 7.33301 -76 22l13 25c20 -9.33301 40 -14 60 -14c30.667 0 46 13 46 39c0 21.333 -23.333 33.333 -70 36v17l21 73h-119v29c34 1.33301 57.5 7.16602 70.5 17.499s19.5 30.833 19.5 61.5v532h-83
c-31.333 0 -51.833 -6.66699 -61.5 -20s-19.167 -42.666 -28.5 -87.999h-35l8 151h483l8 -151h-35c-9.33301 45.333 -18.833 74.666 -28.5 87.999s-30.167 20 -61.5 20h-83v-532c0 -30.667 6.5 -51.167 19.5 -61.5s36.5 -16.166 70.5 -17.499v-29h-119l-12 -45
c29.333 -2 51 -9.66699 65 -23s21 -29.333 21 -48z" />
    <glyph glyph-name="tcommaaccent" unicode="&#x163;" horiz-adv-x="318" 
d="M289 485l-13 -49h-106v-305c0 -40 4.66699 -66.5 14 -79.5s28 -19.5 56 -19.5c16 0 33.333 3 52 9l7 -32c-32 -15.333 -63 -23 -93 -23h-10l-8 -31c29.333 -2 51 -9.66699 65 -23s21 -29.333 21 -48c0 -54.667 -31 -82 -93 -82c-26.667 0 -52 7.33301 -76 22l13 25
c20 -9.33301 40 -14 60 -14c30.667 0 46 13 46 39c0 21.333 -23.333 33.333 -70 36v17l17 62c-53.333 10 -80 53 -80 129v318h-60v27l67 22c12.667 66 26.667 112 42 138l39 9c-5.33301 -38.667 -8 -87.667 -8 -147h118z" />
    <glyph glyph-name="Tcaron" unicode="&#x164;" horiz-adv-x="547" 
d="M32 683h483l8 -151h-35c-9.33301 45.333 -18.833 74.666 -28.5 87.999s-30.167 20 -61.5 20h-83v-532c0 -30.667 6.5 -51.167 19.5 -61.5s36.5 -16.166 70.5 -17.499v-29h-263v29c34 1.33301 57.5 7.16602 70.5 17.499s19.5 30.833 19.5 61.5v532h-83
c-31.333 0 -51.833 -6.66699 -61.5 -20s-19.167 -42.666 -28.5 -87.999h-35zM274 818l135 80l21 -24l-156 -144l-156 144l21 24z" />
    <glyph glyph-name="tcaron" unicode="&#x165;" horiz-adv-x="317" 
d="M289 485l-13 -48.999h-106v-305c0 -40 4.66699 -66.5 14 -79.5s28 -19.5 56 -19.5c16 0 33.333 3 52 9l7 -32c-32 -15.333 -63 -23 -93 -23c-38.667 0 -67.5 10.167 -86.5 30.5s-28.5 54.166 -28.5 101.499v318h-60v27l67 22c12.667 66 26.667 112 42 138l39 9
c-5.33301 -38.667 -8 -87.667 -8 -147h118zM351 710.001l-60 -182l-33 9l15 186z" />
    <glyph glyph-name="Tbar" unicode="&#x166;" horiz-adv-x="547" 
d="M32 683h483l8 -151h-35c-9.33301 45.333 -18.833 74.666 -28.5 87.999s-30.167 20 -61.5 20h-83v-263h128v-40h-128v-229c0 -30.667 6.5 -51.167 19.5 -61.5s36.5 -16.166 70.5 -17.499v-29h-263v29c34 1.33301 57.5 7.16602 70.5 17.499s19.5 30.833 19.5 61.5v229h-120
v40h120v263h-83c-31.333 0 -51.833 -6.66699 -61.5 -20s-19.167 -42.666 -28.5 -87.999h-35z" />
    <glyph glyph-name="tbar" unicode="&#x167;" horiz-adv-x="318" 
d="M289 485l-13 -48.999h-106v-97h117v-35h-117v-173c0 -40 4.66699 -66.5 14 -79.5s28 -19.5 56 -19.5c16 0 33.333 3 52 9l7 -32c-32 -15.333 -63 -23 -93 -23c-38.667 0 -67.5 10.167 -86.5 30.5s-28.5 54.166 -28.5 101.499v186h-60v35h60v97h-60v27l67 22
c12.667 66 26.667 112 42 138l39 9c-5.33301 -38.667 -8 -87.667 -8 -147h118z" />
    <glyph glyph-name="Utilde" unicode="&#x168;" horiz-adv-x="680" 
d="M521 221v354.001c0 27.333 -6 46.666 -18 57.999s-34.333 18.333 -67 21v29h212v-29c-28 -2.66699 -47 -9.5 -57 -20.5s-15 -30.5 -15 -58.5v-354c0 -80 -19.167 -138.667 -57.5 -176s-95.166 -56 -170.499 -56c-160.667 0 -241 75 -241 225v361
c0 29.333 -5 49.5 -15 60.5s-30 17.167 -60 18.5v29h243v-29c-36 -1.33301 -59.167 -7.33301 -69.5 -18s-15.5 -31 -15.5 -61v-339c0 -69.333 12.333 -118.833 37 -148.5s69.667 -44.5 135 -44.5c57.333 0 98.166 13.833 122.499 41.5s36.5 73.167 36.5 136.5zM422 812.001
c32 0 57.666 14.333 76.999 43l25 -10c-21.333 -60.667 -55.333 -91 -102 -91c-22.667 0 -47.667 7.33301 -75 22s-48.333 22 -63 22c-29.333 0 -54 -15 -74 -45l-24 10c17.333 63.333 50 95 98 95c20.667 0 44.334 -7.66699 71.001 -23s49 -23 67 -23z" />
    <glyph glyph-name="utilde" unicode="&#x169;" horiz-adv-x="576" 
d="M473 498l0.00195312 -363.998c0 -35.333 4.83301 -58.5 14.5 -69.5s29.167 -17.167 58.5 -18.5v-25l-113 -34h-12c-10 26.667 -17.333 58 -22 94c-28.667 -30.667 -56 -53.834 -82 -69.501s-56 -23.5 -90 -23.5c-40 0 -72 11 -96 33s-36 54.333 -36 97v229
c0 36 -4.66699 59.333 -14 70s-28 16.667 -56 18v25l131 38h18v-363c0 -30.667 6.66699 -52.334 20 -65.001s33.666 -19 60.999 -19c28.667 0 52.667 5.83301 72 17.5s41.666 30.167 66.999 55.5v223c0 36 -4.66699 59.333 -14 70s-28 16.667 -56 18v25l131 38h18z
M348.002 663.002c30 0 53.002 13.334 69.002 40.001l26 -11c-8.66699 -28 -21 -51.167 -37 -69.5s-35.333 -27.5 -58 -27.5c-18 0 -40 4.83301 -66 14.5s-45.333 14.5 -58 14.5c-16.667 0 -29.834 -3.33301 -39.501 -10s-18.834 -17.334 -27.501 -32.001l-23 10
c15.333 68 45.333 102 90 102c17.333 0 38.833 -5.16699 64.5 -15.5s45.5 -15.5 59.5 -15.5z" />
    <glyph glyph-name="Umacron" unicode="&#x16a;" horiz-adv-x="680" 
d="M521 221v354.001c0 27.333 -6 46.666 -18 57.999s-34.333 18.333 -67 21v29h212v-29c-28 -2.66699 -47 -9.5 -57 -20.5s-15 -30.5 -15 -58.5v-354c0 -80 -19.167 -138.667 -57.5 -176s-95.166 -56 -170.499 -56c-160.667 0 -241 75 -241 225v361
c0 29.333 -5 49.5 -15 60.5s-30 17.167 -60 18.5v29h243v-29c-36 -1.33301 -59.167 -7.33301 -69.5 -18s-15.5 -31 -15.5 -61v-339c0 -69.333 12.333 -118.833 37 -148.5s69.667 -44.5 135 -44.5c57.333 0 98.166 13.833 122.499 41.5s36.5 73.167 36.5 136.5zM489 769.001
h-269v51h269v-51z" />
    <glyph glyph-name="umacron" unicode="&#x16b;" horiz-adv-x="576" 
d="M473 498l0.00195312 -363.998c0 -35.333 4.83301 -58.5 14.5 -69.5s29.167 -17.167 58.5 -18.5v-25l-113 -34h-12c-10 26.667 -17.333 58 -22 94c-28.667 -30.667 -56 -53.834 -82 -69.501s-56 -23.5 -90 -23.5c-40 0 -72 11 -96 33s-36 54.333 -36 97v229
c0 36 -4.66699 59.333 -14 70s-28 16.667 -56 18v25l131 38h18v-363c0 -30.667 6.66699 -52.334 20 -65.001s33.666 -19 60.999 -19c28.667 0 52.667 5.83301 72 17.5s41.666 30.167 66.999 55.5v223c0 36 -4.66699 59.333 -14 70s-28 16.667 -56 18v25l131 38h18z
M420.002 590.002h-269v51h269v-51z" />
    <glyph glyph-name="Ubreve" unicode="&#x16c;" horiz-adv-x="680" 
d="M521 221v354.001c0 27.333 -6 46.666 -18 57.999s-34.333 18.333 -67 21v29h212v-29c-28 -2.66699 -47 -9.5 -57 -20.5s-15 -30.5 -15 -58.5v-354c0 -80 -19.167 -138.667 -57.5 -176s-95.166 -56 -170.499 -56c-160.667 0 -241 75 -241 225v361
c0 29.333 -5 49.5 -15 60.5s-30 17.167 -60 18.5v29h243v-29c-36 -1.33301 -59.167 -7.33301 -69.5 -18s-15.5 -31 -15.5 -61v-339c0 -69.333 12.333 -118.833 37 -148.5s69.667 -44.5 135 -44.5c57.333 0 98.166 13.833 122.499 41.5s36.5 73.167 36.5 136.5zM354 741.001
c-32.667 0 -63.835 13.333 -93.502 40s-51.5 56.667 -65.5 90l22 20c44.667 -52 90.334 -78 137.001 -78s92.334 26 137.001 78l23 -20c-14 -33.333 -36 -63.333 -66 -90s-61.333 -40 -94 -40z" />
    <glyph glyph-name="ubreve" unicode="&#x16d;" horiz-adv-x="576" 
d="M473 498l0.00195312 -363.998c0 -35.333 4.83301 -58.5 14.5 -69.5s29.167 -17.167 58.5 -18.5v-25l-113 -34h-12c-10 26.667 -17.333 58 -22 94c-28.667 -30.667 -56 -53.834 -82 -69.501s-56 -23.5 -90 -23.5c-40 0 -72 11 -96 33s-36 54.333 -36 97v229
c0 36 -4.66699 59.333 -14 70s-28 16.667 -56 18v25l131 38h18v-363c0 -30.667 6.66699 -52.334 20 -65.001s33.666 -19 60.999 -19c28.667 0 52.667 5.83301 72 17.5s41.666 30.167 66.999 55.5v223c0 36 -4.66699 59.333 -14 70s-28 16.667 -56 18v25l131 38h18z
M286.002 567.002c-31.333 0 -60.332 13.5 -86.999 40.5s-46.334 57.5 -59.001 91.5l22 16c34 -50.667 74.667 -76 122 -76c45.333 0 86 25.333 122 76l23 -16c-12.667 -34 -32 -64.5 -58 -91.5s-54.333 -40.5 -85 -40.5z" />
    <glyph glyph-name="Uring" unicode="&#x16e;" horiz-adv-x="680" 
d="M521 221v354.001c0 27.333 -6 46.666 -18 57.999s-34.333 18.333 -67 21v29h212v-29c-28 -2.66699 -47 -9.5 -57 -20.5s-15 -30.5 -15 -58.5v-354c0 -80 -19.167 -138.667 -57.5 -176s-95.166 -56 -170.499 -56c-160.667 0 -241 75 -241 225v361
c0 29.333 -5 49.5 -15 60.5s-30 17.167 -60 18.5v29h243v-29c-36 -1.33301 -59.167 -7.33301 -69.5 -18s-15.5 -31 -15.5 -61v-339c0 -69.333 12.333 -118.833 37 -148.5s69.667 -44.5 135 -44.5c57.333 0 98.166 13.833 122.499 41.5s36.5 73.167 36.5 136.5zM354 719.001
c-28 0 -51.333 9.5 -70 28.5s-28 42.5 -28 70.5s9.33301 51.5 28 70.5s42 28.5 70 28.5c28.667 0 52.334 -9.5 71.001 -28.5s28 -42.5 28 -70.5s-9.33301 -51.5 -28 -70.5s-42.334 -28.5 -71.001 -28.5zM354 888.001c-19.333 0 -34.833 -6.66699 -46.5 -20
s-17.5 -30.333 -17.5 -51c0 -19.333 5.83301 -35.5 17.5 -48.5s27.167 -19.5 46.5 -19.5s35 6.5 47 19.5s18 29.167 18 48.5c0 20.667 -6 37.667 -18 51s-27.667 20 -47 20z" />
    <glyph glyph-name="uring" unicode="&#x16f;" horiz-adv-x="576" 
d="M473 498l0.00195312 -363.998c0 -35.333 4.83301 -58.5 14.5 -69.5s29.167 -17.167 58.5 -18.5v-25l-113 -34h-12c-10 26.667 -17.333 58 -22 94c-28.667 -30.667 -56 -53.834 -82 -69.501s-56 -23.5 -90 -23.5c-40 0 -72 11 -96 33s-36 54.333 -36 97v229
c0 36 -4.66699 59.333 -14 70s-28 16.667 -56 18v25l131 38h18v-363c0 -30.667 6.66699 -52.334 20 -65.001s33.666 -19 60.999 -19c28.667 0 52.667 5.83301 72 17.5s41.666 30.167 66.999 55.5v223c0 36 -4.66699 59.333 -14 70s-28 16.667 -56 18v25l131 38h18z
M285.002 560.002c-28 0 -51.333 9.5 -70 28.5s-28 42.5 -28 70.5s9.33301 51.5 28 70.5s42 28.5 70 28.5c28.667 0 52.334 -9.5 71.001 -28.5s28 -42.5 28 -70.5s-9.33301 -51.5 -28 -70.5s-42.334 -28.5 -71.001 -28.5zM285.002 729.002
c-19.333 0 -34.833 -6.66699 -46.5 -20s-17.5 -30.333 -17.5 -51c0 -19.333 5.83301 -35.5 17.5 -48.5s27.167 -19.5 46.5 -19.5s35 6.5 47 19.5s18 29.167 18 48.5c0 20.667 -6 37.667 -18 51s-27.667 20 -47 20z" />
    <glyph glyph-name="Uhungarumlaut" unicode="&#x170;" horiz-adv-x="680" 
d="M521 221v354.001c0 27.333 -6 46.666 -18 57.999s-34.333 18.333 -67 21v29h212v-29c-28 -2.66699 -47 -9.5 -57 -20.5s-15 -30.5 -15 -58.5v-354c0 -80 -19.167 -138.667 -57.5 -176s-95.166 -56 -170.499 -56c-160.667 0 -241 75 -241 225v361
c0 29.333 -5 49.5 -15 60.5s-30 17.167 -60 18.5v29h243v-29c-36 -1.33301 -59.167 -7.33301 -69.5 -18s-15.5 -31 -15.5 -61v-339c0 -69.333 12.333 -118.833 37 -148.5s69.667 -44.5 135 -44.5c57.333 0 98.166 13.833 122.499 41.5s36.5 73.167 36.5 136.5zM369 897.001
l-93 -168l-33 14l51 185zM548 870.001l-119 -147l-29 21l80 168z" />
    <glyph glyph-name="uhungarumlaut" unicode="&#x171;" horiz-adv-x="576" 
d="M473 498l0.00195312 -363.998c0 -35.333 4.83301 -58.5 14.5 -69.5s29.167 -17.167 58.5 -18.5v-25l-113 -34h-12c-10 26.667 -17.333 58 -22 94c-28.667 -30.667 -56 -53.834 -82 -69.501s-56 -23.5 -90 -23.5c-40 0 -72 11 -96 33s-36 54.333 -36 97v229
c0 36 -4.66699 59.333 -14 70s-28 16.667 -56 18v25l131 38h18v-363c0 -30.667 6.66699 -52.334 20 -65.001s33.666 -19 60.999 -19c28.667 0 52.667 5.83301 72 17.5s41.666 30.167 66.999 55.5v223c0 36 -4.66699 59.333 -14 70s-28 16.667 -56 18v25l131 38h18z
M321.002 766.002l-110 -201l-32 14l68 218zM504.002 737.002l-141 -178l-28 21l100 201z" />
    <glyph glyph-name="Uogonek" unicode="&#x172;" horiz-adv-x="680" 
d="M475 -153l13 -17.999c-24.667 -22.667 -54.334 -34 -89.001 -34c-28.667 0 -51.167 7.5 -67.5 22.5s-24.5 35.167 -24.5 60.5c0 43.333 23 80.666 69 111.999c-7.33301 -0.666992 -16.666 -1 -27.999 -1c-160.667 0 -241 75 -241 225v361c0 29.333 -5 49.5 -15 60.5
s-30 17.167 -60 18.5v29h243v-29c-36 -1.33301 -59.167 -7.33301 -69.5 -18s-15.5 -31 -15.5 -61v-339c0 -69.333 12.333 -118.833 37 -148.5s69.667 -44.5 135 -44.5c57.333 0 98.166 13.833 122.499 41.5s36.5 73.167 36.5 136.5v354c0 27.333 -6 46.666 -18 57.999
s-34.333 18.333 -67 21v29h212v-29c-28 -2.66699 -47 -9.5 -57 -20.5s-15 -30.5 -15 -58.5v-354c0 -108.667 -37.333 -179 -112 -211c-59.333 -25.333 -89 -64.666 -89 -117.999c0 -16.667 4.5 -30 13.5 -40s21.167 -15 36.5 -15c18.667 0 35.334 3.33301 50.001 10z" />
    </font>
</defs>
</svg>
