<?xml version="1.0" standalone="no"?>
<!DOCTYPE svg PUBLIC "-//W3C//DTD SVG 1.1//EN" "http://www.w3.org/Graphics/SVG/1.1/DTD/svg11.dtd" >
<svg>
<metadata>
Created by FontForge 20090914 at Tue Oct 19 20:41:15 2021
 By www-data
Copyright (c)2014 Commercial Type.
</metadata>
<defs>
<font id="InklingSerifWeb-Regular" horiz-adv-x="460" >
  <font-face 
    font-family="Inkling Serif Web"
    font-weight="400"
    font-stretch="normal"
    units-per-em="1000"
    panose-1="0 0 0 0 0 0 0 0 0 0"
    ascent="784"
    descent="-216"
    x-height="490.999"
    cap-height="663"
    bbox="-178 -254.001 1210 1100"
    underline-thickness="50"
    underline-position="-15"
    unicode-range="U+000D-U+FB04"
  />
<missing-glyph 
 />
    <glyph glyph-name="f_b" unicode="fb" horiz-adv-x="880" 
d="M585 -11c-38 0 -72.1689 3.50293 -102.502 10.5029s-56.166 15.167 -77.499 24.5v641l-21.5 17c-7 5.33301 -14.667 9.83301 -23 13.5s-17.5 6.66699 -27.5 9s-22 3.5 -36 3.5c-33.333 0 -60.166 -9.83301 -80.499 -29.5s-30.5 -52.167 -30.5 -97.5v-90h130v-57h-130
v-386l71 -16v-32h-231v32l72 16v386h-69v39l69 24v89c0 28 5.16699 52.833 15.5 74.5s24.666 39.667 42.999 54s40.166 25.166 65.499 32.499s53 11 83 11c26.667 0 51.834 -2.83301 75.501 -8.5s44.5 -13.834 62.5 -24.501l39 30l11 -5v-299h5
c19.333 13.333 40.666 24.833 63.999 34.5s52 14.5 86 14.5c23.333 0 46.5 -3.33301 69.5 -10s43.5 -18.834 61.5 -36.501s32.667 -41.834 44 -72.501s17 -69.667 17 -117c0 -45.333 -6.16699 -85.166 -18.5 -119.499s-29.666 -63 -51.999 -86s-49.166 -40.333 -80.499 -52
s-66 -17.5 -104 -17.5zM594.998 40.0029c22.667 0 43.3311 3.50195 61.998 10.502s34.667 18.5 48 34.5s23.833 37.167 31.5 63.5s11.5 59.166 11.5 98.499c0 34.667 -3.33301 63.667 -10 87s-16.167 42.333 -28.5 57s-27.5 25.167 -45.5 31.5s-38.333 9.5 -61 9.5
c-23.333 0 -44.666 -2.66699 -63.999 -8s-34.666 -10.666 -45.999 -15.999v-339l16.5 -10.5c5.66699 -3.66699 12.5 -6.83398 20.5 -9.50098s17.167 -4.83398 27.5 -6.50098s22.833 -2.5 37.5 -2.5z" />
    <glyph glyph-name="f_f_b" unicode="ffb" horiz-adv-x="1187" 
d="M334 0l-0.00488281 32.0029l71 16v386h-219v-386l71 -16v-32h-231v32l72 16v386h-69v39l69 24v78c0 28 5.16699 52.833 15.5 74.5s24.666 39.667 42.999 54s40.166 25.166 65.499 32.499s53 11 83 11c28.667 0 54.834 -3.5 78.501 -10.5s46.834 -17.167 69.501 -30.5
c18.667 17.333 41.5 30.333 68.5 39s57.167 13 90.5 13c26.667 0 51.834 -2.83301 75.501 -8.5s44.834 -13.834 63.501 -24.501l38 30l11 -5v-299h5c19.333 13.333 40.666 24.833 63.999 34.5s52 14.5 86 14.5c23.333 0 46.5 -3.33301 69.5 -10s43.5 -18.834 61.5 -36.501
s32.667 -41.834 44 -72.501s17 -69.667 17 -117c0 -45.333 -6.16699 -85.166 -18.5 -119.499s-29.666 -63 -51.999 -86s-49.166 -40.333 -80.499 -52s-66 -17.5 -104 -17.5s-72.167 3.5 -102.5 10.5s-56.166 15.167 -77.499 24.5v641l-21.5 17
c-7 5.33301 -14.5 9.83301 -22.5 13.5s-17.167 6.66699 -27.5 9s-22.5 3.5 -36.5 3.5c-33.333 0 -60.166 -9.83301 -80.499 -29.5s-30.5 -52.167 -30.5 -97.5v-90h131v-57h-131v-386l71 -16v-32h-230zM185.995 491.003h218.999v95c0 23.333 3.33301 44 10 62
c-18 16.667 -35.5 29 -52.5 37s-38.833 12 -65.5 12c-33.333 0 -60.166 -9.83301 -80.499 -29.5s-30.5 -52.167 -30.5 -97.5v-79zM902.994 40.0029c22.667 0 43.332 3.50195 61.999 10.502s34.667 18.5 48 34.5s23.666 37.167 30.999 63.5s11 59.166 11 98.499
c0 34.667 -3.33301 63.667 -10 87s-16.167 42.333 -28.5 57s-27.5 25.167 -45.5 31.5s-38.333 9.5 -61 9.5c-23.333 0 -44.666 -2.66699 -63.999 -8s-34.666 -10.666 -45.999 -15.999v-339l17 -10.5c6 -3.66699 13 -6.83398 21 -9.50098s17.167 -4.83398 27.5 -6.50098
s22.833 -2.5 37.5 -2.5z" />
    <glyph glyph-name="f_f_h" unicode="ffh" horiz-adv-x="1198" 
d="M186 491h218.999v95c0 23.333 3.33301 44 10 62c-18 16.667 -35.5 29 -52.5 37s-38.833 12 -65.5 12c-33.333 0 -60.166 -9.83301 -80.499 -29.5s-30.5 -52.167 -30.5 -97.5v-79zM333.999 0l-0.00195312 32.002l71 16v386h-219v-386l71 -16v-32h-231v32l72 16v386h-69v39
l69 24v78c0 28 5.16699 52.833 15.5 74.5s24.666 39.667 42.999 54s40.166 25.166 65.499 32.499s53 11 83 11c28.667 0 54.834 -3.5 78.501 -10.5s46.834 -17.167 69.501 -30.5c18.667 17.333 41.5 30.333 68.5 39s57.167 13 90.5 13c26.667 0 51.834 -2.83301 75.501 -8.5
s44.834 -13.834 63.501 -24.501l38 30l11 -5v-297h6c24 12.667 49.5 23.667 76.5 33s55.5 14 85.5 14c46 0 80.667 -9.66699 104 -29s35 -53.333 35 -102v-321l72 -16v-32h-231v32l70 16v298c0 34 -8.66699 57 -26 69s-43.333 18 -78 18c-20 0 -39.333 -2.16699 -58 -6.5
s-37.334 -9.83301 -56.001 -16.5v-362l71 -16v-32h-230v32l71 16v617l-21.5 17c-7 5.33301 -14.5 9.83301 -22.5 13.5s-17.167 6.66699 -27.5 9s-22.5 3.5 -36.5 3.5c-33.333 0 -60.166 -9.83301 -80.499 -29.5s-30.5 -52.167 -30.5 -97.5v-90h131v-57h-131v-386l71 -16v-32
h-230z" />
    <glyph glyph-name="f_f_j" unicode="ffj" horiz-adv-x="884" 
d="M186 491h218.999v95c0 22.667 3.33301 43 10 61c-18 16.667 -35.5 29.167 -52.5 37.5s-38.833 12.5 -65.5 12.5c-33.333 0 -60.166 -9.83301 -80.499 -29.5s-30.5 -52.167 -30.5 -97.5v-79zM652.999 -214c-12 0 -24.166 1.33105 -36.499 3.99805
s-24.166 6.33398 -35.499 11.001v39c7.33301 -0.666992 15 -1.16699 23 -1.5s15.333 -0.5 22 -0.5c12 0 23.167 1.33301 33.5 4s19.333 7.33398 27 14.001s13.834 16 18.501 28s7 27.667 7 47v503h-219v-386l85 -16v-32h-245v32l72 16v386h-219v-386l71 -16v-32h-231v32
l72 16v386h-69v39l69 24v78c0 28 5.16699 52.833 15.5 74.5s24.666 39.667 42.999 54s40.166 25.166 65.499 32.499s53 11 83 11c28.667 0 55 -3.5 79 -10.5s47.333 -17.167 70 -30.5c18.667 17.333 41.167 30.333 67.5 39s55.166 13 86.499 13c32 0 59.167 -1.5 81.5 -4.5
s37.833 -6.5 46.5 -10.5v-106h-53l-17 64c-6 2 -12.833 3.66699 -20.5 5s-16.5 2 -26.5 2c-38 0 -68.5 -9.66699 -91.5 -29s-34.5 -52 -34.5 -98v-90h249l48 8l10 -6v-572c0 -43.333 -12.5 -76.666 -37.5 -99.999s-61.5 -35 -109.5 -35z" />
    <glyph glyph-name="f_f_k" unicode="ffk" horiz-adv-x="1148" 
d="M186 491h218.999v95c0 23.333 3.33301 44 10 62c-18 16.667 -35.5 29 -52.5 37s-38.833 12 -65.5 12c-33.333 0 -60.166 -9.83301 -80.499 -29.5s-30.5 -52.167 -30.5 -97.5v-79zM333.999 0l-0.00292969 32.002l71 16v386h-219v-386l71 -16v-32h-231v32l72 16v386h-69v39
l69 24v78c0 28 5.16699 52.833 15.5 74.5s24.666 39.667 42.999 54s40.166 25.166 65.499 32.499s53 11 83 11c28.667 0 54.834 -3.5 78.501 -10.5s46.834 -17.167 69.501 -30.5c18.667 17.333 41.5 30.333 68.5 39s57.167 13 90.5 13c26.667 0 51.834 -2.83301 75.501 -8.5
s44.834 -13.834 63.501 -24.501l38 30l11 -5v-496l50 20l129 168l-58 14v35h195v-35l-71 -14l-138 -168l168 -226l62 -16v-32h-131l-160 220l-46 4v-177l75 -15v-32h-236v32l73 15v618l-21.5 17c-7 5.33301 -14.5 9.83301 -22.5 13.5s-17.167 6.66699 -27.5 9
s-22.5 3.5 -36.5 3.5c-33.333 0 -60.166 -9.83301 -80.499 -29.5s-30.5 -52.167 -30.5 -97.5v-90h131v-57h-131v-386l71 -16v-32h-230z" />
    <glyph glyph-name="f_h" unicode="fh" horiz-adv-x="891" 
d="M26 0l0.00195312 32.002l72 16v386h-69v39l69 24v89c0 28 5.16699 52.833 15.5 74.5s24.666 39.667 42.999 54s40.166 25.166 65.499 32.499s53 11 83 11c26.667 0 51.834 -2.83301 75.501 -8.5s44.5 -13.834 62.5 -24.501l39 30l11 -5v-297h6
c23.333 12.667 48.666 23.667 75.999 33s56 14 86 14c46 0 80.5 -9.66699 103.5 -29s34.5 -53.333 34.5 -102v-321l73 -16v-32h-232v32l71 16v298c0 34 -8.66699 57 -26 69s-43.333 18 -78 18c-20 0 -39.333 -2.16699 -58 -6.5s-37.334 -9.83301 -56.001 -16.5v-362l71 -16
v-32h-230v32l71 16v617l-21.5 17c-7 5.33301 -14.667 9.83301 -23 13.5s-17.5 6.66699 -27.5 9s-22 3.5 -36 3.5c-33.333 0 -60.166 -9.83301 -80.499 -29.5s-30.5 -52.167 -30.5 -97.5v-90h130v-57h-130v-386l71 -16v-32h-231z" />
    <glyph glyph-name="f_j" unicode="fj" horiz-adv-x="577" 
d="M346 -214c-12 0 -24.168 1.33105 -36.501 3.99805s-24.166 6.33398 -35.499 11.001v39c7.33301 -0.666992 14.833 -1.16699 22.5 -1.5s14.834 -0.5 21.501 -0.5c12 0 23.167 1.33301 33.5 4s19.5 7.33398 27.5 14.001s14.333 16 19 28s7 27.667 7 47v503h-219v-386
l84 -16v-32h-244v32l72 16v386h-69v39l69 24v89c0 28 5.33301 52.833 16 74.5s25.334 39.667 44.001 54s40.167 25.166 64.5 32.499s50.5 11 78.5 11c31.333 0 58.166 -1.5 80.499 -4.5s38.166 -6.5 47.499 -10.5v-106h-54l-16 64c-6 2 -12.833 3.66699 -20.5 5
s-16.5 2 -26.5 2c-38 0 -68.5 -9.66699 -91.5 -29s-34.5 -52 -34.5 -98v-90h248l49 8l10 -6v-572c0 -43.333 -12.5 -76.666 -37.5 -99.999s-61.5 -35 -109.5 -35z" />
    <glyph glyph-name="f_k" unicode="fk" horiz-adv-x="841" 
d="M539 220l-46 4.00195v-177l75 -15v-32h-236v32l73 15v618l-21.5 17c-7 5.33301 -14.667 9.83301 -23 13.5s-17.5 6.66699 -27.5 9s-22 3.5 -36 3.5c-33.333 0 -60.166 -9.83301 -80.499 -29.5s-30.5 -52.167 -30.5 -97.5v-90h130v-57h-130v-386l71 -16v-32h-231v32l72 16
v386h-69v39l69 24v89c0 28 5.16699 52.833 15.5 74.5s24.666 39.667 42.999 54s40.166 25.166 65.499 32.499s53 11 83 11c26.667 0 51.834 -2.83301 75.501 -8.5s44.5 -13.834 62.5 -24.501l39 30l11 -5v-496l50 20l129 168l-58 14v35h195v-35l-71 -14l-138 -168l167 -226
l63 -16v-32h-132z" />
    <glyph glyph-name="f_f" unicode="ff" horiz-adv-x="649" 
d="M186 491h219v95c0 22 3 42.667 9 62c-18 16.667 -35.333 29 -52 37s-38.334 12 -65.001 12c-33.333 0 -60.166 -9.83301 -80.499 -29.5s-30.5 -52.167 -30.5 -97.5v-79zM645 702c-6 1.33301 -13.165 2.66797 -21.498 4.00098s-17.166 2 -26.499 2
c-32 0 -57.333 -9.66699 -76 -29s-28 -52 -28 -98v-90h131v-57h-131v-386l85 -16v-32h-245v32l72 16v386h-219v-386l71 -16v-32h-231v32l72 16v386h-69v39l69 24v78c0 28 5.16699 52.833 15.5 74.5s24.666 39.667 42.999 54s40.166 25.166 65.499 32.499s53 11 83 11
c28 0 54 -3.33301 78 -10s47 -16.667 69 -30c17.333 17.333 38.666 30.166 63.999 38.499s53.333 12.5 84 12.5c27.333 0 49.5 -1.66699 66.5 -5s33.167 -6.66602 48.5 -9.99902v-106h-54z" />
    <glyph glyph-name="f_i" unicode="fi" horiz-adv-x="594" 
d="M334 32l71.001 16.001v386h-219v-386l71 -16v-32h-231v32l72 16v386h-69v39l69 24v89c0 28 5.33301 52.833 16 74.5s25.334 39.667 44.001 54s40.167 25.166 64.5 32.499s50.5 11 78.5 11c31.333 0 58.166 -1.5 80.499 -4.5s38.166 -6.5 47.499 -10.5v-106h-54l-16 64
c-6 2 -12.833 3.66699 -20.5 5s-16.5 2 -26.5 2c-38 0 -68.5 -9.66699 -91.5 -29s-34.5 -52 -34.5 -98v-90h248l49 8l10 -6v-445l73 -16v-32h-232v32z" />
    <glyph glyph-name="f_l" unicode="fl" horiz-adv-x="590" 
d="M26 0v32.002l72 16v386h-69v39l69 24v89c0 28 5.16699 52.833 15.5 74.5s24.666 39.667 42.999 54s40.166 25.166 65.499 32.499s53 11 83 11c26.667 0 51.834 -2.83301 75.501 -8.5s44.5 -13.834 62.5 -24.501l39 30l11 -5v-702l73 -16v-32h-232v32l71 16v617l-21.5 17
c-7 5.33301 -14.667 9.83301 -23 13.5s-17.5 6.66699 -27.5 9s-22 3.5 -36 3.5c-33.333 0 -60.166 -9.83301 -80.499 -29.5s-30.5 -52.167 -30.5 -97.5v-90h130v-57h-130v-386l71 -16v-32h-231z" />
    <glyph glyph-name="f_f_i" unicode="ffi" horiz-adv-x="902" 
d="M186 491h218.999v95c0 22.667 3.33301 43 10 61c-18 16.667 -35.5 29.167 -52.5 37.5s-38.833 12.5 -65.5 12.5c-33.333 0 -60.166 -9.83301 -80.499 -29.5s-30.5 -52.167 -30.5 -97.5v-79zM640.999 32l71.0029 16.001v386h-219v-386l71 -16v-32h-230v32l71 16v386h-219
v-386l71 -16v-32h-231v32l72 16v386h-69v39l69 24v78c0 28 5.16699 52.833 15.5 74.5s24.666 39.667 42.999 54s40.166 25.166 65.499 32.499s53 11 83 11c28.667 0 55 -3.5 79 -10.5s47.333 -17.167 70 -30.5c18.667 17.333 41.167 30.333 67.5 39s55.166 13 86.499 13
c32 0 59.167 -1.5 81.5 -4.5s37.833 -6.5 46.5 -10.5v-106h-53l-17 64c-6 2 -12.833 3.66699 -20.5 5s-16.5 2 -26.5 2c-38 0 -68.5 -9.66699 -91.5 -29s-34.5 -52 -34.5 -98v-90h249l48 8l10 -6v-445l73 -16v-32h-232v32z" />
    <glyph glyph-name="f_f_l" unicode="ffl" horiz-adv-x="897" 
d="M405 586c0 23.333 3.33203 44 9.99902 62c-18 16.667 -35.5 29 -52.5 37s-38.833 12 -65.5 12c-33.333 0 -60.166 -9.83301 -80.499 -29.5s-30.5 -52.167 -30.5 -97.5v-79h219v95zM25.999 0l-0.00292969 32.002l72 16v386h-69v39l69 24v78c0 28 5.16699 52.833 15.5 74.5
s24.666 39.667 42.999 54s40.166 25.166 65.499 32.499s53 11 83 11c28.667 0 54.834 -3.5 78.501 -10.5s46.834 -17.167 69.501 -30.5c18.667 17.333 41.5 30.333 68.5 39s57.167 13 90.5 13c26.667 0 51.834 -2.83301 75.501 -8.5s44.834 -13.834 63.501 -24.501l38 30
l11 -5v-702l73 -16v-32h-232v32l71 16v617l-21.5 17c-7 5.33301 -14.5 9.83301 -22.5 13.5s-17.167 6.66699 -27.5 9s-22.5 3.5 -36.5 3.5c-33.333 0 -60.166 -9.83301 -80.499 -29.5s-30.5 -52.167 -30.5 -97.5v-90h131v-57h-131v-386l71 -16v-32h-230v32l71 16v386h-219
v-386l71 -16v-32h-231z" />
    <glyph glyph-name=".notdef" 
 />
    <glyph glyph-name="NULL" horiz-adv-x="0" 
 />
    <glyph glyph-name="NULL" horiz-adv-x="0" 
 />
    <glyph glyph-name="nonmarkingreturn" unicode="&#xd;" horiz-adv-x="213" 
 />
    <glyph glyph-name="space" unicode=" " horiz-adv-x="213" 
 />
    <glyph glyph-name="exclam" unicode="!" horiz-adv-x="239" 
d="M67 663h101l-24 -479h-53zM120 -11c-16.667 0 -30.5 5.83301 -41.5 17.5s-16.5 25.167 -16.5 40.5s5.5 28.666 16.5 39.999s24.833 17 41.5 17c16 0 29.667 -5.66699 41 -17s17 -24.666 17 -39.999s-5.66699 -28.833 -17 -40.5s-25 -17.5 -41 -17.5z" />
    <glyph glyph-name="quotedbl" unicode="&#x22;" horiz-adv-x="397" 
d="M65 663h99l-21 -223h-58zM234 663h98l-21 -223h-58z" />
    <glyph glyph-name="numbersign" unicode="#" horiz-adv-x="546" 
d="M199 269h125l21 136h-125zM79 480h96l28 183h58l-28 -183h125l28 183h58l-28 -183h82v-75h-95l-21 -136h84v-76h-97l-30 -193h-58l30 193h-124l-32 -193h-57l31 193h-81v76h93l21 136h-83v75z" />
    <glyph glyph-name="dollar" unicode="$" horiz-adv-x="508" 
d="M131 522c0 -30 8.66797 -53.833 26.001 -71.5s42.666 -33.167 75.999 -46.5l23 216c-36 0 -65.833 -8.16699 -89.5 -24.5s-35.5 -40.833 -35.5 -73.5zM384.001 161c0 32 -8.83301 56.999 -26.5 74.999s-44.167 34.667 -79.5 50l-25 -242
c22 0.666992 41.167 4.33398 57.5 11.001s30 15.167 41 25.5s19.167 22.5 24.5 36.5s8 28.667 8 44zM179.001 -112.001l11.0039 102.998c-28 1.33301 -53.333 4.83301 -76 10.5s-43.334 12.167 -62.001 19.5l-6 148h46l31 -98c11.333 -6 22.833 -10.833 34.5 -14.5
s24.5 -6.83398 38.5 -9.50098l28 263l-43 18c-18 8 -34.833 17 -50.5 27s-29.334 21.667 -41.001 35s-20.834 29 -27.501 47s-10 39 -10 63s4.33301 46.5 13 67.5s21.667 39.5 39 55.5s39 28.667 65 38s56.667 14 92 14l7 57h57l-7 -60
c25.333 -3.33301 46.666 -7.66602 63.999 -12.999l44 -14l7 -129h-46l-25 85c-5.33301 2.66699 -12.166 5.16699 -20.499 7.5s-18.166 4.5 -29.499 6.5l-24 -235l25 -10c20 -8 39.167 -17 57.5 -27s34.666 -21.833 48.999 -35.5s25.833 -30.167 34.5 -49.5
s13 -42.333 13 -69c0 -25.333 -4.16699 -49.833 -12.5 -73.5s-21.333 -44.667 -39 -63s-40.334 -33.166 -68.001 -44.499s-61.167 -17.666 -100.5 -18.999l-11 -101h-57z" />
    <glyph glyph-name="percent" unicode="%" horiz-adv-x="864" 
d="M627 683h66l-464 -722h-66zM201 309c-22 0 -42.8311 4.00098 -62.498 12.001s-36.834 19.5 -51.501 34.5s-26.167 33.667 -34.5 56s-12.5 48.166 -12.5 77.499c0 30 4.33301 56.5 13 79.5s20.5 42.333 35.5 58s32.333 27.5 52 35.5s40.167 12 61.5 12
c20.667 0 40.667 -3.83301 60 -11.5s36.5 -19.167 51.5 -34.5s26.833 -34.166 35.5 -56.499s13 -48.5 13 -78.5s-4.16699 -56.333 -12.5 -79s-19.833 -41.834 -34.5 -57.501s-31.834 -27.5 -51.501 -35.5s-40.5 -12 -62.5 -12zM201.002 354.001
c28.667 0 49.001 11.168 61.001 33.501s18 56.166 18 101.499c0 44.667 -5.83301 79.167 -17.5 103.5s-31.834 36.5 -60.501 36.5s-49 -11.667 -61 -35s-18 -57 -18 -101s6 -78.167 18 -102.5s32 -36.5 60 -36.5zM662.003 -10.998c-22 0 -42.8311 3.83301 -62.498 11.5
s-36.834 19.167 -51.501 34.5s-26.167 34 -34.5 56s-12.5 47.667 -12.5 77c0 30 4.33301 56.667 13 80s20.5 42.833 35.5 58.5s32.333 27.5 52 35.5s40.167 12 61.5 12c20.667 0 40.667 -3.83301 60 -11.5s36.5 -19.167 51.5 -34.5s26.833 -34.333 35.5 -57s13 -49 13 -79
s-4.16699 -56.333 -12.5 -79s-19.833 -41.667 -34.5 -57s-31.834 -27 -51.501 -35s-40.5 -12 -62.5 -12zM662.005 33.002c28 0 48.167 11.1689 60.5 33.502s18.5 56.166 18.5 101.499s-6 80.166 -18 104.499s-32 36.5 -60 36.5c-28.667 0 -49 -11.833 -61 -35.5
s-18 -57.5 -18 -101.5s6 -78.167 18 -102.5s32 -36.5 60 -36.5z" />
    <glyph glyph-name="ampersand" unicode="&#x26;" horiz-adv-x="664" 
d="M370 540c0 26 -6.66797 46.002 -20.001 60.002s-30.666 21 -51.999 21c-25.333 0 -45.5 -9.16699 -60.5 -27.5s-22.5 -42.5 -22.5 -72.5c0 -25.333 5.33301 -47.333 16 -66s24.667 -38.334 42 -59.001c33.333 19.333 57.833 40.166 73.5 62.499s23.5 49.5 23.5 81.5z
M127.999 178.002c0 -18.667 3.16699 -36.001 9.5 -52.001s15.5 -30 27.5 -42s26.833 -21.333 44.5 -28s37.5 -10 59.5 -10c27.333 0 52.833 4.83301 76.5 14.5s45.167 22.834 64.5 39.501l-193 227c-30 -20 -52.333 -41.5 -67 -64.5s-22 -51.167 -22 -84.5zM247.999 -10.999
c-32 0 -61.499 4.33105 -88.499 12.998s-50.167 20.834 -69.5 36.501s-34.333 34.334 -45 56.001s-16 45.834 -16 72.501c0 22.667 3.83301 43.167 11.5 61.5s18.334 35.333 32.001 51s30.167 30.167 49.5 43.5s41 26.666 65 39.999c-18 23.333 -32.5 46.5 -43.5 69.5
s-16.5 48.5 -16.5 76.5c0 26 4.66699 49.167 14 69.5s22 37.5 38 51.5s34.667 24.833 56 32.5s44 11.5 68 11.5c20.667 0 40.167 -2.83301 58.5 -8.5s34.5 -14 48.5 -25s25.167 -24.667 33.5 -41s12.5 -34.833 12.5 -55.5c0 -21.333 -4 -40.666 -12 -57.999
s-19 -33.333 -33 -48s-30.333 -28.167 -49 -40.5s-38.334 -24.5 -59.001 -36.5l166 -194c13.333 21.333 24.5 43.166 33.5 65.499s15.833 44.833 20.5 67.5l-70 19v40h200v-39l-66 -19c-7.33301 -29.333 -17.833 -58.833 -31.5 -88.5s-30.834 -58.167 -51.501 -85.5l60 -70
l81 -17v-40h-149l-53 62c-26.667 -22 -56.167 -39.667 -88.5 -53s-67.833 -20 -106.5 -20z" />
    <glyph glyph-name="quotesingle" unicode="'" horiz-adv-x="229" 
d="M65 663h99l-21 -223h-58z" />
    <glyph glyph-name="parenleft" unicode="(" horiz-adv-x="323" 
d="M269 -136c-24.667 20.667 -50 44.168 -76 70.501s-49.833 56.666 -71.5 90.999s-39.334 73.166 -53.001 116.499s-20.5 92.333 -20.5 147c0 50 6.83301 96.333 20.5 139s31.334 81.834 53.001 117.501s45.5 67.5 71.5 95.5s51.333 52.333 76 73l30 -29
c-20.667 -22.667 -40.334 -48 -59.001 -76s-35.167 -58 -49.5 -90s-25.666 -65.667 -33.999 -101s-12.5 -72 -12.5 -110c0 -50 4.16699 -95.5 12.5 -136.5s19.666 -78.333 33.999 -112s30.833 -64.167 49.5 -91.5s38.334 -52.333 59.001 -75l-30 -29v0z" />
    <glyph glyph-name="parenright" unicode=")" horiz-adv-x="323" 
d="M24 -107c20.667 22.667 40.334 47.998 59.001 75.998s35 58 49 90s25.167 65.667 33.5 101s12.5 72 12.5 110c0 50 -4.16699 95.5 -12.5 136.5s-19.5 78.333 -33.5 112s-30.333 64.167 -49 91.5s-38.334 52.333 -59.001 75l31 29c24.667 -20.667 50 -44.167 76 -70.5
s49.667 -56.666 71 -90.999s38.833 -73.166 52.5 -116.499s20.5 -92.333 20.5 -147c0 -50 -6.83301 -96.5 -20.5 -139.5s-31.167 -82.167 -52.5 -117.5s-45 -67 -71 -95s-51.333 -52.333 -76 -73z" />
    <glyph glyph-name="asterisk" unicode="*" horiz-adv-x="430" 
d="M203 478l-114 -97l-37 63l141 53l-141 52l37 64l114 -97l-27 147h78l-28 -146l114 96l38 -64l-142 -52l142 -53l-38 -63l-114 97l28 -147h-78z" />
    <glyph glyph-name="plus" unicode="+" horiz-adv-x="568" 
d="M67 347h185v189h64v-189h184v-60h-184v-189h-64v189h-185v60z" />
    <glyph glyph-name="comma" unicode="," horiz-adv-x="287" 
d="M38 -123c45.333 22 77.166 44.166 95.499 66.499s28.5 47.5 30.5 75.5c-4.66699 -5.33301 -10.167 -9.16602 -16.5 -11.499s-14.5 -3.5 -24.5 -3.5c-13.333 0 -25.666 5.16699 -36.999 15.5s-17 24.5 -17 42.5s6.66699 32.333 20 43s30 16 50 16
c23.333 0 43.333 -8.16699 60 -24.5s25 -41.5 25 -75.5c0 -15.333 -2.5 -31 -7.5 -47s-14 -31.833 -27 -47.5s-30.5 -30.667 -52.5 -45s-50.333 -26.833 -85 -37.5l-14 33v0z" />
    <glyph glyph-name="hyphen" unicode="-" horiz-adv-x="351" 
d="M60 312h231v-75h-231v75z" />
    <glyph glyph-name="period" unicode="." horiz-adv-x="287" 
d="M144 -17c-20 0 -36.833 6.66699 -50.5 20s-20.5 29.666 -20.5 48.999c0 20 6.83301 36.5 20.5 49.5s30.5 19.5 50.5 19.5c19.333 0 35.833 -6.5 49.5 -19.5s20.5 -29.5 20.5 -49.5c0 -19.333 -6.83301 -35.666 -20.5 -48.999s-30.167 -20 -49.5 -20z" />
    <glyph glyph-name="slash" unicode="/" horiz-adv-x="345" 
d="M247 701h63l-232 -816h-62z" />
    <glyph glyph-name="zero" unicode="0" horiz-adv-x="626" 
d="M314 -11c-38 0 -73.333 6.66699 -106 20s-61 33.666 -85 60.999s-42.833 62.333 -56.5 105s-20.5 93.334 -20.5 152.001c0 60 7 111.833 21 155.5s33.333 79.667 58 108s53.167 49.333 85.5 63s67.166 20.5 104.499 20.5c36 0 70 -6.5 102 -19.5s60.167 -33.333 84.5 -61
s43.5 -63 57.5 -106s21 -94.5 21 -154.5c0 -59.333 -6.83301 -110.5 -20.5 -153.5s-32.5 -78.667 -56.5 -107s-52.167 -49.333 -84.5 -63s-67.166 -20.5 -104.499 -20.5zM314 43c58.667 0 101.334 22.667 128.001 68s40 117.333 40 216
c0 95.333 -13.167 168.166 -39.5 218.499s-68.833 75.5 -127.5 75.5s-101.834 -24.167 -129.501 -72.5s-41.5 -120.166 -41.5 -215.499s13.667 -167.5 41 -216.5s70.333 -73.5 129 -73.5z" />
    <glyph glyph-name="one" unicode="1" horiz-adv-x="387" 
d="M52 40l100 16v518l-109 -10v40l181 68h24v-616l100 -16v-40h-296v40z" />
    <glyph glyph-name="two" unicode="2" horiz-adv-x="527" 
d="M30 47l169 165.998c26 26 48.833 49.833 68.5 71.5s36.334 43 50.001 64s24 41.833 31 62.5s10.5 43 10.5 67c0 48 -11.833 83.333 -35.5 106s-57.5 34 -101.5 34c-18 0 -33 -1 -45 -3s-22.333 -4.33301 -31 -7l-25 -100h-54v132c23.333 9.33301 49.666 17.333 78.999 24
s60 10 92 10s61.333 -3.66699 88 -11s49.667 -18.666 69 -33.999s34.333 -34.666 45 -57.999s16 -51 16 -83c0 -50.667 -18 -100.667 -54 -150s-90 -104 -162 -164l-114 -96v-3h261l39 93h47l-11 -168h-432v47z" />
    <glyph glyph-name="three" unicode="3" horiz-adv-x="499" 
d="M58 646c21.333 7.33301 46.999 13.834 76.999 19.501s60.333 8.5 91 8.5c62 0 110.333 -14 145 -42s52 -68.333 52 -121c0 -40 -11.5 -73.5 -34.5 -100.5s-53.5 -46.167 -91.5 -57.5v-3c20.667 -4 40.334 -10 59.001 -18s35 -18.833 49 -32.5s25.167 -30.5 33.5 -50.5
s12.5 -43.667 12.5 -71c0 -58.667 -20.667 -104.667 -62 -138s-98.333 -50 -171 -50c-38.667 0 -73.834 4.16699 -105.501 12.5s-58.167 18.5 -79.5 30.5v46c24 -8 48.833 -14.5 74.5 -19.5s53.167 -7.5 82.5 -7.5c48.667 0 88 11.167 118 33.5s45 55.166 45 98.499
c0 49.333 -13.167 83.833 -39.5 103.5s-67.166 29.5 -122.499 29.5h-42v58h35c48 0 84.5 10.167 109.5 30.5s37.5 51.833 37.5 94.5c0 44 -10.167 75 -30.5 93s-49.5 27 -87.5 27c-17.333 0 -32.333 -0.666992 -45 -2s-23.667 -3 -33 -5l-24 -97h-53v130v0z" />
    <glyph glyph-name="four" unicode="4" horiz-adv-x="572" 
d="M241 40l91 15v135h-303v56l317 417h78v-412h109v-61h-109v-135l91 -15v-40h-274v40zM332 251v298h-4l-222 -295v-3h226z" />
    <glyph glyph-name="five" unicode="5" horiz-adv-x="509" 
d="M213 -10c-42.667 0 -78.001 4.66504 -106.001 13.998s-52.667 20.333 -74 33v44c25.333 -8.66699 49.5 -15.667 72.5 -21s48.5 -8 76.5 -8c51.333 0 93 12.167 125 36.5s48 60.833 48 109.5c0 50 -13.833 87.667 -41.5 113s-71.5 38 -131.5 38
c-19.333 0 -38.5 -1.33301 -57.5 -4s-35.833 -5.66699 -50.5 -9l25 327h339l-8 -78h-277l-15 -183c10.667 2.66699 23.167 4.83398 37.5 6.50098s30.5 2.5 48.5 2.5c36.667 0 69.334 -4.83301 98.001 -14.5s52.834 -23.5 72.501 -41.5s34.5 -39.667 44.5 -65
s15 -53.333 15 -84c0 -33.333 -5.66699 -63.166 -17 -89.499s-27.5 -49 -48.5 -68s-46.333 -33.5 -76 -43.5s-62.834 -15 -99.501 -15z" />
    <glyph glyph-name="six" unicode="6" horiz-adv-x="567" 
d="M293 -11c-37.333 0 -71.167 7.00293 -101.5 21.0029s-56.166 34.167 -77.499 60.5s-37.833 58.666 -49.5 96.999s-17.5 81.833 -17.5 130.5c0 68.667 8.66699 126.834 26 174.501s40.333 86.5 69 116.5s61.334 51.667 98.001 65s74.667 20 114 20c30 0 56.167 -3 78.5 -9
s41.166 -13.667 56.499 -23v-47c-14.667 5.33301 -32.667 10 -54 14s-44 6 -68 6c-27.333 0 -53.5 -4 -78.5 -12s-47.5 -21.833 -67.5 -41.5s-36.833 -46.334 -50.5 -80.001s-22.5 -76.167 -26.5 -127.5c21.333 13.333 47 25.5 77 36.5s64 16.5 102 16.5
c28 0 54.167 -4.5 78.5 -13.5s45.5 -22 63.5 -39s32.167 -37.833 42.5 -62.5s15.5 -52.667 15.5 -84c0 -30.667 -5.16699 -59.334 -15.5 -86.001s-25.333 -49.834 -45 -69.501s-43.834 -35.167 -72.501 -46.5s-61 -17 -97 -17zM291.999 43.0029
c46 0 79.833 14.001 101.5 42.001s32.5 66 32.5 114c0 26.667 -3.5 49.167 -10.5 67.5s-16.5 33.166 -28.5 44.499s-26.333 19.666 -43 24.999s-34.667 8 -54 8c-32 0 -59.667 -3.5 -83 -10.5s-44.333 -16.5 -63 -28.5v-14c0 -34 2.33301 -66 7 -96s12.667 -56.167 24 -78.5
s26.5 -40.166 45.5 -53.499s42.833 -20 71.5 -20z" />
    <glyph glyph-name="seven" unicode="7" horiz-adv-x="493" 
d="M408 581v3h-306l-28 -72h-45l9 151h431v-68l-263 -595h-106z" />
    <glyph glyph-name="eight" unicode="8" horiz-adv-x="567" 
d="M284 -11c-76.667 0 -136 15.0039 -178 45.0039s-63 73 -63 129c0 22 4.33301 42.167 13 60.5s20 34.5 34 48.5s29.833 26.333 47.5 37s35.5 19.667 53.5 27c-41.333 19.333 -71.666 42.833 -90.999 70.5s-29 60.5 -29 98.5c0 23.333 4.83301 45.166 14.5 65.499
s23.5 38.166 41.5 53.499s39.833 27.5 65.5 36.5s54.5 13.5 86.5 13.5c31.333 0 60.166 -3.5 86.499 -10.5s48.833 -17.333 67.5 -31s33.167 -30.334 43.5 -50.001s15.5 -42.167 15.5 -67.5c0 -21.333 -3.5 -40.166 -10.5 -56.499s-16.333 -30.833 -28 -43.5
s-25 -23.834 -40 -33.501s-30.5 -17.834 -46.5 -24.501c50 -20 88.5 -44.167 115.5 -72.5s40.5 -64.5 40.5 -108.5c0 -26.667 -5 -51.5 -15 -74.5s-25 -42.833 -45 -59.5s-45 -29.667 -75 -39s-64.667 -14 -104 -14zM315 376.004c12 6 23.332 13.167 33.999 21.5
s20.167 18 28.5 29s15 23.333 20 37s7.5 29.167 7.5 46.5c0 20.667 -3.16699 38 -9.5 52s-15 25.5 -26 34.5s-24.167 15.5 -39.5 19.5s-31.666 6 -48.999 6c-38 0 -68.167 -9.5 -90.5 -28.5s-33.5 -43.833 -33.5 -74.5c0 -19.333 3.16699 -35.833 9.5 -49.5s16 -26 29 -37
s29.333 -21 49 -30s43.167 -17.833 70.5 -26.5zM281.999 42.0039c52 0 90.001 10.502 114.001 31.502s36 49.833 36 86.5c0 20 -4 37.333 -12 52s-19.833 27.667 -35.5 39s-35.334 22.166 -59.001 32.499s-51.5 21.166 -83.5 32.499c-30 -15.333 -55.833 -35 -77.5 -59
s-32.5 -54 -32.5 -90c0 -40.667 12 -71.667 36 -93s62 -32 114 -32z" />
    <glyph glyph-name="nine" unicode="9" horiz-adv-x="565" 
d="M276 317c32 0 59.5 3.50098 82.5 10.501s44.167 16.5 63.5 28.5v16c0 34 -2.33301 66 -7 96s-12.5 56.333 -23.5 79s-26 40.667 -45 54s-42.833 20 -71.5 20c-46 0 -80 -14.333 -102 -43s-33 -67 -33 -115c0 -26 3.5 -48.333 10.5 -67s16.5 -33.834 28.5 -45.501
s26.333 -20.167 43 -25.5s34.667 -8 54 -8zM205 -10.999c-32 0 -58.832 2.99902 -80.499 8.99902s-40.167 13.667 -55.5 23v47c14.667 -5.33301 32.334 -9.66602 53.001 -12.999s42 -5 64 -5c32.667 0 62.667 3.83301 90 11.5s51.166 21.167 71.499 40.5
s36.666 45.666 48.999 78.999s20.166 75.666 23.499 126.999c-20.667 -13.333 -46 -25.333 -76 -36s-64 -16 -102 -16c-28 0 -54 4.33301 -78 13s-45 21.5 -63 38.5s-32.167 37.833 -42.5 62.5s-15.5 52.667 -15.5 84s5.16699 60.333 15.5 87s25.333 49.834 45 69.501
s43.834 35.167 72.501 46.5s61.334 17 98.001 17c38.667 0 73.167 -7.33301 103.5 -22s56 -35.5 77 -62.5s37 -59.667 48 -98s16.5 -81.166 16.5 -128.499c0 -66.667 -7.83301 -123.667 -23.5 -171s-37.334 -86 -65.001 -116s-60.667 -52 -99 -66s-80.5 -21 -126.5 -21z" />
    <glyph glyph-name="colon" unicode=":" horiz-adv-x="296" 
d="M149 -17c-20 0 -36.833 6.66699 -50.5 20s-20.5 29.666 -20.5 48.999c0 20 6.83301 36.5 20.5 49.5s30.5 19.5 50.5 19.5c19.333 0 35.833 -6.5 49.5 -19.5s20.5 -29.5 20.5 -49.5c0 -19.333 -6.83301 -35.666 -20.5 -48.999s-30.167 -20 -49.5 -20zM149 280
c-20 0 -36.833 6.66699 -50.5 20s-20.5 29.666 -20.5 48.999c0 20 6.83301 36.5 20.5 49.5s30.5 19.5 50.5 19.5c19.333 0 35.833 -6.5 49.5 -19.5s20.5 -29.5 20.5 -49.5c0 -19.333 -6.83301 -35.666 -20.5 -48.999s-30.167 -20 -49.5 -20z" />
    <glyph glyph-name="semicolon" unicode=";" horiz-adv-x="296" 
d="M149 280c-20 0 -36.833 6.66699 -50.5 20s-20.5 29.666 -20.5 48.999c0 20 6.83301 36.5 20.5 49.5s30.5 19.5 50.5 19.5c19.333 0 35.833 -6.5 49.5 -19.5s20.5 -29.5 20.5 -49.5c0 -19.333 -6.83301 -35.666 -20.5 -48.999s-30.167 -20 -49.5 -20zM43 -123
c45.333 22 77.166 44.166 95.499 66.499s28.5 47.5 30.5 75.5c-4.66699 -5.33301 -10.167 -9.16602 -16.5 -11.499s-14.5 -3.5 -24.5 -3.5c-13.333 0 -25.666 5.16699 -36.999 15.5s-17 24.5 -17 42.5s6.66699 32.333 20 43s30 16 50 16c23.333 0 43.333 -8.16699 60 -24.5
s25 -41.5 25 -75.5c0 -15.333 -2.5 -31 -7.5 -47s-14 -31.833 -27 -47.5s-30.5 -30.667 -52.5 -45s-50.333 -26.833 -85 -37.5l-14 33v0z" />
    <glyph glyph-name="less" unicode="&#x3c;" horiz-adv-x="539" 
d="M70 292v48l389 186v-67l-312 -143l312 -143v-68z" />
    <glyph glyph-name="equal" unicode="=" horiz-adv-x="548" 
d="M70 404h408v-60h-408v60zM70 232h408v-59h-408v59z" />
    <glyph glyph-name="greater" unicode="&#x3e;" horiz-adv-x="539" 
d="M80 172l312 143l-312 143v68l389 -187v-48l-389 -186v67z" />
    <glyph glyph-name="question" unicode="?" horiz-adv-x="417" 
d="M155 622c-9.33301 0 -17.8301 -0.333984 -25.4971 -1.00098s-14.834 -1.66699 -21.501 -3l-21 -73h-53v103c22 8 45.333 14.333 70 19s52.667 7 84 7c25.333 0 49.166 -3 71.499 -9s42 -15.5 59 -28.5s30.5 -29.833 40.5 -50.5s15 -45.334 15 -74.001
c0 -21.333 -2.5 -40 -7.5 -56s-12.333 -30.667 -22 -44s-22 -26 -37 -38s-32.5 -24.333 -52.5 -37c-10 -6.66699 -19.5 -12.667 -28.5 -18s-16.833 -11 -23.5 -17s-12.167 -13 -16.5 -21s-6.5 -17.667 -6.5 -29c0 -16.667 3.33301 -39.334 10 -68.001h-47
c-4 8.66699 -8.16699 19.834 -12.5 33.501s-6.5 29.167 -6.5 46.5c0 14 2 26.333 6 37s10 20.834 18 30.501s17.833 19.167 29.5 28.5l40.5 32c11.333 8.66699 21 16.834 29 24.501s14.667 16 20 25s9.16602 19 11.499 30s3.5 24.167 3.5 39.5c0 74 -42.333 111 -127 111z
M167.003 -11.001c-16.667 0 -30.5 5.83301 -41.5 17.5s-16.5 25.167 -16.5 40.5s5.5 28.666 16.5 39.999s24.833 17 41.5 17c16 0 29.667 -5.66699 41 -17s17 -24.666 17 -39.999s-5.66699 -28.833 -17 -40.5s-25 -17.5 -41 -17.5z" />
    <glyph glyph-name="at" unicode="@" horiz-adv-x="883" 
d="M442 -148c-63.333 0 -119.166 7.83398 -167.499 23.501s-89 38.5 -122 68.5s-58 66.667 -75 110s-25.5 92.333 -25.5 147c0 60 10.333 117.167 31 171.5s49.667 102 87 143s82.5 73.667 135.5 98s112.167 36.5 177.5 36.5c52.667 0 100.5 -7.66699 143.5 -23
s79.667 -37.333 110 -66s53.833 -63.667 70.5 -105s25 -88.333 25 -141c0 -41.333 -6.33301 -78.666 -19 -111.999s-30 -61.666 -52 -84.999s-47.667 -41.333 -77 -54s-60.333 -19 -93 -19s-56.334 5.5 -71.001 16.5s-24.334 24.5 -29.001 40.5h-2
c-16 -15.333 -33.167 -27.5 -51.5 -36.5s-38.166 -13.5 -59.499 -13.5c-32 0 -58.833 11 -80.5 33s-32.5 55 -32.5 99c0 33.333 4.66699 65.5 14 96.5s22.833 58.5 40.5 82.5s38.834 43.167 63.501 57.5s52.667 21.5 84 21.5c25.333 0 44.666 -3.16699 57.999 -9.5
s26.333 -13.833 39 -22.5l20 23h43l-58 -292c-3.33301 -16.667 -1.83301 -28.667 4.5 -36s16.5 -11 30.5 -11c22.667 0 44.167 4.66699 64.5 14s38 23.166 53 41.499s26.833 41.166 35.5 68.499s13 58.666 13 93.999c0 91.333 -24.333 162.666 -73 213.999
s-120.667 77 -216 77c-58.667 0 -110.667 -10.667 -156 -32s-83.5 -50.333 -114.5 -87s-54.5 -79.167 -70.5 -127.5s-24 -99.833 -24 -154.5c0 -200 108.667 -300 326 -300c41.333 0 81.166 3 119.499 9s72.5 14.667 102.5 26v-43
c-29.333 -13.333 -62.666 -23.666 -99.999 -30.999s-78 -11 -122 -11zM408 102.001c16.667 0 31.501 3.83301 44.501 11.5s25.167 16.167 36.5 25.5l43 222c-5.33301 9.33301 -13.166 17.333 -23.499 24s-24.5 10 -42.5 10c-20.667 0 -38.334 -6.16699 -53.001 -18.5
s-26.834 -28.5 -36.501 -48.5s-16.667 -42.667 -21 -68s-6.5 -51.333 -6.5 -78c0 -53.333 19.667 -80 59 -80z" />
    <glyph glyph-name="A" unicode="A" horiz-adv-x="651" 
d="M212 259h194.999l-54 165c-4.66699 14.667 -9.16699 30.5 -13.5 47.5s-8.16602 32.833 -11.499 47.5l-12 51h-5l-14 -52l-13.5 -47.5c-5 -17 -9.83301 -32.5 -14.5 -46.5zM7.99902 40l67 17l215 606h79l208 -606l66 -17v-40h-247v40l76 17l-50 153h-227l-52 -153l77 -17
v-40h-212v40z" />
    <glyph glyph-name="B" unicode="B" horiz-adv-x="607" 
d="M30 40l87.001 16.999v549l-86 18v39h274c78.667 0 137 -13 175 -39s57 -67.333 57 -124c0 -16 -2.5 -32 -7.5 -48s-13.167 -30.833 -24.5 -44.5s-26.333 -25.5 -45 -35.5s-41.334 -17 -68.001 -21v-5c33.333 -4 61.5 -10.667 84.5 -20s41.5 -21 55.5 -35
s24 -30.5 30 -49.5s9 -40.5 9 -64.5c0 -25.333 -5 -48.666 -15 -69.999s-25 -40 -45 -56s-45.167 -28.5 -75.5 -37.5s-65.5 -13.5 -105.5 -13.5h-300v40zM299.001 366.999c19.333 0 37.167 1.83105 53.5 5.49805s30.5 9.83398 42.5 18.501s21.333 20.5 28 35.5
s10 33.5 10 55.5c0 26.667 -3 48.334 -9 65.001s-14.667 29.5 -26 38.5s-25.5 15.167 -42.5 18.5s-36.5 5 -58.5 5h-84v-242h86zM316.002 52.9971c50 0 87.833 9.83301 113.5 29.5s38.5 53.5 38.5 101.5c0 49.333 -12.5 84 -37.5 104s-62.167 30 -111.5 30h-106v-265h103z
" />
    <glyph glyph-name="C" unicode="C" horiz-adv-x="605" 
d="M351 -11c-46.667 0 -89.1709 6.16895 -127.504 18.502s-71.166 31.833 -98.499 58.5s-48.5 61.334 -63.5 104.001s-22.5 94 -22.5 154c0 66 9.16699 121.333 27.5 166s42.833 80.667 73.5 108s65.5 46.833 104.5 58.5s79.5 17.5 121.5 17.5
c40.667 0 76.334 -2.33301 107.001 -7s56.334 -10.334 77.001 -17.001l5 -162h-44l-40 109c-12 5.33301 -28.667 10.666 -50 15.999s-43.666 8 -66.999 8c-72 0 -125.5 -24.333 -160.5 -73s-52.5 -117.334 -52.5 -206.001c0 -97.333 17.333 -171.5 52 -222.5
s91.667 -76.5 171 -76.5c23.333 0 44.166 2.5 62.499 7.5s34.5 11.5 48.5 19.5l39 119h47l-6 -167c-24 -10 -52.167 -18 -84.5 -24s-72.166 -9 -119.499 -9z" />
    <glyph glyph-name="D" unicode="D" horiz-adv-x="671" 
d="M30 40l87 17v548l-86 19v39h267c60.667 0 112.167 -7 154.5 -21s77 -34.333 104 -61s46.667 -59.5 59 -98.5s18.5 -83.5 18.5 -133.5c0 -112.667 -26 -199 -78 -259s-134.333 -90 -247 -90h-279v40zM311 52c36 0 67.668 4.66895 95.001 14.002s50.166 25 68.499 47
s32.166 51 41.499 87s14 80.667 14 134c0 61.333 -5.5 110.166 -16.5 146.499s-27 64.166 -48 83.499s-46.667 32 -77 38s-65.166 9 -104.499 9h-71v-559h98z" />
    <glyph glyph-name="E" unicode="E" horiz-adv-x="588" 
d="M30 40l87 17v548l-86 19v39h497l11 -164h-47l-41 112h-238v-245h127l27 91h41v-232h-41l-27 92h-127v-265h248l51 139h47l-13 -191h-516v40z" />
    <glyph glyph-name="F" unicode="F" horiz-adv-x="583" 
d="M30 40l87 16v549l-86 19v39h498l11 -170h-47l-41 118h-239v-257h129l26 90h41v-232h-42l-25 93h-129v-248l93 -17v-40h-276v40z" />
    <glyph glyph-name="G" unicode="G" horiz-adv-x="660" 
d="M372 -13c-52 0 -98.6699 6.33301 -140.003 19s-76.166 32.5 -104.499 59.5s-50.166 61.833 -65.499 104.5s-23 94 -23 154c0 66 9.5 121.333 28.5 166s44 80.667 75 108s66.5 46.833 106.5 58.5s81 17.5 123 17.5c43.333 0 80.833 -2.33301 112.5 -7
s57.834 -10.334 78.501 -17.001l7 -163h-44l-40 108c-15.333 8 -33 14.333 -53 19s-43.667 7 -71 7c-74 0 -129.333 -24.333 -166 -73s-55 -117.334 -55 -206.001c0 -97.333 17.333 -171.5 52 -222.5s92 -76.5 172 -76.5c23.333 0 43.5 1.83301 60.5 5.5
s32.167 7.83398 45.5 12.501v185l-88 16v40h256v-40l-71 -16v-229c-28 -9.33301 -58.167 -16.666 -90.5 -21.999s-67.5 -8 -105.5 -8z" />
    <glyph glyph-name="H" unicode="H" horiz-adv-x="722" 
d="M30 40l86 16v549l-86 19v39h266v-39l-83 -19v-242h299v242l-86 19v39h266v-39l-84 -19v-549l84 -16v-40h-266v40l86 16v259h-299v-259l83 -16v-40h-266v40z" />
    <glyph glyph-name="I" unicode="I" horiz-adv-x="326" 
d="M30 40l86 16v550l-86 18v39h266v-39l-83 -18v-550l83 -16v-40h-266v40z" />
    <glyph glyph-name="J" unicode="J" horiz-adv-x="412" 
d="M133 -9c-28 0 -50.667 2.49902 -68 7.49902s-32 10.5 -44 16.5v53c8 -2.66699 15.5 -5 22.5 -7s14.333 -3.66699 22 -5s16 -2.33301 25 -3s19.167 -1 30.5 -1c14 0 26.667 1.33301 38 4s21 7.83398 29 15.501s14.167 18 18.5 31s6.5 29.833 6.5 50.5v452l-86 19v39h266
v-39l-84 -19v-461c0 -50 -15.333 -88 -46 -114s-74 -39 -130 -39z" />
    <glyph glyph-name="K" unicode="K" horiz-adv-x="656" 
d="M30 40l86 16v550l-86 18v39h270v-39l-87 -18v-298l261 298l-62 18v39h208v-39l-65 -18l-204 -222l213 -327l73 -17v-40h-150l-201 316l-73 -66v-194l87 -16v-40h-270v40z" />
    <glyph glyph-name="L" unicode="L" horiz-adv-x="558" 
d="M30 40l86 16v550l-86 18v39h275v-39l-92 -18v-554h225l48 158h45l-12 -210h-489v40z" />
    <glyph glyph-name="M" unicode="M" horiz-adv-x="857" 
d="M30 39l86.001 17v550l-86 18v39h227l105 -315c7.33301 -21.333 14.333 -44.833 21 -70.5l18 -71.5c6.66699 -26.667 12.667 -52.667 18 -78h4c6 26 12.667 52 20 78l20 71.5c7.33301 25.667 14.666 49.167 21.999 70.5l107 315h235v-39l-93 -18v-549l93 -17v-40h-261v40
l73 17v328c0 23.333 0.166992 48.666 0.5 75.999s0.833008 53 1.5 77l2 84h-5l-24 -80l-23.5 -73.5l-23.5 -71.5l-125 -365h-68l-121 365l-23.5 71.5l-22.5 73.5l-23 80h-5l2 -84c0.666992 -24 1.16699 -49.667 1.5 -77s0.5 -52.666 0.5 -75.999v-328l76 -17v-40h-229v39z
" />
    <glyph glyph-name="N" unicode="N" horiz-adv-x="706" 
d="M30 38l87 18v549l-87 19v39h215l215 -363c8 -14 16.667 -30 26 -48l25 -50l26 -56h5v458l-86 20v39h228v-38l-76 -20v-605h-76l-266 450c-8.66699 14 -17.5 29.667 -26.5 47l-24.5 49l-26 54h-5v-543l86 -18v-39h-240v38z" />
    <glyph glyph-name="O" unicode="O" horiz-adv-x="682" 
d="M339 -11c-41.333 0 -80.3301 7.33105 -116.997 21.998s-68.5 36.5 -95.5 65.5s-48.333 64.833 -64 107.5s-23.5 92 -23.5 148c0 59.333 8.83301 110.5 26.5 153.5s40.667 78.5 69 106.5s60.666 48.667 96.999 62s73.166 20 110.499 20c42 0 81.167 -7.33301 117.5 -22
s68.166 -36.334 95.499 -65.001s48.833 -64.167 64.5 -106.5s23.5 -91.166 23.5 -146.499c0 -59.333 -8.83301 -110.666 -26.5 -153.999s-40.834 -79.166 -69.501 -107.499s-61.167 -49.333 -97.5 -63s-73.166 -20.5 -110.499 -20.5zM341.003 42.998
c34 0 63.501 6.99805 88.501 20.998s45.833 33.5 62.5 58.5s29 54.5 37 88.5s12 71 12 111c0 97.333 -16.667 171.5 -50 222.5s-84 76.5 -152 76.5c-34 0 -63.5 -7.16699 -88.5 -21.5s-45.667 -34 -62 -59s-28.333 -54.667 -36 -89s-11.5 -71.5 -11.5 -111.5
c0 -44 3.5 -84.167 10.5 -120.5s18.333 -67.666 34 -93.999s36.167 -46.666 61.5 -60.999s56.666 -21.5 93.999 -21.5z" />
    <glyph glyph-name="P" unicode="P" horiz-adv-x="559" 
d="M213 339c13.333 -2.66699 27.166 -4.66699 41.499 -6s30.833 -2 49.5 -2c46.667 0 81.334 10.667 104.001 32s34 58 34 110c0 48 -10.667 82.167 -32 102.5s-56.333 30.5 -105 30.5h-92v-267zM30 40l85.999 16.999v549l-86 18v39h275c42 0 78 -4.16699 108 -12.5
s54.667 -20.5 74 -36.5s33.5 -35.333 42.5 -58s13.5 -48.334 13.5 -77.001c0 -33.333 -5.66699 -62.5 -17 -87.5s-27 -45.667 -47 -62s-43.667 -28.666 -71 -36.999s-57.333 -12.5 -90 -12.5c-24 0 -44.167 0.833008 -60.5 2.5s-31.166 3.83398 -44.499 6.50098v-232
l101 -17v-40h-284v40z" />
    <glyph glyph-name="Q" unicode="Q" horiz-adv-x="682" 
d="M262 -4c-24.667 7.33301 -50.1641 18.668 -76.4971 34.001s-50.333 36.166 -72 62.499s-39.5 59 -53.5 98s-21 86.167 -21 141.5c0 59.333 8.83301 110.5 26.5 153.5s40.667 78.5 69 106.5s60.666 48.667 96.999 62s73.166 20 110.499 20c42 0 81.167 -7.33301 117.5 -22
s68.166 -36.334 95.499 -65.001s48.833 -64.167 64.5 -106.5s23.5 -91.166 23.5 -146.499c0 -48 -5.66699 -90.5 -17 -127.5s-27.333 -68.667 -48 -95s-45 -47.333 -73 -63s-58.333 -26.167 -91 -31.5v-4l308 -62l-24 -83zM341.003 43.002
c34 0 63.501 6.99805 88.501 20.998s45.833 33.5 62.5 58.5s29 54.5 37 88.5s12 71 12 111c0 97.333 -16.667 171.5 -50 222.5s-84 76.5 -152 76.5c-34 0 -63.5 -7.16699 -88.5 -21.5s-45.667 -34 -62 -59s-28.333 -54.667 -36 -89s-11.5 -71.5 -11.5 -111.5
c0 -44 3.5 -84.167 10.5 -120.5s18.333 -67.666 34 -93.999s36.167 -46.666 61.5 -60.999s56.666 -21.5 93.999 -21.5z" />
    <glyph glyph-name="R" unicode="R" horiz-adv-x="637" 
d="M312 346c25.333 0 46.6699 3.83301 64.0029 11.5s31.166 17.834 41.499 30.501s17.666 27.167 21.999 43.5s6.5 33.166 6.5 50.499c0 44 -10.333 75.667 -31 95s-55.334 29 -104.001 29h-97v-260h98zM30.0039 40l87.999 17v548l-88 19v39h284
c80 0 138.667 -15.5 176 -46.5s56 -75.167 56 -132.5c0 -24 -4 -45.167 -12 -63.5s-18.5 -34 -31.5 -47s-27.667 -23.833 -44 -32.5s-33.166 -15.667 -50.499 -21v-4l154 -260l68 -17v-39h-143l-171 297h-102v-240l83 -17v-40h-267v40z" />
    <glyph glyph-name="S" unicode="S" horiz-adv-x="512" 
d="M238 -11c-39.333 0 -74.667 2.99902 -106 8.99902s-58.666 13.667 -81.999 23l-7 151h46l32 -97c17.333 -10 35.666 -17.667 54.999 -23s43 -8 71 -8c22.667 0 42.5 3.16699 59.5 9.5s31.333 14.833 43 25.5s20.334 23 26.001 37s8.5 29 8.5 45
c0 17.333 -2.66699 32.333 -8 45s-13.333 24 -24 34s-23.5 19 -38.5 27s-32.167 16 -51.5 24l-81 35c-36.667 15.333 -67 36.333 -91 63s-36 63.667 -36 111c0 24 4.33301 46.5 13 67.5s21.667 39.5 39 55.5s39.166 28.667 65.499 38s57.5 14 93.5 14
c38 0 70.333 -2.33301 97 -7s49.667 -10.334 69 -17.001l6 -141h-45l-27 85c-9.33301 4.66699 -22 10 -38 16s-39 9 -69 9c-34 0 -63 -7.83301 -87 -23.5s-36 -40.167 -36 -73.5c0 -29.333 8.33301 -52.666 25 -69.999s42 -32.666 76 -45.999l81 -33
c21.333 -8.66699 41.333 -18.167 60 -28.5s35 -22.5 49 -36.5s25.167 -30.833 33.5 -50.5s12.5 -42.834 12.5 -69.501c0 -26 -4.33301 -51 -13 -75s-22.5 -45.167 -41.5 -63.5s-43.333 -33.166 -73 -44.499s-65.167 -17 -106.5 -17z" />
    <glyph glyph-name="T" unicode="T" horiz-adv-x="596" 
d="M161 40l88 16v555h-146l-37 -137h-46l10 189h536l10 -189h-46l-37 137h-146v-555l87 -16v-40h-273v40z" />
    <glyph glyph-name="U" unicode="U" horiz-adv-x="674" 
d="M342 -13c-82 0 -143.5 19.667 -184.5 59s-61.5 91 -61.5 155v405l-84 18v39h266v-39l-85 -18v-388c0 -59.333 14.167 -102.333 42.5 -129s68.833 -40 121.5 -40c54 0 95.167 13.333 123.5 40s42.5 70 42.5 130v386l-86 18v40h225v-39l-73 -18v-395
c0 -68.667 -21.333 -123.167 -64 -163.5s-103.667 -60.5 -183 -60.5z" />
    <glyph glyph-name="V" unicode="V" horiz-adv-x="643" 
d="M75 605l-62.001 19.001v39h241v-39l-77 -19l103 -313c6 -19.333 12.167 -40.333 18.5 -63l17.5 -64l18 -70h5c6 23.333 12.333 46.666 19 69.999c5.33301 20 11.333 41.333 18 64s13.334 43.667 20.001 63l104 313l-77 19v39h206v-39l-61 -19l-209 -605h-76z" />
    <glyph glyph-name="W" unicode="W" horiz-adv-x="926" 
d="M74 605l-57.999 18.998v39h226v-39l-72 -19l71 -270l17 -72.5c6 -26.333 11.333 -51.166 16 -74.499l16 -81h4c6 27.333 12.333 54.333 19 81l17.5 74.5c6.33301 26.333 12.833 50.5 19.5 72.5l92 328h64l91 -328c6 -22 12.167 -46.167 18.5 -72.5l17.5 -74.5
c6 -26.667 11.667 -53.667 17 -81h4l18 81l17 74.5l17 72.5l69 270l-73 19v39h210v-39l-68 -19l-164 -605h-78l-87 309c-6.66699 22 -12.834 46.333 -18.501 73l-15.5 75c-5.33301 27.333 -10.333 55 -15 83h-5c-6 -27.333 -12.333 -54.666 -19 -81.999
c-5.33301 -23.333 -11.5 -48.5 -18.5 -75.5s-13.833 -51.5 -20.5 -73.5l-88 -309h-79z" />
    <glyph glyph-name="X" unicode="X" horiz-adv-x="671" 
d="M30 40l72 17l180 286l-168 263l-73 18v39h254v-39l-69 -18l127 -216h5l119 216l-73 18v39h216v-39l-73 -18l-156 -267l178 -283l71 -16v-40h-249v40l71 16l-144 238h-4l-141 -237l73 -18v-39h-216v40z" />
    <glyph glyph-name="Y" unicode="Y" horiz-adv-x="610" 
d="M178 40l85 17v230l-193 318l-59 19v39h230v-39l-66 -19l154 -266h4l142 266l-71 19v39h195v-39l-58 -19l-181 -320v-228l83 -17v-40h-265v40z" />
    <glyph glyph-name="Z" unicode="Z" horiz-adv-x="535" 
d="M22 44l371 560v4h-264l-42 -126h-47l10 181h460v-44l-372 -561v-4h287l42 127h46l-9 -181h-482v44z" />
    <glyph glyph-name="bracketleft" unicode="[" horiz-adv-x="344" 
d="M74 701h227v-39l-141 -17v-703l141 -17v-40h-227v816z" />
    <glyph glyph-name="backslash" unicode="\" horiz-adv-x="345" 
d="M36 701h62l232 -816h-62z" />
    <glyph glyph-name="bracketright" unicode="]" horiz-adv-x="344" 
d="M43 -75l141 17v703l-141 17v39h228v-816h-228v40z" />
    <glyph glyph-name="asciicircum" unicode="^" horiz-adv-x="440" 
d="M192 663h56l160 -266h-53l-135 184l-135 -184h-53z" />
    <glyph glyph-name="underscore" unicode="_" horiz-adv-x="322" 
d="M-2 -65h326v-50h-326v50z" />
    <glyph glyph-name="grave" unicode="`" 
d="M112 673l32 73l200 -123l-16 -36z" />
    <glyph glyph-name="a" unicode="a" horiz-adv-x="489" 
d="M213 47c20 0 38.668 3.83301 56.001 11.5s30.666 15.5 39.999 23.5v165l-97 -13c-32 -4.66699 -55.167 -15.5 -69.5 -32.5s-21.5 -38.833 -21.5 -65.5c0 -28 7.33301 -49.833 22 -65.5s38 -23.5 70 -23.5zM397.001 74c0 -15.333 4.16602 -24.8369 12.499 -28.5039
s19.833 -5.5 34.5 -5.5h31v-33c-8.66699 -2.66699 -20.667 -6 -36 -10s-31.666 -6 -48.999 -6c-19.333 0 -35.333 3.83301 -48 11.5s-20.667 20.5 -24 38.5h-5c-13.333 -13.333 -30.666 -25.666 -51.999 -36.999s-48 -17 -80 -17c-44 0 -80.167 12.167 -108.5 36.5
s-42.5 58.833 -42.5 103.5c0 22 3.83301 40.833 11.5 56.5s18.5 29.334 32.5 41.001s30.333 21.334 49 29.001s39 14.5 61 20.5l125 33v27c0 16 -1.16699 30.333 -3.5 43s-7.5 23.167 -15.5 31.5s-19.333 14.666 -34 18.999s-34.334 6.5 -59.001 6.5
c-20 0 -42.167 -1.16699 -66.5 -3.5s-44.5 -5.16602 -60.5 -8.49902v44c20 8.66699 45.5 16.5 76.5 23.5s62.5 10.5 94.5 10.5c54 0 93.5 -12.667 118.5 -38s37.5 -59.666 37.5 -102.999v-285z" />
    <glyph glyph-name="b" unicode="b" horiz-adv-x="546" 
d="M251 -11c-38 0 -72.1689 3.50098 -102.502 10.501s-56.166 15.167 -77.499 24.5v658l-73 15v36l150 22l11 -5v-299h5c19.333 13.333 40.666 24.833 63.999 34.5s52 14.5 86 14.5c23.333 0 46.5 -3.33301 69.5 -10s43.5 -18.834 61.5 -36.501s32.667 -41.834 44 -72.501
s17 -69.667 17 -117c0 -45.333 -6.16699 -85.166 -18.5 -119.499s-29.666 -63 -51.999 -86s-49.166 -40.333 -80.499 -52s-66 -17.5 -104 -17.5zM260.998 40.001c22.667 0 43.3311 3.50195 61.998 10.502s34.667 18.5 48 34.5s23.833 37.167 31.5 63.5
s11.5 59.166 11.5 98.499c0 34.667 -3.33301 63.667 -10 87s-16.167 42.333 -28.5 57s-27.5 25.167 -45.5 31.5s-38.333 9.5 -61 9.5c-23.333 0 -44.666 -2.66699 -63.999 -8s-34.666 -10.666 -45.999 -15.999v-339l16.5 -10.5
c5.66699 -3.66699 12.5 -6.83398 20.5 -9.50098s17.167 -4.83398 27.5 -6.50098s22.833 -2.5 37.5 -2.5z" />
    <glyph glyph-name="c" unicode="c" horiz-adv-x="459" 
d="M275 -11c-38.667 0 -72.834 5.83105 -102.501 17.498s-54.667 28.5 -75 50.5s-35.666 48.5 -45.999 79.5s-15.5 65.833 -15.5 104.5c0 46.667 7 86.334 21 119.001s32.667 59.334 56 80.001s50.666 35.834 81.999 45.501s64.666 14.5 99.999 14.5
c23.333 0 46.166 -1.66699 68.499 -5s42.5 -8 60.5 -14v-123h-50l-20 81c-7.33301 2.66699 -15.666 4.83398 -24.999 6.50098s-24.333 2.5 -45 2.5c-48 0 -86.167 -16 -114.5 -48s-42.5 -81.333 -42.5 -148c0 -38 4.5 -69.667 13.5 -95s21.333 -45.833 37 -61.5
s34 -26.834 55 -33.501s43.5 -10 67.5 -10c34 0 61.833 2.66699 83.5 8s38.167 10.666 49.5 15.999v-44c-15.333 -11.333 -35.666 -21.333 -60.999 -30s-57.666 -13 -96.999 -13z" />
    <glyph glyph-name="d" unicode="d" horiz-adv-x="577" 
d="M277 55c22.667 0 43.667 3.33398 63 10.001s34.666 12.667 45.999 18v335l-17 10.5c-6 3.66699 -13 7 -21 10s-17.167 5.5 -27.5 7.5s-22.833 3 -37.5 3c-22 0 -42.333 -3.33301 -61 -10s-34.667 -17.834 -48 -33.501s-23.666 -36.5 -30.999 -62.5s-11 -58.667 -11 -98
c0 -68 12.667 -116.667 38 -146s61 -44 107 -44zM250 -10.999c-23.333 0 -47.3301 3.83203 -71.9971 11.499s-47.334 20.834 -68.001 39.501s-37.5 43.834 -50.5 75.501s-19.5 71.167 -19.5 118.5c0 45.333 6.16699 84.666 18.5 117.999s29.5 61 51.5 83
s48.667 38.333 80 49s66 16 104 16c19.333 0 36.166 -1.16699 50.499 -3.5s28.166 -5.5 41.499 -9.5v195l-79 15v36l157 22l11 -5v-689l72 -16v-32l-144 -22l-11 4v50h-6c-13.333 -16 -31 -29.333 -53 -40s-49.667 -16 -83 -16z" />
    <glyph glyph-name="e" unicode="e" horiz-adv-x="499" 
d="M277 -11c-42 0 -78.334 6.5 -109.001 19.5s-55.667 31 -75 54s-33.666 50.333 -42.999 82s-14 66.5 -14 104.5c0 39.333 5.83301 74.5 17.5 105.5s27.834 57.333 48.501 79s44.667 38.167 72 49.5s56.666 17 87.999 17c36 0 66.833 -6 92.5 -18s46.667 -29.167 63 -51.5
s28.333 -49.333 36 -81s11.5 -67.5 11.5 -107.5h-338c2.66699 -63.333 18.5 -111 47.5 -143s69.167 -48 120.5 -48c36 0 65.167 3 87.5 9s42.5 13.333 60.5 22v-43c-16 -11.333 -37.333 -22.5 -64 -33.5s-60.667 -16.5 -102 -16.5zM363.999 290
c0 57.333 -8.83301 98.167 -26.5 122.5s-44.5 36.5 -80.5 36.5c-39.333 0 -70 -12.5 -92 -37.5s-34.667 -65.5 -38 -121.5h237z" />
    <glyph glyph-name="f" unicode="f" horiz-adv-x="341" 
d="M186 491l130.002 -0.00195312v-57h-130v-386l84 -16v-32h-244v32l72 16v386h-69v39l69 24v90c0 30.667 4.5 56.834 13.5 78.501s21.167 39.334 36.5 53.001s33.166 23.667 53.499 30s42.166 9.5 65.499 9.5c26.667 0 48 -2.33301 64 -7s28.667 -9.66699 38 -15v-46
c-9.33301 2 -20 3.83301 -32 5.5s-26.667 2.5 -44 2.5c-34.667 0 -61.167 -8.16699 -79.5 -24.5s-27.5 -46.833 -27.5 -91.5v-91z" />
    <glyph glyph-name="g" unicode="g" horiz-adv-x="510" 
d="M235 231c30.667 0 55.5 9 74.5 27s28.5 45.667 28.5 83c0 20 -2.66699 37 -8 51s-12.666 25.667 -21.999 35s-20.166 16.166 -32.499 20.499s-25.833 6.5 -40.5 6.5c-30.667 0 -55.334 -9.16699 -74.001 -27.5s-28 -46.166 -28 -83.499
c0 -39.333 9.66699 -67.833 29 -85.5s43.666 -26.5 72.999 -26.5zM221 -222c-36.667 0 -67.9932 3.49805 -93.9932 10.498s-47.167 16.333 -63.5 28s-28.166 24.667 -35.499 39s-11 29.166 -11 44.499c0 26.667 8.66699 50.5 26 71.5s42.666 38.167 75.999 51.5v5
c-16.667 5.33301 -30 14 -40 26s-15 27 -15 45c0 18.667 5.16699 37.834 15.5 57.501s25.166 37.167 44.499 52.5c-24.667 11.333 -43.834 27.5 -57.501 48.5s-20.5 47.5 -20.5 79.5c0 26.667 5 50.167 15 70.5s23.667 37.333 41 51s37.5 24 60.5 31s47.5 10.5 73.5 10.5
c17.333 0 34.166 -1.33301 50.499 -4s31.166 -7 44.499 -13l166 20v-65l-115 5v-3c14 -12.667 24.667 -25.667 32 -39s11 -31.333 11 -54c0 -27.333 -5 -51.166 -15 -71.499s-23.667 -37.166 -41 -50.499s-37.5 -23.5 -60.5 -30.5s-47.5 -10.5 -73.5 -10.5
c-28.667 0 -54.334 3 -77.001 9c-7.33301 -7.33301 -13.333 -17.333 -18 -30s-7 -24 -7 -34c0 -8.66699 3.5 -17 10.5 -25s19.167 -12 36.5 -12h156c20 0 39.167 -1.83301 57.5 -5.5s34.666 -10.167 48.999 -19.5s25.666 -21.833 33.999 -37.5s12.5 -35.834 12.5 -60.501
c0 -26 -5.83301 -50.5 -17.5 -73.5s-29 -43.167 -52 -60.5s-51.167 -31.166 -84.5 -41.499s-71.333 -15.5 -114 -15.5zM229.007 -168.002c30.667 0 57.334 3.16602 80.001 9.49902s41.5 14.666 56.5 24.999s26.167 22.333 33.5 36s11 27.834 11 42.501
c0 24.667 -7.66699 42 -23 52s-37 15 -65 15h-148c-25.333 -9.33301 -44 -22.833 -56 -40.5s-18 -37.167 -18 -58.5c0 -25.333 10.167 -45.166 30.5 -59.499s53.166 -21.5 98.499 -21.5z" />
    <glyph glyph-name="h" unicode="h" horiz-adv-x="583" 
d="M25 32l73 16v634l-73 15v36l150 22l11 -5v-297h5c24 12.667 49.5 23.667 76.5 33s55.5 14 85.5 14c46 0 80.667 -9.66699 104 -29s35 -53.333 35 -102v-321l73 -16v-32h-232v32l71 16v298c0 34 -8.66699 57 -26 69s-43.333 18 -78 18
c-20.667 0 -40.167 -2.16699 -58.5 -6.5s-36.833 -9.83301 -55.5 -16.5v-362l71 -16v-32h-232v32z" />
    <glyph glyph-name="i" unicode="i" horiz-adv-x="282" 
d="M138 602c-16 0 -29.667 5.66699 -41 17s-17 24.333 -17 39c0 16.667 5.66699 30.334 17 41.001s25 16 41 16s29.667 -5.33301 41 -16s17 -24.334 17 -41.001c0 -14.667 -5.66699 -27.667 -17 -39s-25 -17 -41 -17zM26 32l72 16v376l-78 15v37l156 23l10 -6v-445l73 -16
v-32h-233v32z" />
    <glyph glyph-name="j" unicode="j" horiz-adv-x="270" 
d="M138 602c-16 0 -29.667 5.66699 -41 17s-17 24.333 -17 39c0 16.667 5.66699 30.334 17 41.001s25 16 41 16s29.667 -5.33301 41 -16s17 -24.334 17 -41.001c0 -14.667 -5.66699 -27.667 -17 -39s-25 -17 -41 -17zM39 -214c-12 0 -24.1699 1.33008 -36.5029 3.99707
s-24.166 6.33398 -35.499 11.001v39c7.33301 -0.666992 14.833 -1.16699 22.5 -1.5s14.834 -0.5 21.501 -0.5c12 0 23.167 1.33301 33.5 4s19.5 7.33398 27.5 14.001s14.333 16 19 28s7 27.667 7 47v493l-78 15v37l156 23l10 -6v-572c0 -43.333 -12.667 -76.666 -38 -99.999
s-61.666 -35 -108.999 -35z" />
    <glyph glyph-name="k" unicode="k" horiz-adv-x="534" 
d="M232 220l-46 4v-177l74 -15v-32h-235v32l73 15v635l-73 15v36l150 22l11 -5v-496l50 20l128 168l-58 14v35h195v-35l-70 -14l-138 -168l167 -226l63 -16v-32h-132z" />
    <glyph glyph-name="l" unicode="l" horiz-adv-x="282" 
d="M25 32l73 16v634l-80 15v36l157 22l11 -5v-702l73 -16v-32h-234v32z" />
    <glyph glyph-name="m" unicode="m" horiz-adv-x="871" 
d="M25 32l73.0029 16v376l-73 15v37l146 23l10 -6v-42h6c24.667 14 49.5 25.667 74.5 35s54.833 14 89.5 14c57.333 0 95.666 -18 114.999 -54h6c24 15.333 50.5 28.166 79.5 38.499s59.833 15.5 92.5 15.5c44 0 77.333 -10.833 100 -32.5s34 -56.167 34 -103.5v-316l72 -16
v-32h-231v32l70 16v292c0 36 -8.5 60.5 -25.5 73.5s-42.833 19.5 -77.5 19.5c-19.333 0 -38 -2.16699 -56 -6.5s-35.667 -9.5 -53 -15.5c1.33301 -5.33301 2.5 -11.666 3.5 -18.999s1.5 -16.666 1.5 -27.999v-316l70 -16v-32h-230v32l72 16v292
c0 35.333 -8.5 59.666 -25.5 72.999s-41.5 20 -73.5 20c-22.667 0 -41.834 -2 -57.501 -6s-32.834 -9.33301 -51.501 -16v-363l71 -16v-32h-232v32z" />
    <glyph glyph-name="n" unicode="n" horiz-adv-x="585" 
d="M25 32l73 16v376l-73 15v37l146 23l10 -6v-43h6c24.667 13.333 51 25 79 35s57 15 87 15c46 0 80.667 -9.66699 104 -29s35 -53.333 35 -102v-321l73 -16v-32h-232v32l71 16v298c0 33.333 -8.66699 56 -26 68s-43.333 18 -78 18c-20.667 0 -40.167 -2 -58.5 -6
s-36.833 -9.33301 -55.5 -16v-362l71 -16v-32h-232v32z" />
    <glyph glyph-name="o" unicode="o" horiz-adv-x="546" 
d="M274 -13c-35.333 0 -67.665 6 -96.998 18s-54.5 29.167 -75.5 51.5s-37.167 49.166 -48.5 80.499s-17 66.333 -17 105s6.16699 73.834 18.5 105.501s29.166 58.834 50.499 81.501s46.333 40.167 75 52.5s59 18.5 91 18.5c35.333 0 67.666 -6 96.999 -18
s54.5 -29 75.5 -51s37.333 -48.5 49 -79.5s17.5 -65.833 17.5 -104.5s-6.16699 -73.834 -18.5 -105.501s-29.166 -59 -50.499 -82s-46.333 -40.833 -75 -53.5s-59.334 -19 -92.001 -19zM275.001 40c18 0 35.667 3.33203 53 9.99902s32.5 17.667 45.5 33
s23.5 35.666 31.5 60.999s12 57 12 95c0 39.333 -4.16699 72.333 -12.5 99s-19.333 48.167 -33 64.5s-29.334 28 -47.001 35s-35.834 10.5 -54.501 10.5c-18 0 -35.5 -3.33301 -52.5 -10s-32.167 -17.667 -45.5 -33s-24 -35.833 -32 -61.5s-12 -57.5 -12 -95.5
c0 -38.667 4.16699 -71.167 12.5 -97.5s19.333 -47.666 33 -63.999s29.334 -28.166 47.001 -35.499s35.834 -11 54.501 -11z" />
    <glyph glyph-name="p" unicode="p" horiz-adv-x="569" 
d="M284 40c22.667 0 43.3311 3.49902 61.998 10.499s34.667 18.5 48 34.5s23.833 37.167 31.5 63.5s11.5 59.166 11.5 98.499c0 34.667 -3.16699 63.667 -9.5 87s-15.833 42.333 -28.5 57s-28 25.167 -46 31.5s-38.333 9.5 -61 9.5c-23.333 0 -44.666 -2.66699 -63.999 -8
s-34.666 -10.666 -45.999 -15.999v-341l16.5 -10c5.66699 -3.33301 12.5 -6.16602 20.5 -8.49902s17.167 -4.33301 27.5 -6s22.833 -2.5 37.5 -2.5zM21.9971 -183.001l71.999 13.001v594l-73 15v37l145 23l11 -6v-46h5c20 15.333 42.333 28 67 38s54 15 88 15
c23.333 0 46.5 -3.33301 69.5 -10s43.5 -18.834 61.5 -36.501s32.5 -41.834 43.5 -72.501s16.5 -69.667 16.5 -117c0 -45.333 -6 -85.166 -18 -119.499s-29.167 -63 -51.5 -86s-49.166 -40.333 -80.499 -52s-66 -17.5 -104 -17.5c-19.333 0 -36 0.666992 -50 2
s-28 3.33301 -42 6v-165l85 -15v-33h-245v33z" />
    <glyph glyph-name="q" unicode="q" horiz-adv-x="556" 
d="M302 -183l84.999 15v210h-6c-18 -14 -37.5 -26.333 -58.5 -37s-48.167 -16 -81.5 -16c-23.333 0 -46.833 3.66699 -70.5 11s-45.167 20 -64.5 38s-35.166 42.5 -47.499 73.5s-18.5 70.167 -18.5 117.5c0 44.667 6.16699 84 18.5 118s29.5 62.333 51.5 85
s48.333 39.667 79 51s64.667 17 102 17c33.333 0 65.333 -2.5 96 -7.5s60 -12.167 88 -21.5v-641l71 -13v-33h-244v33zM276.999 55c22.667 0 43.667 3.33398 63 10.001s34.666 12.667 45.999 18v335l-17 10.5c-6 3.66699 -13 7 -21 10s-17.5 5.5 -28.5 7.5
s-24.167 3 -39.5 3c-21.333 0 -41 -3.33301 -59 -10s-33.667 -17.834 -47 -33.501s-23.666 -36.5 -30.999 -62.5s-11 -58.667 -11 -98c0 -68 12.667 -116.667 38 -146s61 -44 107 -44z" />
    <glyph glyph-name="r" unicode="r" horiz-adv-x="372" 
d="M25 32l73 16v376l-73 15v37l146 23l10 -6v-62h6c6.66699 8 15.167 16.167 25.5 24.5s21.5 15.833 33.5 22.5s24.667 12 38 16s26.666 6 39.999 6c4 0 8.83301 -0.166992 14.5 -0.5s9.83398 -1.16602 12.501 -2.49902v-80c-6 1.33301 -12.667 2.16602 -20 2.49902
s-13.333 0.5 -18 0.5c-23.333 0 -46.333 -2.5 -69 -7.5s-42 -12.833 -58 -23.5v-341l83 -16v-32h-244v32z" />
    <glyph glyph-name="s" unicode="s" horiz-adv-x="427" 
d="M198 -13c-27.333 0 -54.5 2.83301 -81.5 8.5s-51.167 12.167 -72.5 19.5l-7 117h46l26 -70c9.33301 -5.33301 22 -10.333 38 -15s35 -7 57 -7c30.667 0 56 6.16699 76 18.5s30 31.166 30 56.499c0 12.667 -1.83301 23.167 -5.5 31.5s-9.16699 15.833 -16.5 22.5
s-17 12.5 -29 17.5s-26.333 10.167 -43 15.5l-53 18c-38.667 12.667 -68.5 29.667 -89.5 51s-31.5 50.333 -31.5 87c0 18.667 3.66699 36.667 11 54s18.5 32.5 33.5 45.5s33.667 23.333 56 31s48.5 11.5 78.5 11.5c28 0 53.833 -1.83301 77.5 -5.5s43.5 -8.16699 59.5 -13.5
v-110h-43l-23 60c-8.66699 5.33301 -19.167 9.5 -31.5 12.5s-28.166 4.5 -47.499 4.5c-27.333 0 -49.833 -5.16699 -67.5 -15.5s-26.5 -28.166 -26.5 -53.499c0 -10.667 1.66699 -20 5 -28s8.66602 -15.333 15.999 -22s17 -12.834 29 -18.501s27 -11.167 45 -16.5l54 -16
c44.667 -14 76.167 -32 94.5 -54s27.5 -50.333 27.5 -85c0 -21.333 -4 -41.166 -12 -59.499s-20 -34.333 -36 -48s-36 -24.5 -60 -32.5s-52 -12 -84 -12z" />
    <glyph glyph-name="t" unicode="t" horiz-adv-x="352" 
d="M219 -8c-42 0 -73.499 8.50098 -94.499 25.501s-31.5 47.833 -31.5 92.5v324h-76v39l76 23v126h88v-131h139v-57h-139v-306c0 -27.333 6 -47.333 18 -60s35 -19 69 -19c10.667 0 21.167 0.666992 31.5 2s20.166 2.66602 29.499 3.99902v-35
c-10.667 -7.33301 -26.5 -13.833 -47.5 -19.5s-41.833 -8.5 -62.5 -8.5z" />
    <glyph glyph-name="u" unicode="u" horiz-adv-x="585" 
d="M230 -9c-50 0 -86.166 12.832 -108.499 38.499s-33.5 60.5 -33.5 104.5v297l-72 15v36l150 16l11 -6v-336c0 -17.333 1.33301 -32.5 4 -45.5s7.5 -23.667 14.5 -32s16.667 -14.666 29 -18.999s28.166 -6.5 47.499 -6.5c30.667 0 55 3.16699 73 9.5s34.333 12.5 49 18.5
v350l-71 15v36l149 16l11 -6v-431l72 -16v-32l-145 -22l-11 4v54h-5c-20.667 -18 -44.667 -32.167 -72 -42.5s-58 -15.5 -92 -15.5z" />
    <glyph glyph-name="v" unicode="v" horiz-adv-x="538" 
d="M63 442l-53.9971 14v35h213v-35l-61 -11l86 -244l12.5 -41.5c4.33301 -15 8.16602 -29.167 11.499 -42.5l12 -47h5c3.33301 15.333 7 31 11 47c3.33301 13.333 7.16602 27.5 11.499 42.5s9.16602 28.833 14.499 41.5l87 244l-61 11v35h178v-35l-54 -14l-168 -442h-74z
" />
    <glyph glyph-name="w" unicode="w" horiz-adv-x="778" 
d="M61 442l-52 14v35h203v-35l-63 -14l65 -218c4.66699 -14.667 8.5 -30.5 11.5 -47.5l8.5 -48.5c2.66699 -17.333 5 -35.333 7 -54h5l12 54c3.33301 15.333 7.33301 31.5 12 48.5s9.33398 32.833 14.001 47.5l87 267h61l87 -267c4.66699 -14.667 8.66699 -30.5 12 -47.5
s6.33301 -33.167 9 -48.5c2.66699 -17.333 5 -35.333 7 -54h5l12 54l11 48.5c4 17 8.33301 32.833 13 47.5l63 218l-60 14v35h178v-35l-51 -14l-138 -442h-70l-71 226c-4.66699 13.333 -9.33398 30.166 -14.001 50.499l-13 58.5c-4.66699 22 -9.66699 44.333 -15 67h-4
c-5.33301 -22.667 -11 -45 -17 -67l-16 -58.5c-5.33301 -20.333 -10.333 -37.166 -15 -50.499l-77 -226h-70z" />
    <glyph glyph-name="x" unicode="x" horiz-adv-x="539" 
d="M20 32l59 15l139 197l-137 198l-57 14v35h214v-35l-57 -12l104 -164h2l103 164l-62 12v35h181v-35l-56 -14l-134 -189l141 -206l59 -15v-32h-217v32l60 13l-108 168h-2l-110 -168l61 -13v-32h-183v32z" />
    <glyph glyph-name="y" unicode="y" horiz-adv-x="531" 
d="M124 -216c-16 0 -30.5 2.16602 -43.5 6.49902s-23.833 10.166 -32.5 17.499v50c11.333 -2.66699 20.333 -4.66699 27 -6s14.667 -2 24 -2c14 0 26.333 1.33301 37 4s20.5 7.33398 29.5 14.001s17 15.667 24 27s14.167 25.666 21.5 42.999l32 76l-180 428l-54 14v35h217
v-35l-65 -13l85 -217c4.66699 -12 9.16699 -25.5 13.5 -40.5s8.16602 -29.167 11.499 -42.5c4 -15.333 7.66699 -30.666 11 -45.999h4c4 15.333 8.33301 30.666 13 45.999c3.33301 13.333 7.33301 27.333 12 42s9.33398 28.334 14.001 41.001l74 216l-62 14v35h185v-35
l-55 -14l-199 -523c-18 -47.333 -37.5 -81.666 -58.5 -102.999s-49.5 -32 -85.5 -32z" />
    <glyph glyph-name="z" unicode="z" horiz-adv-x="478" 
d="M38 46l289 393v4h-198l-29 -88h-45l8 136h368v-44l-289 -395v-4h209l35 107h46l-12 -155h-382v46z" />
    <glyph glyph-name="braceleft" unicode="{" horiz-adv-x="397" 
d="M353 -115c-45.333 1.33301 -82.833 5.16797 -112.5 11.501s-53.167 14.833 -70.5 25.5s-29.5 23.334 -36.5 38.001s-10.5 31 -10.5 49c0 13.333 1.66699 28.333 5 45l10.5 50l10.5 47.5c3.33301 15 5 27.833 5 38.5c0 8.66699 -1.16699 17 -3.5 25s-7.5 15 -15.5 21
s-19.5 11.333 -34.5 16s-35.5 8.33398 -61.5 11.001v61c26 2.66699 46.5 6.33398 61.5 11.001s26.5 10 34.5 16s13.167 12.833 15.5 20.5s3.5 16.167 3.5 25.5c0 10 -1.66699 22.5 -5 37.5l-10.5 47.5l-10.5 50c-3.33301 16.667 -5 31.667 -5 45c0 18 3.5 34.333 10.5 49
s19.167 27.334 36.5 38.001s40.833 19.167 70.5 25.5s67.167 10.166 112.5 11.499v-39c-26 -3.33301 -47.833 -6.83301 -65.5 -10.5s-31.834 -8.33398 -42.501 -14.001s-18.334 -12.834 -23.001 -21.501s-7 -20 -7 -34c0 -11.333 1.16699 -23.833 3.5 -37.5s5 -28 8 -43
s5.66699 -30.167 8 -45.5s3.5 -30 3.5 -44c0 -12 -1.16699 -23.5 -3.5 -34.5s-8 -21.5 -17 -31.5s-22.667 -19.333 -41 -28s-43.5 -16.334 -75.5 -23.001v-4c32 -6.66699 57.167 -14.334 75.5 -23.001s32 -18 41 -28s14.667 -20.5 17 -31.5s3.5 -22.5 3.5 -34.5
c0 -14 -1.16699 -28.667 -3.5 -44s-5 -30.5 -8 -45.5s-5.66699 -29.333 -8 -43s-3.5 -26.167 -3.5 -37.5c0 -14 2.33301 -25.333 7 -34s12.334 -15.834 23.001 -21.501s24.834 -10.167 42.501 -13.5s39.5 -6.66602 65.5 -9.99902v-40v0z" />
    <glyph glyph-name="bar" unicode="|" horiz-adv-x="229" 
d="M85 701h59v-816h-59v816z" />
    <glyph glyph-name="braceright" unicode="}" horiz-adv-x="397" 
d="M43 -75c26 3.33301 47.833 6.66602 65.5 9.99902s31.834 7.83301 42.501 13.5s18.334 12.834 23.001 21.501s7 20 7 34c0 11.333 -1.16699 23.833 -3.5 37.5s-5 28 -8 43s-5.66699 30.167 -8 45.5s-3.5 30 -3.5 44c0 12 1.16699 23.5 3.5 34.5s8 21.5 17 31.5
s22.667 19.333 41 28s43.5 16.334 75.5 23.001v4c-32 6.66699 -57.167 14.334 -75.5 23.001s-32 18 -41 28s-14.667 20.5 -17 31.5s-3.5 22.5 -3.5 34.5c0 14 1.16699 28.667 3.5 44s5 30.5 8 45.5s5.66699 29.333 8 43s3.5 26.167 3.5 37.5c0 14 -2.33301 25.333 -7 34
s-12.334 15.834 -23.001 21.501s-24.834 10.334 -42.501 14.001s-39.5 7.16699 -65.5 10.5v39c45.333 -1.33301 82.833 -5.16602 112.5 -11.499s53.167 -14.833 70.5 -25.5s29.5 -23.334 36.5 -38.001s10.5 -31 10.5 -49c0 -13.333 -1.5 -28.333 -4.5 -45
s-6.5 -33.334 -10.5 -50.001s-7.5 -32.5 -10.5 -47.5s-4.5 -27.5 -4.5 -37.5c0 -9.33301 1.16699 -17.833 3.5 -25.5s7.5 -14.5 15.5 -20.5s19.5 -11.333 34.5 -16s35.5 -8.33398 61.5 -11.001v-61c-26 -3.33301 -46.5 -7.33301 -61.5 -12s-26.5 -10 -34.5 -16
s-13.167 -12.833 -15.5 -20.5s-3.5 -15.834 -3.5 -24.501c0 -10.667 1.5 -23.5 4.5 -38.5s6.5 -30.833 10.5 -47.5s7.5 -33.334 10.5 -50.001s4.5 -31.667 4.5 -45c0 -18 -3.5 -34.333 -10.5 -49s-19.167 -27.334 -36.5 -38.001s-40.833 -19.167 -70.5 -25.5
s-67.167 -10.166 -112.5 -11.499v40z" />
    <glyph glyph-name="asciitilde" unicode="~" horiz-adv-x="409" 
d="M30 243c15.333 36.667 31.499 63.501 48.499 80.501s38.5 25.5 64.5 25.5c12.667 0 25 -2.33301 37 -7s23.333 -9.83398 34 -15.501l30 -15.5c9.33301 -4.66699 18.333 -7 27 -7c12 0 23.5 3.83301 34.5 11.5s22.167 21.5 33.5 41.5l39 -18
c-14 -36.667 -29.667 -63.334 -47 -80.001s-38.666 -25 -63.999 -25c-13.333 0 -26 2.33301 -38 7s-23.333 9.83398 -34 15.501l-30 15.5c-9.33301 4.66699 -18.333 7 -27 7c-12 0 -23.333 -4.16699 -34 -12.5s-22 -22.5 -34 -42.5z" />
    <glyph glyph-name="uni00A0" unicode="&#xa0;" horiz-adv-x="213" 
 />
    <glyph glyph-name="exclamdown" unicode="&#xa1;" horiz-adv-x="239" 
d="M120 445c-16.667 0 -30.667 5.66699 -42 17s-17 24.666 -17 39.999s5.66699 28.833 17 40.5s25.333 17.5 42 17.5c16 0 29.667 -5.83301 41 -17.5s17 -25.167 17 -40.5s-5.66699 -28.666 -17 -39.999s-25 -17 -41 -17zM95 365h53l24 -479h-101z" />
    <glyph glyph-name="cent" unicode="&#xa2;" horiz-adv-x="459" 
d="M199 -142l13.999 137c-58 11.333 -102 38.5 -132 81.5s-45 97.833 -45 164.5c0 42.667 5.83301 79.667 17.5 111s27.667 57.333 48 78s44.333 36.667 72 48s57.167 18.333 88.5 21l8 89h56l-10 -88c19.333 -1.33301 38.333 -3.5 57 -6.5s35.667 -7.16699 51 -12.5v-123
h-50l-20 85c-6 2 -12 3.66699 -18 5s-14 2.33301 -24 3l-40 -401c6.66699 -1.33301 11.834 -2 15.501 -2h12.5c34 0 61.833 3.33301 83.5 10s38.167 12.667 49.5 18v-44c-15.333 -11.333 -36 -21.333 -62 -30s-60.667 -13 -104 -13l-13 -131h-55zM126.999 252
c0 -54 8.83398 -96 26.501 -126s40.5 -51 68.5 -63l37 387c-40.667 -5.33301 -72.834 -24.5 -96.501 -57.5s-35.5 -79.833 -35.5 -140.5z" />
    <glyph glyph-name="sterling" unicode="&#xa3;" horiz-adv-x="538" 
d="M74 361h65.0029v97c0 38.667 5.66699 71.834 17 99.501s27.166 50 47.499 67s44.5 29.5 72.5 37.5s58.333 12 91 12c27.333 0 50.166 -1.5 68.499 -4.5s36.166 -7.5 53.499 -13.5v-131h-52l-29 92c-10.667 2.66699 -24.667 4 -42 4
c-15.333 0 -30.666 -2.66699 -45.999 -8s-29.5 -14.333 -42.5 -27s-23.833 -29.834 -32.5 -51.501s-13.667 -48.5 -15 -80.5l-4 -93h176v-56h-178l-1 -60c-0.666992 -22 -2.83398 -40.833 -6.50098 -56.5s-8.5 -29.5 -14.5 -41.5s-13 -22.667 -21 -32s-17 -19 -27 -29v-5
h341l-9 -81h-437v51c30 18 52.5 39.5 67.5 64.5s22.5 60.5 22.5 106.5v83h-65v56z" />
    <glyph glyph-name="yen" unicode="&#xa5;" horiz-adv-x="582" 
d="M86 356h139l-155 249l-50 19v39h221v-39l-67 -19l142 -238h3l128 238l-72 19v39h186v-39l-49 -19l-144 -249h143v-50h-166v-89h166v-50h-166v-110l86 -17v-40h-266v40l85 17v110h-164v50h164v89h-164v50z" />
    <glyph glyph-name="brokenbar" unicode="&#xa6;" horiz-adv-x="229" 
d="M85 701h59v-346h-59v346zM85 267h59v-382h-59v382z" />
    <glyph glyph-name="section" unicode="&#xa7;" horiz-adv-x="518" 
d="M216 385c-13.333 -2 -26 -5.33301 -38 -10s-22.667 -10.5 -32 -17.5s-16.833 -15.333 -22.5 -25s-8.5 -20.167 -8.5 -31.5c0 -25.333 11.167 -45 33.5 -59s51.5 -27.667 87.5 -41l66 -26c12.667 1.33301 25.167 4.33301 37.5 9s23 10.667 32 18s16.333 15.833 22 25.5
s8.5 20.5 8.5 32.5c0 12.667 -3 23.667 -9 33s-14.167 17.833 -24.5 25.5s-22.833 14.667 -37.5 21l-49 20.5zM251 -126c-34 0 -63.5 2.8291 -88.5 8.49609s-48.5 12.167 -70.5 19.5l-7 116h46l26 -69c11.333 -5.33301 24.5 -10.5 39.5 -15.5s34.5 -7.5 58.5 -7.5
c13.333 0 26.333 1.5 39 4.5s23.834 7.66699 33.501 14s17.334 14.5 23.001 24.5s8.5 21.667 8.5 35c0 23.333 -7.83301 42.5 -23.5 57.5s-39.834 29.167 -72.501 42.5l-78 31c-22 8.66699 -42 17.834 -60 27.501s-33.667 20.334 -47 32.001s-23.666 24.834 -30.999 39.501
s-11 31.334 -11 50.001c0 34 11.667 60.833 35 80.5s54.333 34.167 93 43.5c-23.333 13.333 -40.666 29.833 -51.999 49.5s-17 44.167 -17 73.5c0 42 15.5 76.333 46.5 103s75.833 40 134.5 40c30.667 0 57.334 -2 80.001 -6s42 -8.66699 58 -14v-106h-44l-23 57
c-8 5.33301 -18 9.5 -30 12.5s-28.667 4.5 -50 4.5c-12.667 0 -24.834 -1.33301 -36.501 -4s-22 -7 -31 -13s-16.167 -13.667 -21.5 -23s-8 -20.666 -8 -33.999c0 -11.333 1.33301 -21.333 4 -30s7.16699 -16.5 13.5 -23.5s15 -13.5 26 -19.5s24.5 -12.333 40.5 -19l78 -30
c22 -8.66699 42.167 -17.5 60.5 -26.5s34.166 -19.333 47.499 -31s23.666 -24.667 30.999 -39s11 -30.833 11 -49.5c0 -34 -11.167 -61.667 -33.5 -83s-53.166 -36.666 -92.499 -45.999c25.333 -14.667 45.666 -32.334 60.999 -53.001s23 -45.334 23 -74.001
c0 -20 -4 -39 -12 -57s-19.833 -34 -35.5 -48s-35.334 -25 -59.001 -33s-51.167 -12 -82.5 -12z" />
    <glyph glyph-name="dieresis" unicode="&#xa8;" 
d="M133 602c-15.333 0 -27.833 5.16699 -37.5 15.5s-14.5 22.5 -14.5 36.5c0 13.333 4.83301 25.166 14.5 35.499s22.167 15.5 37.5 15.5s28 -5.16699 38 -15.5s15 -22.166 15 -35.499c0 -14 -5 -26.167 -15 -36.5s-22.667 -15.5 -38 -15.5zM327 602
c-15.333 0 -28 5.16699 -38 15.5s-15 22.5 -15 36.5c0 13.333 5 25.166 15 35.499s22.667 15.5 38 15.5s27.833 -5.16699 37.5 -15.5s14.5 -22.166 14.5 -35.499c0 -14 -4.83301 -26.167 -14.5 -36.5s-22.167 -15.5 -37.5 -15.5z" />
    <glyph glyph-name="copyright" unicode="&#xa9;" horiz-adv-x="772" 
d="M385 -14c-48.667 0 -93.834 9 -135.501 27s-77.834 42.667 -108.501 74s-54.667 67.666 -72 108.999s-26 85.666 -26 132.999s8.66699 91.666 26 132.999s41.333 77.5 72 108.5s66.834 55.333 108.501 73s86.834 26.5 135.501 26.5s93.834 -8.83301 135.501 -26.5
s78 -42 109 -73s55.333 -67.167 73 -108.5s26.5 -85.666 26.5 -132.999s-8.83301 -91.666 -26.5 -132.999s-42 -77.666 -73 -108.999s-67.333 -56 -109 -74s-86.834 -27 -135.501 -27zM385 26c43.333 0 83 8 119 24s66.833 37.667 92.5 65s45.667 59.5 60 96.5
s21.5 76.167 21.5 117.5c0 42 -7.16699 81.333 -21.5 118s-34.333 68.667 -60 96s-56.5 48.833 -92.5 64.5s-75.667 23.5 -119 23.5s-82.833 -7.83301 -118.5 -23.5s-66.334 -37.167 -92.001 -64.5s-45.667 -59.333 -60 -96s-21.5 -76 -21.5 -118
c0 -41.333 7.16699 -80.5 21.5 -117.5s34.333 -69.167 60 -96.5s56.334 -49 92.001 -65s75.167 -24 118.5 -24zM397 165c-24 0 -45.999 3.50195 -65.999 10.502s-37.167 17.333 -51.5 31s-25.666 30.667 -33.999 51s-12.5 43.833 -12.5 70.5
c0 29.333 4.66699 54.666 14 75.999s21.666 39 36.999 53s33.333 24.333 54 31s42.667 10 66 10c20 0 38.167 -1.33301 54.5 -4s30.166 -5.33398 41.499 -8.00098l4 -89h-31l-23 56c-6.66699 2.66699 -14 5.16699 -22 7.5s-18 3.5 -30 3.5c-32 0 -54.667 -11.667 -68 -35
s-20 -54 -20 -92c0 -42.667 6.66699 -76.167 20 -100.5s37.333 -36.5 72 -36.5c11.333 0 21.333 0.333008 30 1s14.667 2.66699 18 6l26 66h32l-7 -92c-12 -3.33301 -26.5 -6.83301 -43.5 -10.5s-37.167 -5.5 -60.5 -5.5z" />
    <glyph glyph-name="ordfeminine" unicode="&#xaa;" horiz-adv-x="451" 
d="M200 268c18 0 34.833 2.83203 50.5 8.49902s27.5 11.834 35.5 18.501v131l-85 -6c-28 -2.66699 -48.333 -11 -61 -25s-19 -32 -19 -54c0 -22.667 6.66699 -40.5 20 -53.5s33 -19.5 59 -19.5zM185 616.999c-6 0 -12.166 -0.166016 -18.499 -0.499023
s-13.166 -0.833008 -20.499 -1.5l-20 -67h-53v97c17.333 7.33301 39.833 13.833 67.5 19.5s55.5 8.5 83.5 8.5c98 0 147 -43.333 147 -130v-250c0 -14 3.5 -23 10.5 -27s17.167 -6 30.5 -6h21v-32c-4.66699 -2.66699 -13 -5.83398 -25 -9.50098s-27 -5.5 -45 -5.5
c-17.333 0 -32.333 3.33301 -45 10s-20.667 18.667 -24 36h-4c-12.667 -12 -28.334 -23 -47.001 -33s-42.667 -15 -72 -15c-40 0 -72.5 11 -97.5 33s-37.5 52 -37.5 90c0 18.667 3.5 35 10.5 49s16.667 26 29 36s27.166 18 44.499 24s36.333 11 57 15l109 21v41
c0 17.333 -1.33301 32.166 -4 44.499s-7.66699 22.333 -15 30s-17.5 13.334 -30.5 17.001s-30.167 5.5 -51.5 5.5z" />
    <glyph glyph-name="guillemotleft" unicode="&#xab;" horiz-adv-x="454" 
d="M218 228v28l136 202h58l-110 -216l110 -217h-58zM41 228v28l136 202h58l-110 -216l110 -217h-58z" />
    <glyph glyph-name="registered" unicode="&#xae;" horiz-adv-x="586" 
d="M293 165c-36.667 0 -70.667 6.66699 -102 20s-58.5 31.666 -81.5 54.999s-41 50.333 -54 81s-19.5 63.667 -19.5 99c0 36 6.5 69.5 19.5 100.5s31 58 54 81s50.167 41.167 81.5 54.5s65.333 20 102 20c36 0 69.667 -6.66699 101 -20s58.5 -31.5 81.5 -54.5
s41.167 -50 54.5 -81s20 -64.5 20 -100.5c0 -35.333 -6.66699 -68.333 -20 -99s-31.5 -57.667 -54.5 -81s-50.167 -41.666 -81.5 -54.999s-65 -20 -101 -20zM293 204c30.667 0 58.834 5.33301 84.501 16s47.667 25.5 66 44.5s32.666 41.667 42.999 68s15.5 55.5 15.5 87.5
c0 31.333 -5.16699 60.333 -15.5 87s-24.666 49.667 -42.999 69s-40.333 34.333 -66 45s-53.834 16 -84.501 16c-31.333 0 -59.833 -5.33301 -85.5 -16s-47.667 -25.667 -66 -45s-32.5 -42.333 -42.5 -69s-15 -55.667 -15 -87c0 -32 5 -61.167 15 -87.5s24.167 -49 42.5 -68
s40.333 -33.833 66 -44.5s54.167 -16 85.5 -16zM303 434c16.667 0 27.5 3.66797 32.5 11.001s7.5 17.333 7.5 30c0 13.333 -3.83301 22.666 -11.5 27.999s-19.167 8 -34.5 8h-32v-77h38zM180 332.001l33 7v171l-33 7v28h118c31.333 0 56 -5.5 74 -16.5s27 -28.167 27 -51.5
c0 -18 -5.5 -31.333 -16.5 -40s-22.5 -14.667 -34.5 -18v-4l54 -77l21 -6v-27h-61l-59 94h-38v-60l28 -7v-27h-113v27z" />
    <glyph glyph-name="macron" unicode="&#xaf;" 
d="M102 679h255v-59h-255v59z" />
    <glyph glyph-name="degree" unicode="&#xb0;" horiz-adv-x="409" 
d="M205 364c-23.333 0 -44.666 4.16699 -63.999 12.5s-35.833 19.5 -49.5 33.5s-24.334 30.333 -32.001 49s-11.5 38.667 -11.5 60c0 20.667 3.83301 40.334 11.5 59.001s18.334 35 32.001 49s30.167 25 49.5 33s40.666 12 63.999 12s44.666 -4 63.999 -12
s35.833 -19 49.5 -33s24.334 -30.333 32.001 -49s11.5 -38.334 11.5 -59.001c0 -21.333 -3.83301 -41.333 -11.5 -60s-18.334 -35 -32.001 -49s-30.167 -25.167 -49.5 -33.5s-40.666 -12.5 -63.999 -12.5zM205 414c30 0 53.167 10.333 69.5 31s24.5 45.334 24.5 74.001
s-8.16699 53 -24.5 73s-39.5 30 -69.5 30s-53.333 -10 -70 -30s-25 -44.333 -25 -73s8.33301 -53.334 25 -74.001s40 -31 70 -31z" />
    <glyph glyph-name="plusminus" unicode="&#xb1;" horiz-adv-x="568" 
d="M67 365h185v171h64v-171h184v-60h-184v-171h-64v171h-185v60zM67 60h433v-60h-433v60z" />
    <glyph glyph-name="acute" unicode="&#xb4;" 
d="M116 623l200 123l32 -73l-216 -86z" />
    <glyph glyph-name="paragraph" unicode="&#xb6;" horiz-adv-x="589" 
d="M272 320c-7.33301 -1.33301 -15.166 -2.33301 -23.499 -3s-16.5 -1 -24.5 -1c-26 0 -50.833 3.5 -74.5 10.5s-44.5 17.833 -62.5 32.5s-32.333 33.167 -43 55.5s-16 48.833 -16 79.5c0 25.333 4 48.5 12 69.5s21 38.833 39 53.5s41.667 26 71 34s65.666 12 108.999 12
h299v-39l-75 -18v-721h-60v728h-91v-728h-60v435z" />
    <glyph glyph-name="periodcentered" unicode="&#xb7;" horiz-adv-x="287" 
d="M144 247c-20 0 -36.833 6.5 -50.5 19.5s-20.5 29.5 -20.5 49.5c0 19.333 6.83301 35.666 20.5 48.999s30.5 20 50.5 20c19.333 0 35.833 -6.66699 49.5 -20s20.5 -29.666 20.5 -48.999c0 -20 -6.83301 -36.5 -20.5 -49.5s-30.167 -19.5 -49.5 -19.5z" />
    <glyph glyph-name="cedilla" unicode="&#xb8;" 
d="M160 -188c27.333 2 49.666 4.83105 66.999 8.49805s30.833 7.66699 40.5 12s16.167 9.16602 19.5 14.499s5 11 5 17c0 11.333 -6.5 19.333 -19.5 24s-34.5 7 -64.5 7v105h45v-62c78.667 -2 118 -25 118 -69c0 -12 -2.83301 -23.167 -8.5 -33.5
s-16.167 -19.666 -31.5 -27.999s-36.666 -15.166 -63.999 -20.499s-63 -8.66602 -107 -9.99902v35z" />
    <glyph glyph-name="ordmasculine" unicode="&#xba;" horiz-adv-x="492" 
d="M247 211c-32 0 -61.168 5.5 -87.501 16.5s-49 26.5 -68 46.5s-33.667 44 -44 72s-15.5 59.333 -15.5 94s5.66699 66.334 17 95.001s26.5 53.167 45.5 73.5s41.333 36.166 67 47.499s53.167 17 82.5 17c32 0 61.333 -5.5 88 -16.5s49.5 -26.5 68.5 -46.5
s33.667 -44 44 -72s15.5 -59.333 15.5 -94s-5.66699 -66.334 -17 -95.001s-26.666 -53.167 -45.999 -73.5s-41.833 -36.166 -67.5 -47.499s-53.167 -17 -82.5 -17zM247.999 259c16.667 0 32.5 3.00195 47.5 9.00195s28.167 15.833 39.5 29.5s20.333 31.834 27 54.501
s10 51 10 85c0 35.333 -3.5 65 -10.5 89s-16.5 43.167 -28.5 57.5s-25.667 24.666 -41 30.999s-31.333 9.5 -48 9.5s-32.5 -3 -47.5 -9s-28.167 -15.833 -39.5 -29.5s-20.333 -31.834 -27 -54.501s-10 -51 -10 -85c0 -35.333 3.5 -64.833 10.5 -88.5
s16.5 -42.834 28.5 -57.501s25.667 -25.167 41 -31.5s31.333 -9.5 48 -9.5z" />
    <glyph glyph-name="guillemotright" unicode="&#xbb;" horiz-adv-x="454" 
d="M330 241l-110 217h58l135 -203v-28l-135 -202h-58zM153 241l-110 217h58l135 -203v-28l-135 -202h-58z" />
    <glyph glyph-name="onequarter" unicode="&#xbc;" horiz-adv-x="781" 
d="M40 285l61 11v306l-68 -7v28l118 45h28v-372l60 -11v-30h-199v30zM639 663h62l-514 -728h-61zM611 7h-190v38l201 264h63v-260h64v-42h-64v-106h-74v106zM611 49v182h-3l-134 -179v-3h137z" />
    <glyph glyph-name="onehalf" unicode="&#xbd;" horiz-adv-x="825" 
d="M40 285l61 11v306l-68 -7v28l118 45h28v-372l60 -11v-30h-199v30zM625 663h62l-514 -728h-61zM494 -61l103.999 98.002c30.667 28 54 53.667 70 77s24 50.666 24 81.999c0 52 -28.333 78 -85 78c-7.33301 0 -13.666 -0.166992 -18.999 -0.5s-10.333 -0.833008 -15 -1.5
l-16 -66h-43v87c15.333 7.33301 32.833 13 52.5 17s38.5 6 56.5 6c47.333 0 84 -9.83301 110 -29.5s39 -49.5 39 -89.5c0 -31.333 -12 -61.833 -36 -91.5s-57 -60.834 -99 -93.501l-63 -50v-6h206l-4 -55h-282v38z" />
    <glyph glyph-name="threequarters" unicode="&#xbe;" horiz-adv-x="790" 
d="M149 249c-26.667 0 -49.8311 2.33496 -69.498 7.00195s-36.167 10.667 -49.5 18v38c14 -4.66699 29.167 -8.66699 45.5 -12s33.5 -5 51.5 -5c30 0 53.833 5.83301 71.5 17.5s26.5 31.5 26.5 59.5c0 26.667 -7.66699 45.667 -23 57s-39.333 17 -72 17h-29v43h24
c28 0 50.167 6 66.5 18s24.5 30 24.5 54c0 23.333 -6 40.666 -18 51.999s-31.667 17 -59 17c-7.33301 0 -14 -0.333008 -20 -1s-11.667 -1.33398 -17 -2.00098l-14 -58h-43v81c14 5.33301 30.667 10 50 14s38.666 6 57.999 6c44 0 77.667 -8.66699 101 -26
s35 -42.333 35 -75c0 -24.667 -8 -44.667 -24 -60s-36.333 -26.666 -61 -33.999v-6c13.333 -2 26 -5.5 38 -10.5s22.667 -11.667 32 -20s16.833 -18.5 22.5 -30.5s8.5 -26 8.5 -42c0 -36.667 -13.833 -65.334 -41.5 -86.001s-65.834 -31 -114.501 -31zM655.003 663.002h62
l-514 -728h-61zM620.003 4.00195h-190v38l201 264h63v-260h64v-42h-64v-106h-74v106zM620.003 46.002v182h-3l-134 -179v-3h137z" />
    <glyph glyph-name="questiondown" unicode="&#xbf;" horiz-adv-x="417" 
d="M250 445c-16 0 -29.833 5.66699 -41.5 17s-17.5 24.666 -17.5 39.999s5.83301 28.833 17.5 40.5s25.5 17.5 41.5 17.5s29.667 -5.83301 41 -17.5s17 -25.167 17 -40.5s-5.66699 -28.666 -17 -39.999s-25 -17 -41 -17zM261 -73c9.33301 0 17.668 0.334961 25.001 1.00195
s14.666 1.66699 21.999 3l21 74h54v-103c-22 -8.66699 -45.333 -15.334 -70 -20.001s-52.667 -7 -84 -7c-25.333 0 -49.333 3.16699 -72 9.5s-42.5 16 -59.5 29s-30.5 29.667 -40.5 50s-15 44.833 -15 73.5c0 21.333 2.5 40 7.5 56s12.5 30.833 22.5 44.5
s22.5 26.334 37.5 38.001s32.5 24.167 52.5 37.5l28 17c8.66699 5.33301 16.5 11 23.5 17s12.5 13 16.5 21s6 17.667 6 29c0 8.66699 -0.666992 18.334 -2 29.001s-4 23.667 -8 39h48c4 -8.66699 8.16699 -19.834 12.5 -33.501s6.5 -29.167 6.5 -46.5
c0 -14 -2.16699 -26.333 -6.5 -37s-10.5 -20.834 -18.5 -30.501s-17.833 -19.167 -29.5 -28.5l-39.5 -32c-11.333 -8.66699 -21 -16.834 -29 -24.501s-14.667 -16 -20 -25s-9.33301 -19 -12 -30s-4 -23.833 -4 -38.5c0 -74.667 42.333 -112 127 -112z" />
    <glyph glyph-name="Agrave" unicode="&#xc0;" horiz-adv-x="651" 
d="M212 259h194.999l-54 165c-4.66699 14.667 -9.16699 30.5 -13.5 47.5s-8.16602 32.833 -11.499 47.5l-12 51h-5l-14 -52l-13.5 -47.5c-5 -17 -9.83301 -32.5 -14.5 -46.5zM7.99902 40l67 17l215 606h79l208 -606l66 -17v-40h-247v40l76 17l-50 153h-227l-52 -153l77 -17
v-40h-212v40zM206.999 802l33 77l200 -124l-16 -36z" />
    <glyph glyph-name="Aacute" unicode="&#xc1;" horiz-adv-x="651" 
d="M212 259h194.999l-54 165c-4.66699 14.667 -9.16699 30.5 -13.5 47.5s-8.16602 32.833 -11.499 47.5l-12 51h-5l-14 -52l-13.5 -47.5c-5 -17 -9.83301 -32.5 -14.5 -46.5zM7.99902 40l67 17l215 606h79l208 -606l66 -17v-40h-247v40l76 17l-50 153h-227l-52 -153l77 -17
v-40h-212v40zM216.999 755l200 124l33 -77l-217 -83z" />
    <glyph glyph-name="Acircumflex" unicode="&#xc2;" horiz-adv-x="651" 
d="M212 259h194.999l-54 165c-4.66699 14.667 -9.16699 30.5 -13.5 47.5s-8.16602 32.833 -11.499 47.5l-12 51h-5l-14 -52l-13.5 -47.5c-5 -17 -9.83301 -32.5 -14.5 -46.5zM7.99902 40l67 17l215 606h79l208 -606l66 -17v-40h-247v40l76 17l-50 153h-227l-52 -153l77 -17
v-40h-212v40zM180.999 753l124 118h45l124 -118l-17 -28l-129 73l-130 -73z" />
    <glyph glyph-name="Atilde" unicode="&#xc3;" horiz-adv-x="651" 
d="M212 259h194.999l-54 165c-4.66699 14.667 -9.16699 30.5 -13.5 47.5s-8.16602 32.833 -11.499 47.5l-12 51h-5l-14 -52l-13.5 -47.5c-5 -17 -9.83301 -32.5 -14.5 -46.5zM7.99902 40l67 17l215 606h79l208 -606l66 -17v-40h-247v40l76 17l-50 153h-227l-52 -153l77 -17
v-40h-212v40zM164.999 756c27.333 64.667 61.999 97 103.999 97c10 0 20.667 -2.16699 32 -6.5s22.333 -9 33 -14s20.834 -9.5 30.501 -13.5s17.834 -6 24.501 -6c9.33301 0 19 3.16699 29 9.5s20.667 19.5 32 39.5l39 -17c-27.333 -66 -62 -99 -104 -99
c-10 0 -20.667 2 -32 6s-22.333 8.5 -33 13.5l-30.5 14c-9.66699 4.33301 -17.834 6.5 -24.501 6.5c-9.33301 0 -19 -3 -29 -9s-20.667 -18.667 -32 -38z" />
    <glyph glyph-name="Adieresis" unicode="&#xc4;" horiz-adv-x="651" 
d="M225 735c-15.333 0 -28 5.16699 -38 15.5s-15 22.5 -15 36.5c0 13.333 5 25.166 15 35.499s22.667 15.5 38 15.5s27.833 -5.16699 37.5 -15.5s14.5 -22.166 14.5 -35.499c0 -14 -4.83301 -26.167 -14.5 -36.5s-22.167 -15.5 -37.5 -15.5zM427 735
c-15.333 0 -27.833 5.16699 -37.5 15.5s-14.5 22.5 -14.5 36.5c0 13.333 4.83301 25.166 14.5 35.499s22.167 15.5 37.5 15.5s28 -5.16699 38 -15.5s15 -22.166 15 -35.499c0 -14 -5 -26.167 -15 -36.5s-22.667 -15.5 -38 -15.5zM212 259h194.999l-54 165
c-4.66699 14.667 -9.16699 30.5 -13.5 47.5s-8.16602 32.833 -11.499 47.5l-12 51h-5l-14 -52l-13.5 -47.5c-5 -17 -9.83301 -32.5 -14.5 -46.5zM7.99902 40l67 17l215 606h79l208 -606l66 -17v-40h-247v40l76 17l-50 153h-227l-52 -153l77 -17v-40h-212v40z" />
    <glyph glyph-name="Aring" unicode="&#xc5;" horiz-adv-x="651" 
d="M212 259h194.999l-54 165c-4.66699 14.667 -9.16699 30.5 -13.5 47.5s-8.16602 32.833 -11.499 47.5l-12 51h-5l-14 -52l-13.5 -47.5c-5 -17 -9.83301 -32.5 -14.5 -46.5zM7.99902 40l67 17l215 606h79l208 -606l66 -17v-40h-247v40l76 17l-50 153h-227l-52 -153l77 -17
v-40h-212v40zM326.999 713c-16 0 -31 2.83301 -45 8.5s-26.167 13.5 -36.5 23.5s-18.5 21.5 -24.5 34.5s-9 27.167 -9 42.5c0 14.667 3 28.667 9 42s14.167 25 24.5 35s22.5 17.833 36.5 23.5s29 8.5 45 8.5s30.833 -2.83301 44.5 -8.5s25.667 -13.5 36 -23.5
s18.333 -21.667 24 -35s8.5 -27.333 8.5 -42c0 -15.333 -2.83301 -29.5 -8.5 -42.5s-13.667 -24.5 -24 -34.5s-22.333 -17.833 -36 -23.5s-28.5 -8.5 -44.5 -8.5zM326.999 753c20 0 36 6.16699 48 18.5s18 29.166 18 50.499s-6 38.166 -18 50.499s-28 18.5 -48 18.5
c-20.667 0 -37 -6.16699 -49 -18.5s-18 -29.166 -18 -50.499s6 -38.166 18 -50.499s28.333 -18.5 49 -18.5z" />
    <glyph glyph-name="AE" unicode="&#xc6;" horiz-adv-x="907" 
d="M452 621l-30.499 -60.001l-43.5 -81l-124 -217h195v211c0 17.333 0.166992 34.833 0.5 52.5s1.16602 33.5 2.49902 47.5c0.666992 16.667 1.66699 32.334 3 47.001h-3zM8.00098 39.999l60 17l323 557l-64 10v39h524l10 -164h-46l-41 112h-230v-245h119l26 91h42v-232h-42
l-26 92h-119v-265h239l52 139h46l-12 -191h-506v40l86 17v157h-223l-90 -157l77 -17v-40h-205v40z" />
    <glyph glyph-name="Ccedilla" unicode="&#xc7;" horiz-adv-x="605" 
d="M224 -188c27.333 2 49.4951 4.83496 66.4951 8.50195s30.333 7.66699 40 12s16.167 9.16602 19.5 14.499s5 11 5 17c0 11.333 -6.5 19.333 -19.5 24s-34.5 7 -64.5 7v100c-35.333 6 -67.333 17 -96 33s-53 37.333 -73 64s-35.5 59.167 -46.5 97.5
s-16.5 83.166 -16.5 134.499c0 66 9.16699 121.333 27.5 166s42.833 80.667 73.5 108s65.5 46.833 104.5 58.5s79.5 17.5 121.5 17.5c40.667 0 76.334 -2.33301 107.001 -7s56.334 -10.334 77.001 -17.001l5 -162h-44l-40 109c-12 5.33301 -28.667 10.666 -50 15.999
s-43.666 8 -66.999 8c-72 0 -125.5 -24.333 -160.5 -73s-52.5 -117.334 -52.5 -206.001c0 -97.333 17.333 -171.5 52 -222.5s91.667 -76.5 171 -76.5c23.333 0 44.166 2.5 62.499 7.5s34.5 11.5 48.5 19.5l39 119h47l-6 -167c-24 -10 -52.167 -18 -84.5 -24
s-72.166 -9 -119.499 -9h-16.5c-5 0 -11.167 0.333008 -18.5 1v-52c78.667 -2 118 -25 118 -69c0 -12 -2.83301 -23.167 -8.5 -33.5s-16.167 -19.666 -31.5 -27.999s-36.666 -15.166 -63.999 -20.499s-62.666 -8.66602 -105.999 -9.99902v35z" />
    <glyph glyph-name="Egrave" unicode="&#xc8;" horiz-adv-x="588" 
d="M30 40l87 17v548l-86 19v39h497l11 -164h-47l-41 112h-238v-245h127l27 91h41v-232h-41l-27 92h-127v-265h248l51 139h47l-13 -191h-516v40zM194 802l33 77l200 -124l-16 -36z" />
    <glyph glyph-name="Eacute" unicode="&#xc9;" horiz-adv-x="588" 
d="M30 40l87 17v548l-86 19v39h497l11 -164h-47l-41 112h-238v-245h127l27 91h41v-232h-41l-27 92h-127v-265h248l51 139h47l-13 -191h-516v40zM206 755l200 124l33 -77l-217 -83z" />
    <glyph glyph-name="Ecircumflex" unicode="&#xca;" horiz-adv-x="588" 
d="M30 40l87 17v548l-86 19v39h497l11 -164h-47l-41 112h-238v-245h127l27 91h41v-232h-41l-27 92h-127v-265h248l51 139h47l-13 -191h-516v40zM168 753l124 118h45l124 -118l-17 -28l-129 73l-130 -73z" />
    <glyph glyph-name="Edieresis" unicode="&#xcb;" horiz-adv-x="588" 
d="M30 40l87 17v548l-86 19v39h497l11 -164h-47l-41 112h-238v-245h127l27 91h41v-232h-41l-27 92h-127v-265h248l51 139h47l-13 -191h-516v40zM212 735c-15.333 0 -28 5.16699 -38 15.5s-15 22.5 -15 36.5c0 13.333 5 25.166 15 35.499s22.667 15.5 38 15.5
s27.833 -5.16699 37.5 -15.5s14.5 -22.166 14.5 -35.499c0 -14 -4.83301 -26.167 -14.5 -36.5s-22.167 -15.5 -37.5 -15.5zM414 735c-15.333 0 -27.833 5.16699 -37.5 15.5s-14.5 22.5 -14.5 36.5c0 13.333 4.83301 25.166 14.5 35.499s22.167 15.5 37.5 15.5
s28 -5.16699 38 -15.5s15 -22.166 15 -35.499c0 -14 -5 -26.167 -15 -36.5s-22.667 -15.5 -38 -15.5z" />
    <glyph glyph-name="Igrave" unicode="&#xcc;" horiz-adv-x="326" 
d="M30 40l86 16v550l-86 18v39h266v-39l-83 -18v-550l83 -16v-40h-266v40zM47 802l33 77l200 -124l-16 -36z" />
    <glyph glyph-name="Iacute" unicode="&#xcd;" horiz-adv-x="326" 
d="M30 40l86 16v550l-86 18v39h266v-39l-83 -18v-550l83 -16v-40h-266v40zM55 755l200 124l33 -77l-217 -83z" />
    <glyph glyph-name="Icircumflex" unicode="&#xce;" horiz-adv-x="326" 
d="M30 40l86 16v550l-86 18v39h266v-39l-83 -18v-550l83 -16v-40h-266v40zM19 753l124 118h45l124 -118l-17 -28l-129 73l-130 -73z" />
    <glyph glyph-name="Idieresis" unicode="&#xcf;" horiz-adv-x="326" 
d="M30 40l86 16v550l-86 18v39h266v-39l-83 -18v-550l83 -16v-40h-266v40zM63 735c-15.333 0 -28 5.16699 -38 15.5s-15 22.5 -15 36.5c0 13.333 5 25.166 15 35.499s22.667 15.5 38 15.5s27.833 -5.16699 37.5 -15.5s14.5 -22.166 14.5 -35.499
c0 -14 -4.83301 -26.167 -14.5 -36.5s-22.167 -15.5 -37.5 -15.5zM265 735c-15.333 0 -27.833 5.16699 -37.5 15.5s-14.5 22.5 -14.5 36.5c0 13.333 4.83301 25.166 14.5 35.499s22.167 15.5 37.5 15.5s28 -5.16699 38 -15.5s15 -22.166 15 -35.499
c0 -14 -5 -26.167 -15 -36.5s-22.667 -15.5 -38 -15.5z" />
    <glyph glyph-name="Eth" unicode="&#xd0;" horiz-adv-x="671" 
d="M39 362h78v243l-86 19v39h267c60.667 0 112.167 -7 154.5 -21s77 -34.333 104 -61s46.667 -59.5 59 -98.5s18.5 -83.5 18.5 -133.5c0 -112.667 -26 -199 -78 -259s-134.333 -90 -247 -90h-279v40l87 17v248h-78v57zM311 52c36 0 67.668 4.66895 95.001 14.002
s50.166 25 68.499 47s32.166 51 41.499 87s14 80.667 14 134c0 61.333 -5.5 110.166 -16.5 146.499s-27 64.166 -48 83.499s-46.667 32 -77 38s-65.166 9 -104.499 9h-71v-249h173v-57h-173v-253h98z" />
    <glyph glyph-name="Ntilde" unicode="&#xd1;" horiz-adv-x="706" 
d="M30 38l87 18v549l-87 19v39h215l215 -363c8 -14 16.667 -30 26 -48l25 -50l26 -56h5v458l-86 20v39h228v-38l-76 -20v-605h-76l-266 450c-8.66699 14 -17.5 29.667 -26.5 47l-24.5 49l-26 54h-5v-543l86 -18v-39h-240v38zM214 756c27.333 64.667 61.999 97 103.999 97
c10 0 20.667 -2.16699 32 -6.5s22.333 -9 33 -14s20.834 -9.5 30.501 -13.5s17.834 -6 24.501 -6c9.33301 0 19 3.16699 29 9.5s20.667 19.5 32 39.5l39 -17c-27.333 -66 -62 -99 -104 -99c-10 0 -20.667 2 -32 6s-22.333 8.5 -33 13.5l-30.5 14
c-9.66699 4.33301 -17.834 6.5 -24.501 6.5c-9.33301 0 -19 -3 -29 -9s-20.667 -18.667 -32 -38z" />
    <glyph glyph-name="Ograve" unicode="&#xd2;" horiz-adv-x="682" 
d="M339 -11c-41.333 0 -80.3301 7.33105 -116.997 21.998s-68.5 36.5 -95.5 65.5s-48.333 64.833 -64 107.5s-23.5 92 -23.5 148c0 59.333 8.83301 110.5 26.5 153.5s40.667 78.5 69 106.5s60.666 48.667 96.999 62s73.166 20 110.499 20c42 0 81.167 -7.33301 117.5 -22
s68.166 -36.334 95.499 -65.001s48.833 -64.167 64.5 -106.5s23.5 -91.166 23.5 -146.499c0 -59.333 -8.83301 -110.666 -26.5 -153.999s-40.834 -79.166 -69.501 -107.499s-61.167 -49.333 -97.5 -63s-73.166 -20.5 -110.499 -20.5zM341.003 42.998
c34 0 63.501 6.99805 88.501 20.998s45.833 33.5 62.5 58.5s29 54.5 37 88.5s12 71 12 111c0 97.333 -16.667 171.5 -50 222.5s-84 76.5 -152 76.5c-34 0 -63.5 -7.16699 -88.5 -21.5s-45.667 -34 -62 -59s-28.333 -54.667 -36 -89s-11.5 -71.5 -11.5 -111.5
c0 -44 3.5 -84.167 10.5 -120.5s18.333 -67.666 34 -93.999s36.167 -46.666 61.5 -60.999s56.666 -21.5 93.999 -21.5zM221.004 801.996l33 77l200 -124l-16 -36z" />
    <glyph glyph-name="Oacute" unicode="&#xd3;" horiz-adv-x="682" 
d="M339 -11c-41.333 0 -80.3301 7.33105 -116.997 21.998s-68.5 36.5 -95.5 65.5s-48.333 64.833 -64 107.5s-23.5 92 -23.5 148c0 59.333 8.83301 110.5 26.5 153.5s40.667 78.5 69 106.5s60.666 48.667 96.999 62s73.166 20 110.499 20c42 0 81.167 -7.33301 117.5 -22
s68.166 -36.334 95.499 -65.001s48.833 -64.167 64.5 -106.5s23.5 -91.166 23.5 -146.499c0 -59.333 -8.83301 -110.666 -26.5 -153.999s-40.834 -79.166 -69.501 -107.499s-61.167 -49.333 -97.5 -63s-73.166 -20.5 -110.499 -20.5zM341.003 42.998
c34 0 63.501 6.99805 88.501 20.998s45.833 33.5 62.5 58.5s29 54.5 37 88.5s12 71 12 111c0 97.333 -16.667 171.5 -50 222.5s-84 76.5 -152 76.5c-34 0 -63.5 -7.16699 -88.5 -21.5s-45.667 -34 -62 -59s-28.333 -54.667 -36 -89s-11.5 -71.5 -11.5 -111.5
c0 -44 3.5 -84.167 10.5 -120.5s18.333 -67.666 34 -93.999s36.167 -46.666 61.5 -60.999s56.666 -21.5 93.999 -21.5zM236.004 754.996l200 124l33 -77l-217 -83z" />
    <glyph glyph-name="Ocircumflex" unicode="&#xd4;" horiz-adv-x="682" 
d="M339 -11c-41.333 0 -80.3301 7.33105 -116.997 21.998s-68.5 36.5 -95.5 65.5s-48.333 64.833 -64 107.5s-23.5 92 -23.5 148c0 59.333 8.83301 110.5 26.5 153.5s40.667 78.5 69 106.5s60.666 48.667 96.999 62s73.166 20 110.499 20c42 0 81.167 -7.33301 117.5 -22
s68.166 -36.334 95.499 -65.001s48.833 -64.167 64.5 -106.5s23.5 -91.166 23.5 -146.499c0 -59.333 -8.83301 -110.666 -26.5 -153.999s-40.834 -79.166 -69.501 -107.499s-61.167 -49.333 -97.5 -63s-73.166 -20.5 -110.499 -20.5zM341.003 42.998
c34 0 63.501 6.99805 88.501 20.998s45.833 33.5 62.5 58.5s29 54.5 37 88.5s12 71 12 111c0 97.333 -16.667 171.5 -50 222.5s-84 76.5 -152 76.5c-34 0 -63.5 -7.16699 -88.5 -21.5s-45.667 -34 -62 -59s-28.333 -54.667 -36 -89s-11.5 -71.5 -11.5 -111.5
c0 -44 3.5 -84.167 10.5 -120.5s18.333 -67.666 34 -93.999s36.167 -46.666 61.5 -60.999s56.666 -21.5 93.999 -21.5zM193.004 752.996l124 118h45l124 -118l-17 -28l-129 73l-130 -73z" />
    <glyph glyph-name="Otilde" unicode="&#xd5;" horiz-adv-x="682" 
d="M339 -11c-41.333 0 -80.3301 7.33105 -116.997 21.998s-68.5 36.5 -95.5 65.5s-48.333 64.833 -64 107.5s-23.5 92 -23.5 148c0 59.333 8.83301 110.5 26.5 153.5s40.667 78.5 69 106.5s60.666 48.667 96.999 62s73.166 20 110.499 20c42 0 81.167 -7.33301 117.5 -22
s68.166 -36.334 95.499 -65.001s48.833 -64.167 64.5 -106.5s23.5 -91.166 23.5 -146.499c0 -59.333 -8.83301 -110.666 -26.5 -153.999s-40.834 -79.166 -69.501 -107.499s-61.167 -49.333 -97.5 -63s-73.166 -20.5 -110.499 -20.5zM341.003 42.998
c34 0 63.501 6.99805 88.501 20.998s45.833 33.5 62.5 58.5s29 54.5 37 88.5s12 71 12 111c0 97.333 -16.667 171.5 -50 222.5s-84 76.5 -152 76.5c-34 0 -63.5 -7.16699 -88.5 -21.5s-45.667 -34 -62 -59s-28.333 -54.667 -36 -89s-11.5 -71.5 -11.5 -111.5
c0 -44 3.5 -84.167 10.5 -120.5s18.333 -67.666 34 -93.999s36.167 -46.666 61.5 -60.999s56.666 -21.5 93.999 -21.5zM178.004 755.996c27.333 64.667 61.999 97 103.999 97c10 0 20.667 -2.16699 32 -6.5s22.333 -9 33 -14s20.834 -9.5 30.501 -13.5s17.834 -6 24.501 -6
c9.33301 0 19 3.16699 29 9.5s20.667 19.5 32 39.5l39 -17c-27.333 -66 -62 -99 -104 -99c-10 0 -20.667 2 -32 6s-22.333 8.5 -33 13.5l-30.5 14c-9.66699 4.33301 -17.834 6.5 -24.501 6.5c-9.33301 0 -19 -3 -29 -9s-20.667 -18.667 -32 -38z" />
    <glyph glyph-name="Odieresis" unicode="&#xd6;" horiz-adv-x="682" 
d="M339 -11c-41.333 0 -80.3301 7.33105 -116.997 21.998s-68.5 36.5 -95.5 65.5s-48.333 64.833 -64 107.5s-23.5 92 -23.5 148c0 59.333 8.83301 110.5 26.5 153.5s40.667 78.5 69 106.5s60.666 48.667 96.999 62s73.166 20 110.499 20c42 0 81.167 -7.33301 117.5 -22
s68.166 -36.334 95.499 -65.001s48.833 -64.167 64.5 -106.5s23.5 -91.166 23.5 -146.499c0 -59.333 -8.83301 -110.666 -26.5 -153.999s-40.834 -79.166 -69.501 -107.499s-61.167 -49.333 -97.5 -63s-73.166 -20.5 -110.499 -20.5zM341.003 42.998
c34 0 63.501 6.99805 88.501 20.998s45.833 33.5 62.5 58.5s29 54.5 37 88.5s12 71 12 111c0 97.333 -16.667 171.5 -50 222.5s-84 76.5 -152 76.5c-34 0 -63.5 -7.16699 -88.5 -21.5s-45.667 -34 -62 -59s-28.333 -54.667 -36 -89s-11.5 -71.5 -11.5 -111.5
c0 -44 3.5 -84.167 10.5 -120.5s18.333 -67.666 34 -93.999s36.167 -46.666 61.5 -60.999s56.666 -21.5 93.999 -21.5zM239.004 734.996c-15.333 0 -28 5.16699 -38 15.5s-15 22.5 -15 36.5c0 13.333 5 25.166 15 35.499s22.667 15.5 38 15.5s27.833 -5.16699 37.5 -15.5
s14.5 -22.166 14.5 -35.499c0 -14 -4.83301 -26.167 -14.5 -36.5s-22.167 -15.5 -37.5 -15.5zM441.004 734.996c-15.333 0 -27.833 5.16699 -37.5 15.5s-14.5 22.5 -14.5 36.5c0 13.333 4.83301 25.166 14.5 35.499s22.167 15.5 37.5 15.5s28 -5.16699 38 -15.5
s15 -22.166 15 -35.499c0 -14 -5 -26.167 -15 -36.5s-22.667 -15.5 -38 -15.5z" />
    <glyph glyph-name="multiply" unicode="&#xd7;" horiz-adv-x="559" 
d="M80 156l157 156l-157 155l42 43l158 -157l156 156l42 -43l-156 -154l157 -156l-42 -42l-157 156l-158 -156z" />
    <glyph glyph-name="Oslash" unicode="&#xd8;" horiz-adv-x="682" 
d="M140 340c0 -38 1.49902 -72.668 4.49902 -104.001s9.16699 -58.666 18.5 -81.999l327 402c-31.333 43.333 -81.666 65 -150.999 65c-34 0 -63.5 -7.16699 -88.5 -21.5s-45.667 -34 -62 -59s-28.5 -54.667 -36.5 -89s-12 -71.5 -12 -111.5zM340.999 42.999
c34 0 63.6689 7.00098 89.002 21.001s46.166 33.5 62.499 58.5s28.666 54.5 36.999 88.5s12.5 71 12.5 111c0 38 -1.83301 72.167 -5.5 102.5s-10.167 57.166 -19.5 80.499l-327 -402c16 -20 36.167 -35 60.5 -45s54.5 -15 90.5 -15zM339.001 -11
c-36 0 -69.998 5.49805 -101.998 16.498s-60.667 27.167 -86 48.5l-69 -84l-42 32l73 90c-23.333 29.333 -41.5 63.833 -54.5 103.5s-19.5 85.167 -19.5 136.5c0 59.333 8.83301 110.5 26.5 153.5s40.667 78.5 69 106.5s60.666 48.667 96.999 62s73.166 20 110.499 20
c74 0 137.667 -22 191 -66l61 76l43 -33l-67 -82c22.667 -28 40.5 -61.667 53.5 -101s19.5 -84 19.5 -134c0 -59.333 -8.83301 -110.666 -26.5 -153.999s-40.834 -79.166 -69.501 -107.499s-61.167 -49.333 -97.5 -63s-73.166 -20.5 -110.499 -20.5z" />
    <glyph glyph-name="Ugrave" unicode="&#xd9;" horiz-adv-x="674" 
d="M342 -13c-82 0 -143.5 19.667 -184.5 59s-61.5 91 -61.5 155v405l-84 18v39h266v-39l-85 -18v-388c0 -59.333 14.167 -102.333 42.5 -129s68.833 -40 121.5 -40c54 0 95.167 13.333 123.5 40s42.5 70 42.5 130v386l-86 18v40h225v-39l-73 -18v-395
c0 -68.667 -21.333 -123.167 -64 -163.5s-103.667 -60.5 -183 -60.5zM237 802l33 77l200 -124l-16 -36z" />
    <glyph glyph-name="Uacute" unicode="&#xda;" horiz-adv-x="674" 
d="M342 -13c-82 0 -143.5 19.667 -184.5 59s-61.5 91 -61.5 155v405l-84 18v39h266v-39l-85 -18v-388c0 -59.333 14.167 -102.333 42.5 -129s68.833 -40 121.5 -40c54 0 95.167 13.333 123.5 40s42.5 70 42.5 130v386l-86 18v40h225v-39l-73 -18v-395
c0 -68.667 -21.333 -123.167 -64 -163.5s-103.667 -60.5 -183 -60.5zM251 755l200 124l33 -77l-217 -83z" />
    <glyph glyph-name="Ucircumflex" unicode="&#xdb;" horiz-adv-x="674" 
d="M342 -13c-82 0 -143.5 19.667 -184.5 59s-61.5 91 -61.5 155v405l-84 18v39h266v-39l-85 -18v-388c0 -59.333 14.167 -102.333 42.5 -129s68.833 -40 121.5 -40c54 0 95.167 13.333 123.5 40s42.5 70 42.5 130v386l-86 18v40h225v-39l-73 -18v-395
c0 -68.667 -21.333 -123.167 -64 -163.5s-103.667 -60.5 -183 -60.5zM210 753l124 118h45l124 -118l-17 -28l-129 73l-130 -73z" />
    <glyph glyph-name="Udieresis" unicode="&#xdc;" horiz-adv-x="674" 
d="M342 -13c-82 0 -143.5 19.667 -184.5 59s-61.5 91 -61.5 155v405l-84 18v39h266v-39l-85 -18v-388c0 -59.333 14.167 -102.333 42.5 -129s68.833 -40 121.5 -40c54 0 95.167 13.333 123.5 40s42.5 70 42.5 130v386l-86 18v40h225v-39l-73 -18v-395
c0 -68.667 -21.333 -123.167 -64 -163.5s-103.667 -60.5 -183 -60.5zM254 735c-15.333 0 -28 5.16699 -38 15.5s-15 22.5 -15 36.5c0 13.333 5 25.166 15 35.499s22.667 15.5 38 15.5s27.833 -5.16699 37.5 -15.5s14.5 -22.166 14.5 -35.499
c0 -14 -4.83301 -26.167 -14.5 -36.5s-22.167 -15.5 -37.5 -15.5zM456 735c-15.333 0 -27.833 5.16699 -37.5 15.5s-14.5 22.5 -14.5 36.5c0 13.333 4.83301 25.166 14.5 35.499s22.167 15.5 37.5 15.5s28 -5.16699 38 -15.5s15 -22.166 15 -35.499
c0 -14 -5 -26.167 -15 -36.5s-22.667 -15.5 -38 -15.5z" />
    <glyph glyph-name="Yacute" unicode="&#xdd;" horiz-adv-x="610" 
d="M178 40l85 17v230l-193 318l-59 19v39h230v-39l-66 -19l154 -266h4l142 266l-71 19v39h195v-39l-58 -19l-181 -320v-228l83 -17v-40h-265v40zM221 755l200 124l33 -77l-217 -83z" />
    <glyph glyph-name="Thorn" unicode="&#xde;" horiz-adv-x="562" 
d="M213 230c13.333 -2.66699 27.166 -4.5 41.499 -5.5s30.833 -1.5 49.5 -1.5c46.667 0 80.834 9.83301 102.501 29.5s32.5 50.5 32.5 92.5c0 44.667 -10 77 -30 97s-53.333 30 -100 30h-96v-242zM30 40l85.999 17v548l-86 19v39h277v-39l-94 -19v-77h86
c44.667 0 82.5 -4.33301 113.5 -13s55.833 -20.667 74.5 -36s32.167 -33.833 40.5 -55.5s12.5 -45.5 12.5 -71.5c0 -31.333 -5.5 -58.5 -16.5 -81.5s-26.333 -41.833 -46 -56.5s-43 -25.5 -70 -32.5s-56.833 -10.5 -89.5 -10.5c-24 0 -44.167 1 -60.5 3s-31.166 4 -44.499 6
v-123l94 -17v-40h-277v40z" />
    <glyph glyph-name="germandbls" unicode="&#xdf;" horiz-adv-x="599" 
d="M396 -13c-23.333 0 -46.166 2.16895 -68.499 6.50195s-41.5 9.83301 -57.5 16.5l-7 104h47l24 -62c8 -3.33301 17 -6.16602 27 -8.49902s22 -3.5 36 -3.5c27.333 0 48.666 5.66699 63.999 17s23 28.666 23 51.999c0 22 -6.66699 39.167 -20 51.5s-30 24.166 -50 35.499
l-42 24c-12 6.66699 -23.333 13.5 -34 20.5s-20.167 14.833 -28.5 23.5s-15 18.667 -20 30s-7.5 25 -7.5 41c0 15.333 3.33301 30 10 44s15 27.667 25 41s21 26.666 33 39.999s23 27 33 41s18.333 28.333 25 43s10 30.334 10 47.001c0 28 -8 50.167 -24 66.5
s-40 24.5 -72 24.5c-25.333 0 -46.666 -4.16699 -63.999 -12.5s-31.333 -19.5 -42 -33.5s-18.334 -30.5 -23.001 -49.5s-7 -39.167 -7 -60.5v-526h-160v32l72 16v386h-69v39l69 24v41c0 27.333 5.5 53 16.5 77s26.167 44.833 45.5 62.5s42.666 31.5 69.999 41.5
s57.666 15 90.999 15c26.667 0 51.334 -3 74.001 -9s42.167 -14.833 58.5 -26.5s29 -25.834 38 -42.501s13.5 -35.334 13.5 -56.001c0 -26.667 -7.66699 -51.667 -23 -75s-32.166 -44.833 -50.499 -64.5l-50.5 -54c-15.333 -16.333 -23 -30.833 -23 -43.5
c0 -14.667 4 -26.167 12 -34.5s22.667 -18.5 44 -30.5l42 -24c14 -8 27.5 -16.167 40.5 -24.5s24.5 -17.833 34.5 -28.5s18 -23.167 24 -37.5s9 -31.166 9 -50.499c0 -20 -3.5 -38.833 -10.5 -56.5s-17.5 -33.167 -31.5 -46.5s-31.5 -23.833 -52.5 -31.5
s-45.5 -11.5 -73.5 -11.5z" />
    <glyph glyph-name="agrave" unicode="&#xe0;" horiz-adv-x="489" 
d="M213 47c20 0 38.668 3.83301 56.001 11.5s30.666 15.5 39.999 23.5v165l-97 -13c-32 -4.66699 -55.167 -15.5 -69.5 -32.5s-21.5 -38.833 -21.5 -65.5c0 -28 7.33301 -49.833 22 -65.5s38 -23.5 70 -23.5zM397.001 74c0 -15.333 4.16602 -24.8369 12.499 -28.5039
s19.833 -5.5 34.5 -5.5h31v-33c-8.66699 -2.66699 -20.667 -6 -36 -10s-31.666 -6 -48.999 -6c-19.333 0 -35.333 3.83301 -48 11.5s-20.667 20.5 -24 38.5h-5c-13.333 -13.333 -30.666 -25.666 -51.999 -36.999s-48 -17 -80 -17c-44 0 -80.167 12.167 -108.5 36.5
s-42.5 58.833 -42.5 103.5c0 22 3.83301 40.833 11.5 56.5s18.5 29.334 32.5 41.001s30.333 21.334 49 29.001s39 14.5 61 20.5l125 33v27c0 16 -1.16699 30.333 -3.5 43s-7.5 23.167 -15.5 31.5s-19.333 14.666 -34 18.999s-34.334 6.5 -59.001 6.5
c-20 0 -42.167 -1.16699 -66.5 -3.5s-44.5 -5.16602 -60.5 -8.49902v44c20 8.66699 45.5 16.5 76.5 23.5s62.5 10.5 94.5 10.5c54 0 93.5 -12.667 118.5 -38s37.5 -59.666 37.5 -102.999v-285zM105 672.996l32 73l200 -123l-16 -36z" />
    <glyph glyph-name="aacute" unicode="&#xe1;" horiz-adv-x="489" 
d="M213 47c20 0 38.668 3.83301 56.001 11.5s30.666 15.5 39.999 23.5v165l-97 -13c-32 -4.66699 -55.167 -15.5 -69.5 -32.5s-21.5 -38.833 -21.5 -65.5c0 -28 7.33301 -49.833 22 -65.5s38 -23.5 70 -23.5zM397.001 74c0 -15.333 4.16602 -24.8369 12.499 -28.5039
s19.833 -5.5 34.5 -5.5h31v-33c-8.66699 -2.66699 -20.667 -6 -36 -10s-31.666 -6 -48.999 -6c-19.333 0 -35.333 3.83301 -48 11.5s-20.667 20.5 -24 38.5h-5c-13.333 -13.333 -30.666 -25.666 -51.999 -36.999s-48 -17 -80 -17c-44 0 -80.167 12.167 -108.5 36.5
s-42.5 58.833 -42.5 103.5c0 22 3.83301 40.833 11.5 56.5s18.5 29.334 32.5 41.001s30.333 21.334 49 29.001s39 14.5 61 20.5l125 33v27c0 16 -1.16699 30.333 -3.5 43s-7.5 23.167 -15.5 31.5s-19.333 14.666 -34 18.999s-34.334 6.5 -59.001 6.5
c-20 0 -42.167 -1.16699 -66.5 -3.5s-44.5 -5.16602 -60.5 -8.49902v44c20 8.66699 45.5 16.5 76.5 23.5s62.5 10.5 94.5 10.5c54 0 93.5 -12.667 118.5 -38s37.5 -59.666 37.5 -102.999v-285zM126 622.996l200 123l32 -73l-216 -86z" />
    <glyph glyph-name="acircumflex" unicode="&#xe2;" horiz-adv-x="489" 
d="M213 47c20 0 38.668 3.83301 56.001 11.5s30.666 15.5 39.999 23.5v165l-97 -13c-32 -4.66699 -55.167 -15.5 -69.5 -32.5s-21.5 -38.833 -21.5 -65.5c0 -28 7.33301 -49.833 22 -65.5s38 -23.5 70 -23.5zM397.001 74c0 -15.333 4.16602 -24.8369 12.499 -28.5039
s19.833 -5.5 34.5 -5.5h31v-33c-8.66699 -2.66699 -20.667 -6 -36 -10s-31.666 -6 -48.999 -6c-19.333 0 -35.333 3.83301 -48 11.5s-20.667 20.5 -24 38.5h-5c-13.333 -13.333 -30.666 -25.666 -51.999 -36.999s-48 -17 -80 -17c-44 0 -80.167 12.167 -108.5 36.5
s-42.5 58.833 -42.5 103.5c0 22 3.83301 40.833 11.5 56.5s18.5 29.334 32.5 41.001s30.333 21.334 49 29.001s39 14.5 61 20.5l125 33v27c0 16 -1.16699 30.333 -3.5 43s-7.5 23.167 -15.5 31.5s-19.333 14.666 -34 18.999s-34.334 6.5 -59.001 6.5
c-20 0 -42.167 -1.16699 -66.5 -3.5s-44.5 -5.16602 -60.5 -8.49902v44c20 8.66699 45.5 16.5 76.5 23.5s62.5 10.5 94.5 10.5c54 0 93.5 -12.667 118.5 -38s37.5 -59.666 37.5 -102.999v-285zM86 614.996l124 135h45l124 -135l-20 -27l-127 88l-126 -88z" />
    <glyph glyph-name="atilde" unicode="&#xe3;" horiz-adv-x="489" 
d="M213 47c20 0 38.668 3.83301 56.001 11.5s30.666 15.5 39.999 23.5v165l-97 -13c-32 -4.66699 -55.167 -15.5 -69.5 -32.5s-21.5 -38.833 -21.5 -65.5c0 -28 7.33301 -49.833 22 -65.5s38 -23.5 70 -23.5zM397.001 74c0 -15.333 4.16602 -24.8369 12.499 -28.5039
s19.833 -5.5 34.5 -5.5h31v-33c-8.66699 -2.66699 -20.667 -6 -36 -10s-31.666 -6 -48.999 -6c-19.333 0 -35.333 3.83301 -48 11.5s-20.667 20.5 -24 38.5h-5c-13.333 -13.333 -30.666 -25.666 -51.999 -36.999s-48 -17 -80 -17c-44 0 -80.167 12.167 -108.5 36.5
s-42.5 58.833 -42.5 103.5c0 22 3.83301 40.833 11.5 56.5s18.5 29.334 32.5 41.001s30.333 21.334 49 29.001s39 14.5 61 20.5l125 33v27c0 16 -1.16699 30.333 -3.5 43s-7.5 23.167 -15.5 31.5s-19.333 14.666 -34 18.999s-34.334 6.5 -59.001 6.5
c-20 0 -42.167 -1.16699 -66.5 -3.5s-44.5 -5.16602 -60.5 -8.49902v44c20 8.66699 45.5 16.5 76.5 23.5s62.5 10.5 94.5 10.5c54 0 93.5 -12.667 118.5 -38s37.5 -59.666 37.5 -102.999v-285zM65 618.996c27.333 64 62 96 104 96c10 0 20.667 -2 32 -6
s22.333 -8.5 33 -13.5s20.834 -9.5 30.501 -13.5s17.834 -6 24.501 -6c9.33301 0 19 3.16699 29 9.5s20.667 19.5 32 39.5l39 -18c-28 -65.333 -62.667 -98 -104 -98c-10 0 -20.667 2 -32 6s-22.333 8.5 -33 13.5s-20.834 9.5 -30.501 13.5s-17.834 6 -24.501 6
c-9.33301 0 -19 -3 -29 -9s-20.667 -18.667 -32 -38z" />
    <glyph glyph-name="adieresis" unicode="&#xe4;" horiz-adv-x="489" 
d="M213 47c20 0 38.668 3.83301 56.001 11.5s30.666 15.5 39.999 23.5v165l-97 -13c-32 -4.66699 -55.167 -15.5 -69.5 -32.5s-21.5 -38.833 -21.5 -65.5c0 -28 7.33301 -49.833 22 -65.5s38 -23.5 70 -23.5zM397.001 74c0 -15.333 4.16602 -24.8369 12.499 -28.5039
s19.833 -5.5 34.5 -5.5h31v-33c-8.66699 -2.66699 -20.667 -6 -36 -10s-31.666 -6 -48.999 -6c-19.333 0 -35.333 3.83301 -48 11.5s-20.667 20.5 -24 38.5h-5c-13.333 -13.333 -30.666 -25.666 -51.999 -36.999s-48 -17 -80 -17c-44 0 -80.167 12.167 -108.5 36.5
s-42.5 58.833 -42.5 103.5c0 22 3.83301 40.833 11.5 56.5s18.5 29.334 32.5 41.001s30.333 21.334 49 29.001s39 14.5 61 20.5l125 33v27c0 16 -1.16699 30.333 -3.5 43s-7.5 23.167 -15.5 31.5s-19.333 14.666 -34 18.999s-34.334 6.5 -59.001 6.5
c-20 0 -42.167 -1.16699 -66.5 -3.5s-44.5 -5.16602 -60.5 -8.49902v44c20 8.66699 45.5 16.5 76.5 23.5s62.5 10.5 94.5 10.5c54 0 93.5 -12.667 118.5 -38s37.5 -59.666 37.5 -102.999v-285zM135 601.996c-15.333 0 -27.833 5.16699 -37.5 15.5s-14.5 22.5 -14.5 36.5
c0 13.333 4.83301 25.166 14.5 35.499s22.167 15.5 37.5 15.5s28 -5.16699 38 -15.5s15 -22.166 15 -35.499c0 -14 -5 -26.167 -15 -36.5s-22.667 -15.5 -38 -15.5zM329 601.996c-15.333 0 -28 5.16699 -38 15.5s-15 22.5 -15 36.5c0 13.333 5 25.166 15 35.499
s22.667 15.5 38 15.5s27.833 -5.16699 37.5 -15.5s14.5 -22.166 14.5 -35.499c0 -14 -4.83301 -26.167 -14.5 -36.5s-22.167 -15.5 -37.5 -15.5z" />
    <glyph glyph-name="aring" unicode="&#xe5;" horiz-adv-x="489" 
d="M213 47c20 0 38.668 3.83301 56.001 11.5s30.666 15.5 39.999 23.5v165l-97 -13c-32 -4.66699 -55.167 -15.5 -69.5 -32.5s-21.5 -38.833 -21.5 -65.5c0 -28 7.33301 -49.833 22 -65.5s38 -23.5 70 -23.5zM397.001 74c0 -15.333 4.16602 -24.8369 12.499 -28.5039
s19.833 -5.5 34.5 -5.5h31v-33c-8.66699 -2.66699 -20.667 -6 -36 -10s-31.666 -6 -48.999 -6c-19.333 0 -35.333 3.83301 -48 11.5s-20.667 20.5 -24 38.5h-5c-13.333 -13.333 -30.666 -25.666 -51.999 -36.999s-48 -17 -80 -17c-44 0 -80.167 12.167 -108.5 36.5
s-42.5 58.833 -42.5 103.5c0 22 3.83301 40.833 11.5 56.5s18.5 29.334 32.5 41.001s30.333 21.334 49 29.001s39 14.5 61 20.5l125 33v27c0 16 -1.16699 30.333 -3.5 43s-7.5 23.167 -15.5 31.5s-19.333 14.666 -34 18.999s-34.334 6.5 -59.001 6.5
c-20 0 -42.167 -1.16699 -66.5 -3.5s-44.5 -5.16602 -60.5 -8.49902v44c20 8.66699 45.5 16.5 76.5 23.5s62.5 10.5 94.5 10.5c54 0 93.5 -12.667 118.5 -38s37.5 -59.666 37.5 -102.999v-285zM233 574.996c-16 0 -31 2.83301 -45 8.5s-26.167 13.334 -36.5 23.001
s-18.5 21.167 -24.5 34.5s-9 27.666 -9 42.999c0 14.667 3 28.667 9 42s14.167 25 24.5 35s22.5 17.833 36.5 23.5s29 8.5 45 8.5s30.833 -2.83301 44.5 -8.5s25.667 -13.5 36 -23.5s18.333 -21.667 24 -35s8.5 -27.333 8.5 -42c0 -15.333 -2.83301 -29.666 -8.5 -42.999
s-13.667 -24.833 -24 -34.5s-22.333 -17.334 -36 -23.001s-28.5 -8.5 -44.5 -8.5zM233 614.996c20 0 36 6.16699 48 18.5s18 29.166 18 50.499s-6 38 -18 50s-28 18 -48 18c-20.667 0 -37 -6 -49 -18s-18 -28.667 -18 -50s6 -38.166 18 -50.499s28.333 -18.5 49 -18.5z" />
    <glyph glyph-name="ae" unicode="&#xe6;" horiz-adv-x="768" 
d="M339 105c-8.66699 17.333 -15.168 36.167 -19.501 56.5s-7.16602 42.166 -8.49902 65.499l-98 -6c-34 -2.66699 -57.833 -11.5 -71.5 -26.5s-20.5 -35.167 -20.5 -60.5s7.83301 -46.166 23.5 -62.499s39.5 -24.5 71.5 -24.5c19.333 0 39.333 4.5 60 13.5
s41.667 23.833 63 44.5zM627.999 290.001c0 57.333 -8.5 98.167 -25.5 122.5s-43.5 36.5 -79.5 36.5c-38.667 0 -68.5 -12.5 -89.5 -37.5s-33.167 -65.5 -36.5 -121.5h231zM240.999 500.002c37.333 0 66.5 -6.16895 87.5 -18.502s36.167 -31.166 45.5 -56.499
c17.333 24.667 39.333 43.334 66 56.001s56.334 19 89.001 19c36 0 66.667 -6 92 -18s46 -29.167 62 -51.5s27.667 -49.333 35 -81s11 -67.5 11 -107.5h-332c2 -63.333 17.167 -111 45.5 -143s68.166 -48 119.499 -48c35.333 0 63.833 3 85.5 9s41.5 13.333 59.5 22v-43
c-16 -11.333 -37 -22.5 -63 -33.5s-59.333 -16.5 -100 -16.5c-46 0 -83.5 7.33301 -112.5 22s-53.167 35 -72.5 61c-8.66699 -11.333 -19.167 -22 -31.5 -32s-26 -19 -41 -27s-31.167 -14.333 -48.5 -19s-35.333 -7 -54 -7c-22 0 -42.333 3.33301 -61 10s-35 16 -49 28
s-24.833 26.5 -32.5 43.5s-11.5 35.833 -11.5 56.5c0 21.333 3.83301 39.5 11.5 54.5s18.334 27.667 32.001 38s30 18.666 49 24.999s39.833 11.833 62.5 16.5l124 24v48c0 19.333 -1.16699 35.5 -3.5 48.5s-7.5 23.5 -15.5 31.5s-19.333 13.833 -34 17.5
s-34.334 5.5 -59.001 5.5c-20 0 -42.167 -1.16699 -66.5 -3.5s-44.5 -5.16602 -60.5 -8.49902v44c20 8.66699 45.5 16.5 76.5 23.5s62.5 10.5 94.5 10.5z" />
    <glyph glyph-name="ccedilla" unicode="&#xe7;" horiz-adv-x="459" 
d="M148 -188c27.333 2 49.666 4.8291 66.999 8.49609s30.833 7.66699 40.5 12s16.167 9.16602 19.5 14.499s5 11 5 17c0 11.333 -6.5 19.333 -19.5 24s-34.5 7 -64.5 7v104c-52 14.667 -91.667 43 -119 85s-41 94.333 -41 157c0 46.667 7 86.334 21 119.001
s32.667 59.334 56 80.001s50.666 35.834 81.999 45.501s64.666 14.5 99.999 14.5c23.333 0 46.166 -1.66699 68.499 -5s42.5 -8 60.5 -14v-123h-50l-20 81c-7.33301 2.66699 -15.666 4.83398 -24.999 6.50098s-24.333 2.5 -45 2.5c-48 0 -86.167 -16 -114.5 -48
s-42.5 -81.333 -42.5 -148c0 -38 4.5 -69.667 13.5 -95s21.333 -45.833 37 -61.5s34 -26.834 55 -33.501s43.5 -10 67.5 -10c34 0 61.833 2.66699 83.5 8s38.167 10.666 49.5 15.999v-44c-15.333 -11.333 -35.666 -21.333 -60.999 -30s-57.666 -13 -96.999 -13
c-6 0 -11.833 0.166992 -17.5 0.5s-11.167 0.833008 -16.5 1.5v-53c78.667 -2 118 -25 118 -69c0 -12 -2.83301 -23.167 -8.5 -33.5s-16.167 -19.666 -31.5 -27.999s-36.666 -15.166 -63.999 -20.499s-63 -8.66602 -107 -9.99902v35z" />
    <glyph glyph-name="egrave" unicode="&#xe8;" horiz-adv-x="499" 
d="M277 -11c-42 0 -78.334 6.5 -109.001 19.5s-55.667 31 -75 54s-33.666 50.333 -42.999 82s-14 66.5 -14 104.5c0 39.333 5.83301 74.5 17.5 105.5s27.834 57.333 48.501 79s44.667 38.167 72 49.5s56.666 17 87.999 17c36 0 66.833 -6 92.5 -18s46.667 -29.167 63 -51.5
s28.333 -49.333 36 -81s11.5 -67.5 11.5 -107.5h-338c2.66699 -63.333 18.5 -111 47.5 -143s69.167 -48 120.5 -48c36 0 65.167 3 87.5 9s42.5 13.333 60.5 22v-43c-16 -11.333 -37.333 -22.5 -64 -33.5s-60.667 -16.5 -102 -16.5zM363.999 290
c0 57.333 -8.83301 98.167 -26.5 122.5s-44.5 36.5 -80.5 36.5c-39.333 0 -70 -12.5 -92 -37.5s-34.667 -65.5 -38 -121.5h237zM135.999 673.001l32 73l200 -123l-16 -36z" />
    <glyph glyph-name="eacute" unicode="&#xe9;" horiz-adv-x="499" 
d="M277 -11c-42 0 -78.334 6.5 -109.001 19.5s-55.667 31 -75 54s-33.666 50.333 -42.999 82s-14 66.5 -14 104.5c0 39.333 5.83301 74.5 17.5 105.5s27.834 57.333 48.501 79s44.667 38.167 72 49.5s56.666 17 87.999 17c36 0 66.833 -6 92.5 -18s46.667 -29.167 63 -51.5
s28.333 -49.333 36 -81s11.5 -67.5 11.5 -107.5h-338c2.66699 -63.333 18.5 -111 47.5 -143s69.167 -48 120.5 -48c36 0 65.167 3 87.5 9s42.5 13.333 60.5 22v-43c-16 -11.333 -37.333 -22.5 -64 -33.5s-60.667 -16.5 -102 -16.5zM363.999 290
c0 57.333 -8.83301 98.167 -26.5 122.5s-44.5 36.5 -80.5 36.5c-39.333 0 -70 -12.5 -92 -37.5s-34.667 -65.5 -38 -121.5h237zM155.999 623.001l200 123l32 -73l-216 -86z" />
    <glyph glyph-name="ecircumflex" unicode="&#xea;" horiz-adv-x="499" 
d="M277 -11c-42 0 -78.334 6.5 -109.001 19.5s-55.667 31 -75 54s-33.666 50.333 -42.999 82s-14 66.5 -14 104.5c0 39.333 5.83301 74.5 17.5 105.5s27.834 57.333 48.501 79s44.667 38.167 72 49.5s56.666 17 87.999 17c36 0 66.833 -6 92.5 -18s46.667 -29.167 63 -51.5
s28.333 -49.333 36 -81s11.5 -67.5 11.5 -107.5h-338c2.66699 -63.333 18.5 -111 47.5 -143s69.167 -48 120.5 -48c36 0 65.167 3 87.5 9s42.5 13.333 60.5 22v-43c-16 -11.333 -37.333 -22.5 -64 -33.5s-60.667 -16.5 -102 -16.5zM363.999 290
c0 57.333 -8.83301 98.167 -26.5 122.5s-44.5 36.5 -80.5 36.5c-39.333 0 -70 -12.5 -92 -37.5s-34.667 -65.5 -38 -121.5h237zM115.999 615.001l124 135h45l124 -135l-20 -27l-127 88l-126 -88z" />
    <glyph glyph-name="edieresis" unicode="&#xeb;" horiz-adv-x="499" 
d="M277 -11c-42 0 -78.334 6.5 -109.001 19.5s-55.667 31 -75 54s-33.666 50.333 -42.999 82s-14 66.5 -14 104.5c0 39.333 5.83301 74.5 17.5 105.5s27.834 57.333 48.501 79s44.667 38.167 72 49.5s56.666 17 87.999 17c36 0 66.833 -6 92.5 -18s46.667 -29.167 63 -51.5
s28.333 -49.333 36 -81s11.5 -67.5 11.5 -107.5h-338c2.66699 -63.333 18.5 -111 47.5 -143s69.167 -48 120.5 -48c36 0 65.167 3 87.5 9s42.5 13.333 60.5 22v-43c-16 -11.333 -37.333 -22.5 -64 -33.5s-60.667 -16.5 -102 -16.5zM363.999 290
c0 57.333 -8.83301 98.167 -26.5 122.5s-44.5 36.5 -80.5 36.5c-39.333 0 -70 -12.5 -92 -37.5s-34.667 -65.5 -38 -121.5h237zM164.999 602.001c-15.333 0 -27.833 5.16699 -37.5 15.5s-14.5 22.5 -14.5 36.5c0 13.333 4.83301 25.166 14.5 35.499s22.167 15.5 37.5 15.5
s28 -5.16699 38 -15.5s15 -22.166 15 -35.499c0 -14 -5 -26.167 -15 -36.5s-22.667 -15.5 -38 -15.5zM358.999 602.001c-15.333 0 -28 5.16699 -38 15.5s-15 22.5 -15 36.5c0 13.333 5 25.166 15 35.499s22.667 15.5 38 15.5s27.833 -5.16699 37.5 -15.5
s14.5 -22.166 14.5 -35.499c0 -14 -4.83301 -26.167 -14.5 -36.5s-22.167 -15.5 -37.5 -15.5z" />
    <glyph glyph-name="igrave" unicode="&#xec;" horiz-adv-x="282" 
d="M26 32l72 16v376l-78 15v37l156 23l10 -6v-445l73 -16v-32h-233v32zM4 673l32 73l200 -123l-16 -36z" />
    <glyph glyph-name="iacute" unicode="&#xed;" horiz-adv-x="282" 
d="M26 32l72 16v376l-78 15v37l156 23l10 -6v-445l73 -16v-32h-233v32zM33 623l200 123l32 -73l-216 -86z" />
    <glyph glyph-name="icircumflex" unicode="&#xee;" horiz-adv-x="282" 
d="M26 32l72 16v376l-78 15v37l156 23l10 -6v-445l73 -16v-32h-233v32zM-6 615l124 135h45l124 -135l-20 -27l-127 88l-126 -88z" />
    <glyph glyph-name="idieresis" unicode="&#xef;" horiz-adv-x="282" 
d="M26 32l72 16v376l-78 15v37l156 23l10 -6v-445l73 -16v-32h-233v32zM36 602c-15.333 0 -27.833 5.16699 -37.5 15.5s-14.5 22.5 -14.5 36.5c0 13.333 4.83301 25.166 14.5 35.499s22.167 15.5 37.5 15.5s28 -5.16699 38 -15.5s15 -22.166 15 -35.499
c0 -14 -5 -26.167 -15 -36.5s-22.667 -15.5 -38 -15.5zM230 602c-15.333 0 -28 5.16699 -38 15.5s-15 22.5 -15 36.5c0 13.333 5 25.166 15 35.499s22.667 15.5 38 15.5s27.833 -5.16699 37.5 -15.5s14.5 -22.166 14.5 -35.499c0 -14 -4.83301 -26.167 -14.5 -36.5
s-22.167 -15.5 -37.5 -15.5z" />
    <glyph glyph-name="eth" unicode="&#xf0;" horiz-adv-x="546" 
d="M374 472c-12.667 28 -29.668 55.165 -51.001 81.498s-43 49.166 -65 68.499l-157 -68l-16 39l136 59c-15.333 12 -31.833 23.5 -49.5 34.5l-55.5 33.5l22 38c56 -20 106.667 -45 152 -75l142 62l17 -39l-119 -53c24.667 -19.333 47.5 -41.166 68.5 -65.499
s39.333 -52 55 -83s27.834 -65.333 36.501 -103s13 -79.5 13 -125.5c0 -47.333 -6 -89 -18 -125s-28.5 -66.167 -49.5 -90.5s-45.667 -42.666 -74 -54.999s-58.833 -18.5 -91.5 -18.5c-35.333 0 -67.5 6 -96.5 18s-53.667 29.167 -74 51.5s-36 49.166 -47 80.499
s-16.5 66.333 -16.5 105s5.66699 73.834 17 105.501s27 58.834 47 81.501s43.5 40.167 70.5 52.5s56.5 18.5 88.5 18.5c23.333 0 43.833 -2.33301 61.5 -7s33.167 -11.667 46.5 -21h7zM411.999 258.998c0 30 -1.33203 56.999 -3.99902 80.999s-7 47 -13 69
c-14 10.667 -31.333 19.667 -52 27s-45 11 -73 11c-20 0 -38.667 -3.16699 -56 -9.5s-32.333 -17.333 -45 -33s-22.667 -36.167 -30 -61.5s-11 -57 -11 -95c0 -38.667 4 -71.167 12 -97.5s18.667 -47.666 32 -63.999s28.666 -28.166 45.999 -35.499s35 -11 53 -11
s35.5 3 52.5 9s32 17.167 45 33.5s23.5 38.666 31.5 66.999s12 64.833 12 109.5z" />
    <glyph glyph-name="ntilde" unicode="&#xf1;" horiz-adv-x="585" 
d="M25 32l73 16v376l-73 15v37l146 23l10 -6v-43h6c24.667 13.333 51 25 79 35s57 15 87 15c46 0 80.667 -9.66699 104 -29s35 -53.333 35 -102v-321l73 -16v-32h-232v32l71 16v298c0 33.333 -8.66699 56 -26 68s-43.333 18 -78 18c-20.667 0 -40.167 -2 -58.5 -6
s-36.833 -9.33301 -55.5 -16v-362l71 -16v-32h-232v32zM114 619c27.333 64 62 96 104 96c10 0 20.667 -2 32 -6s22.333 -8.5 33 -13.5s20.834 -9.5 30.501 -13.5s17.834 -6 24.501 -6c9.33301 0 19 3.16699 29 9.5s20.667 19.5 32 39.5l39 -18
c-28 -65.333 -62.667 -98 -104 -98c-10 0 -20.667 2 -32 6s-22.333 8.5 -33 13.5s-20.834 9.5 -30.501 13.5s-17.834 6 -24.501 6c-9.33301 0 -19 -3 -29 -9s-20.667 -18.667 -32 -38z" />
    <glyph glyph-name="ograve" unicode="&#xf2;" horiz-adv-x="546" 
d="M274 -13c-35.333 0 -67.665 6 -96.998 18s-54.5 29.167 -75.5 51.5s-37.167 49.166 -48.5 80.499s-17 66.333 -17 105s6.16699 73.834 18.5 105.501s29.166 58.834 50.499 81.501s46.333 40.167 75 52.5s59 18.5 91 18.5c35.333 0 67.666 -6 96.999 -18
s54.5 -29 75.5 -51s37.333 -48.5 49 -79.5s17.5 -65.833 17.5 -104.5s-6.16699 -73.834 -18.5 -105.501s-29.166 -59 -50.499 -82s-46.333 -40.833 -75 -53.5s-59.334 -19 -92.001 -19zM275.001 40c18 0 35.667 3.33203 53 9.99902s32.5 17.667 45.5 33
s23.5 35.666 31.5 60.999s12 57 12 95c0 39.333 -4.16699 72.333 -12.5 99s-19.333 48.167 -33 64.5s-29.334 28 -47.001 35s-35.834 10.5 -54.501 10.5c-18 0 -35.5 -3.33301 -52.5 -10s-32.167 -17.667 -45.5 -33s-24 -35.833 -32 -61.5s-12 -57.5 -12 -95.5
c0 -38.667 4.16699 -71.167 12.5 -97.5s19.333 -47.666 33 -63.999s29.334 -28.166 47.001 -35.499s35.834 -11 54.501 -11zM146.001 672.999l32 73l200 -123l-16 -36z" />
    <glyph glyph-name="oacute" unicode="&#xf3;" horiz-adv-x="546" 
d="M274 -13c-35.333 0 -67.665 6 -96.998 18s-54.5 29.167 -75.5 51.5s-37.167 49.166 -48.5 80.499s-17 66.333 -17 105s6.16699 73.834 18.5 105.501s29.166 58.834 50.499 81.501s46.333 40.167 75 52.5s59 18.5 91 18.5c35.333 0 67.666 -6 96.999 -18
s54.5 -29 75.5 -51s37.333 -48.5 49 -79.5s17.5 -65.833 17.5 -104.5s-6.16699 -73.834 -18.5 -105.501s-29.166 -59 -50.499 -82s-46.333 -40.833 -75 -53.5s-59.334 -19 -92.001 -19zM275.001 40c18 0 35.667 3.33203 53 9.99902s32.5 17.667 45.5 33
s23.5 35.666 31.5 60.999s12 57 12 95c0 39.333 -4.16699 72.333 -12.5 99s-19.333 48.167 -33 64.5s-29.334 28 -47.001 35s-35.834 10.5 -54.501 10.5c-18 0 -35.5 -3.33301 -52.5 -10s-32.167 -17.667 -45.5 -33s-24 -35.833 -32 -61.5s-12 -57.5 -12 -95.5
c0 -38.667 4.16699 -71.167 12.5 -97.5s19.333 -47.666 33 -63.999s29.334 -28.166 47.001 -35.499s35.834 -11 54.501 -11zM167.001 622.999l200 123l32 -73l-216 -86z" />
    <glyph glyph-name="ocircumflex" unicode="&#xf4;" horiz-adv-x="546" 
d="M274 -13c-35.333 0 -67.665 6 -96.998 18s-54.5 29.167 -75.5 51.5s-37.167 49.166 -48.5 80.499s-17 66.333 -17 105s6.16699 73.834 18.5 105.501s29.166 58.834 50.499 81.501s46.333 40.167 75 52.5s59 18.5 91 18.5c35.333 0 67.666 -6 96.999 -18
s54.5 -29 75.5 -51s37.333 -48.5 49 -79.5s17.5 -65.833 17.5 -104.5s-6.16699 -73.834 -18.5 -105.501s-29.166 -59 -50.499 -82s-46.333 -40.833 -75 -53.5s-59.334 -19 -92.001 -19zM275.001 40c18 0 35.667 3.33203 53 9.99902s32.5 17.667 45.5 33
s23.5 35.666 31.5 60.999s12 57 12 95c0 39.333 -4.16699 72.333 -12.5 99s-19.333 48.167 -33 64.5s-29.334 28 -47.001 35s-35.834 10.5 -54.501 10.5c-18 0 -35.5 -3.33301 -52.5 -10s-32.167 -17.667 -45.5 -33s-24 -35.833 -32 -61.5s-12 -57.5 -12 -95.5
c0 -38.667 4.16699 -71.167 12.5 -97.5s19.333 -47.666 33 -63.999s29.334 -28.166 47.001 -35.499s35.834 -11 54.501 -11zM127.001 614.999l124 135h45l124 -135l-20 -27l-127 88l-126 -88z" />
    <glyph glyph-name="otilde" unicode="&#xf5;" horiz-adv-x="546" 
d="M274 -13c-35.333 0 -67.665 6 -96.998 18s-54.5 29.167 -75.5 51.5s-37.167 49.166 -48.5 80.499s-17 66.333 -17 105s6.16699 73.834 18.5 105.501s29.166 58.834 50.499 81.501s46.333 40.167 75 52.5s59 18.5 91 18.5c35.333 0 67.666 -6 96.999 -18
s54.5 -29 75.5 -51s37.333 -48.5 49 -79.5s17.5 -65.833 17.5 -104.5s-6.16699 -73.834 -18.5 -105.501s-29.166 -59 -50.499 -82s-46.333 -40.833 -75 -53.5s-59.334 -19 -92.001 -19zM275.001 40c18 0 35.667 3.33203 53 9.99902s32.5 17.667 45.5 33
s23.5 35.666 31.5 60.999s12 57 12 95c0 39.333 -4.16699 72.333 -12.5 99s-19.333 48.167 -33 64.5s-29.334 28 -47.001 35s-35.834 10.5 -54.501 10.5c-18 0 -35.5 -3.33301 -52.5 -10s-32.167 -17.667 -45.5 -33s-24 -35.833 -32 -61.5s-12 -57.5 -12 -95.5
c0 -38.667 4.16699 -71.167 12.5 -97.5s19.333 -47.666 33 -63.999s29.334 -28.166 47.001 -35.499s35.834 -11 54.501 -11zM110.001 618.999c27.333 64 62 96 104 96c10 0 20.667 -2 32 -6s22.333 -8.5 33 -13.5s20.834 -9.5 30.501 -13.5s17.834 -6 24.501 -6
c9.33301 0 19 3.16699 29 9.5s20.667 19.5 32 39.5l39 -18c-28 -65.333 -62.667 -98 -104 -98c-10 0 -20.667 2 -32 6s-22.333 8.5 -33 13.5s-20.834 9.5 -30.501 13.5s-17.834 6 -24.501 6c-9.33301 0 -19 -3 -29 -9s-20.667 -18.667 -32 -38z" />
    <glyph glyph-name="odieresis" unicode="&#xf6;" horiz-adv-x="546" 
d="M274 -13c-35.333 0 -67.665 6 -96.998 18s-54.5 29.167 -75.5 51.5s-37.167 49.166 -48.5 80.499s-17 66.333 -17 105s6.16699 73.834 18.5 105.501s29.166 58.834 50.499 81.501s46.333 40.167 75 52.5s59 18.5 91 18.5c35.333 0 67.666 -6 96.999 -18
s54.5 -29 75.5 -51s37.333 -48.5 49 -79.5s17.5 -65.833 17.5 -104.5s-6.16699 -73.834 -18.5 -105.501s-29.166 -59 -50.499 -82s-46.333 -40.833 -75 -53.5s-59.334 -19 -92.001 -19zM275.001 40c18 0 35.667 3.33203 53 9.99902s32.5 17.667 45.5 33
s23.5 35.666 31.5 60.999s12 57 12 95c0 39.333 -4.16699 72.333 -12.5 99s-19.333 48.167 -33 64.5s-29.334 28 -47.001 35s-35.834 10.5 -54.501 10.5c-18 0 -35.5 -3.33301 -52.5 -10s-32.167 -17.667 -45.5 -33s-24 -35.833 -32 -61.5s-12 -57.5 -12 -95.5
c0 -38.667 4.16699 -71.167 12.5 -97.5s19.333 -47.666 33 -63.999s29.334 -28.166 47.001 -35.499s35.834 -11 54.501 -11zM176.001 601.999c-15.333 0 -27.833 5.16699 -37.5 15.5s-14.5 22.5 -14.5 36.5c0 13.333 4.83301 25.166 14.5 35.499s22.167 15.5 37.5 15.5
s28 -5.16699 38 -15.5s15 -22.166 15 -35.499c0 -14 -5 -26.167 -15 -36.5s-22.667 -15.5 -38 -15.5zM370.001 601.999c-15.333 0 -28 5.16699 -38 15.5s-15 22.5 -15 36.5c0 13.333 5 25.166 15 35.499s22.667 15.5 38 15.5s27.833 -5.16699 37.5 -15.5
s14.5 -22.166 14.5 -35.499c0 -14 -4.83301 -26.167 -14.5 -36.5s-22.167 -15.5 -37.5 -15.5z" />
    <glyph glyph-name="divide" unicode="&#xf7;" horiz-adv-x="568" 
d="M282 443c-16.667 0 -30.667 5.66699 -42 17s-17 24.666 -17 39.999c0 17.333 5.66699 31.5 17 42.5s25.333 16.5 42 16.5c17.333 0 32 -5.5 44 -16.5s18 -25.167 18 -42.5c0 -15.333 -6 -28.666 -18 -39.999s-26.667 -17 -44 -17zM67 347h433v-60h-433v60zM282 74
c-16.667 0 -30.667 5.83301 -42 17.5s-17 25.167 -17 40.5c0 17.333 5.66699 31.5 17 42.5s25.333 16.5 42 16.5c17.333 0 32 -5.5 44 -16.5s18 -25.167 18 -42.5c0 -15.333 -6 -28.833 -18 -40.5s-26.667 -17.5 -44 -17.5z" />
    <glyph glyph-name="oslash" unicode="&#xf8;" horiz-adv-x="546" 
d="M126 248c0 -21.333 1.16602 -40.833 3.49902 -58.5s5.5 -33.5 9.5 -47.5l236 263c-12.667 15.333 -27.834 26.333 -45.501 33s-37.5 10 -59.5 10c-18 0 -35.667 -3.33301 -53 -10s-32.666 -17.667 -45.999 -33s-24.166 -35.833 -32.499 -61.5s-12.5 -57.5 -12.5 -95.5z
M274.999 40c18 0 35.667 3.33496 53 10.002s32.833 17.667 46.5 33s24.5 35.666 32.5 60.999s12 57 12 95c0 24.667 -1.5 46.667 -4.5 66s-7.16699 36.666 -12.5 51.999l-239 -266c13.333 -18 29.5 -31 48.5 -39s40.167 -12 63.5 -12zM82.999 79.002
c-31.333 42.667 -46.999 97 -46.999 163c0 38.667 6.16699 73.834 18.5 105.501s29.166 58.834 50.499 81.501s46.333 40.167 75 52.5s59 18.5 91 18.5c29.333 0 56.5 -4 81.5 -12s47.5 -19.667 67.5 -35l60 68l40 -32l-65 -71c17.333 -22 30.833 -47.333 40.5 -76
s14.5 -60.334 14.5 -95.001c0 -38.667 -6.16699 -73.834 -18.5 -105.501s-29.166 -59 -50.499 -82s-46.333 -40.833 -75 -53.5s-59.334 -19 -92.001 -19c-62.667 0 -114.667 17.667 -156 53l-65 -71l-40 32z" />
    <glyph glyph-name="ugrave" unicode="&#xf9;" horiz-adv-x="585" 
d="M230 -9c-50 0 -86.166 12.832 -108.499 38.499s-33.5 60.5 -33.5 104.5v297l-72 15v36l150 16l11 -6v-336c0 -17.333 1.33301 -32.5 4 -45.5s7.5 -23.667 14.5 -32s16.667 -14.666 29 -18.999s28.166 -6.5 47.499 -6.5c30.667 0 55 3.16699 73 9.5s34.333 12.5 49 18.5
v350l-71 15v36l149 16l11 -6v-431l72 -16v-32l-145 -22l-11 4v54h-5c-20.667 -18 -44.667 -32.167 -72 -42.5s-58 -15.5 -92 -15.5zM155.001 672.999l32 73l200 -123l-16 -36z" />
    <glyph glyph-name="uacute" unicode="&#xfa;" horiz-adv-x="585" 
d="M230 -9c-50 0 -86.166 12.832 -108.499 38.499s-33.5 60.5 -33.5 104.5v297l-72 15v36l150 16l11 -6v-336c0 -17.333 1.33301 -32.5 4 -45.5s7.5 -23.667 14.5 -32s16.667 -14.666 29 -18.999s28.166 -6.5 47.499 -6.5c30.667 0 55 3.16699 73 9.5s34.333 12.5 49 18.5
v350l-71 15v36l149 16l11 -6v-431l72 -16v-32l-145 -22l-11 4v54h-5c-20.667 -18 -44.667 -32.167 -72 -42.5s-58 -15.5 -92 -15.5zM183.001 622.999l200 123l32 -73l-216 -86z" />
    <glyph glyph-name="ucircumflex" unicode="&#xfb;" horiz-adv-x="585" 
d="M230 -9c-50 0 -86.166 12.832 -108.499 38.499s-33.5 60.5 -33.5 104.5v297l-72 15v36l150 16l11 -6v-336c0 -17.333 1.33301 -32.5 4 -45.5s7.5 -23.667 14.5 -32s16.667 -14.666 29 -18.999s28.166 -6.5 47.499 -6.5c30.667 0 55 3.16699 73 9.5s34.333 12.5 49 18.5
v350l-71 15v36l149 16l11 -6v-431l72 -16v-32l-145 -22l-11 4v54h-5c-20.667 -18 -44.667 -32.167 -72 -42.5s-58 -15.5 -92 -15.5zM134.001 614.999l124 135h45l124 -135l-20 -27l-127 88l-126 -88z" />
    <glyph glyph-name="udieresis" unicode="&#xfc;" horiz-adv-x="585" 
d="M230 -9c-50 0 -86.166 12.832 -108.499 38.499s-33.5 60.5 -33.5 104.5v297l-72 15v36l150 16l11 -6v-336c0 -17.333 1.33301 -32.5 4 -45.5s7.5 -23.667 14.5 -32s16.667 -14.666 29 -18.999s28.166 -6.5 47.499 -6.5c30.667 0 55 3.16699 73 9.5s34.333 12.5 49 18.5
v350l-71 15v36l149 16l11 -6v-431l72 -16v-32l-145 -22l-11 4v54h-5c-20.667 -18 -44.667 -32.167 -72 -42.5s-58 -15.5 -92 -15.5zM185.001 601.999c-15.333 0 -27.833 5.16699 -37.5 15.5s-14.5 22.5 -14.5 36.5c0 13.333 4.83301 25.166 14.5 35.499
s22.167 15.5 37.5 15.5s28 -5.16699 38 -15.5s15 -22.166 15 -35.499c0 -14 -5 -26.167 -15 -36.5s-22.667 -15.5 -38 -15.5zM379.001 601.999c-15.333 0 -28 5.16699 -38 15.5s-15 22.5 -15 36.5c0 13.333 5 25.166 15 35.499s22.667 15.5 38 15.5
s27.833 -5.16699 37.5 -15.5s14.5 -22.166 14.5 -35.499c0 -14 -4.83301 -26.167 -14.5 -36.5s-22.167 -15.5 -37.5 -15.5z" />
    <glyph glyph-name="yacute" unicode="&#xfd;" horiz-adv-x="531" 
d="M124 -216c-16 0 -30.5 2.16602 -43.5 6.49902s-23.833 10.166 -32.5 17.499v50c11.333 -2.66699 20.333 -4.66699 27 -6s14.667 -2 24 -2c14 0 26.333 1.33301 37 4s20.5 7.33398 29.5 14.001s17 15.667 24 27s14.167 25.666 21.5 42.999l32 76l-180 428l-54 14v35h217
v-35l-65 -13l85 -217c4.66699 -12 9.16699 -25.5 13.5 -40.5s8.16602 -29.167 11.499 -42.5c4 -15.333 7.66699 -30.666 11 -45.999h4c4 15.333 8.33301 30.666 13 45.999c3.33301 13.333 7.33301 27.333 12 42s9.33398 28.334 14.001 41.001l74 216l-62 14v35h185v-35
l-55 -14l-199 -523c-18 -47.333 -37.5 -81.666 -58.5 -102.999s-49.5 -32 -85.5 -32zM179 622.999l200 123l32 -73l-216 -86z" />
    <glyph glyph-name="thorn" unicode="&#xfe;" horiz-adv-x="558" 
d="M275 40c22.667 0 43.3301 3.50195 61.9971 10.502s34.667 18.5 48 34.5s23.833 37.167 31.5 63.5s11.5 59.166 11.5 98.499c0 34.667 -3.33301 63.667 -10 87s-16.167 42.333 -28.5 57s-27.666 25.167 -45.999 31.5s-38.833 9.5 -61.5 9.5
c-23.333 0 -44.666 -2.66699 -63.999 -8s-34.666 -10.666 -45.999 -15.999v-339l17 -10.5c6 -3.66699 13 -6.83398 21 -9.50098s17.167 -4.83398 27.5 -6.50098s22.833 -2.5 37.5 -2.5zM11.9961 -182.998l71.998 13.001v852l-74 15v36l151 22l11 -4v-300h6
c19.333 13.333 40.5 24.833 63.5 34.5s51.833 14.5 86.5 14.5c23.333 0 46.333 -3.33301 69 -10s43 -18.834 61 -36.501s32.667 -41.834 44 -72.501s17 -69.667 17 -117c0 -45.333 -6.16699 -85.166 -18.5 -119.499s-29.666 -63 -51.999 -86s-49.166 -40.333 -80.499 -52
s-66 -17.5 -104 -17.5c-19.333 0 -36 0.666992 -50 2s-27.667 3.33301 -41 6v-165l84 -15v-33h-245v33z" />
    <glyph glyph-name="ydieresis" unicode="&#xff;" horiz-adv-x="531" 
d="M124 -216c-16 0 -30.5 2.16602 -43.5 6.49902s-23.833 10.166 -32.5 17.499v50c11.333 -2.66699 20.333 -4.66699 27 -6s14.667 -2 24 -2c14 0 26.333 1.33301 37 4s20.5 7.33398 29.5 14.001s17 15.667 24 27s14.167 25.666 21.5 42.999l32 76l-180 428l-54 14v35h217
v-35l-65 -13l85 -217c4.66699 -12 9.16699 -25.5 13.5 -40.5s8.16602 -29.167 11.499 -42.5c4 -15.333 7.66699 -30.666 11 -45.999h4c4 15.333 8.33301 30.666 13 45.999c3.33301 13.333 7.33301 27.333 12 42s9.33398 28.334 14.001 41.001l74 216l-62 14v35h185v-35
l-55 -14l-199 -523c-18 -47.333 -37.5 -81.666 -58.5 -102.999s-49.5 -32 -85.5 -32zM188 601.999c-15.333 0 -27.833 5.16699 -37.5 15.5s-14.5 22.5 -14.5 36.5c0 13.333 4.83301 25.166 14.5 35.499s22.167 15.5 37.5 15.5s28 -5.16699 38 -15.5s15 -22.166 15 -35.499
c0 -14 -5 -26.167 -15 -36.5s-22.667 -15.5 -38 -15.5zM382 601.999c-15.333 0 -28 5.16699 -38 15.5s-15 22.5 -15 36.5c0 13.333 5 25.166 15 35.499s22.667 15.5 38 15.5s27.833 -5.16699 37.5 -15.5s14.5 -22.166 14.5 -35.499c0 -14 -4.83301 -26.167 -14.5 -36.5
s-22.167 -15.5 -37.5 -15.5z" />
    <glyph glyph-name="Amacron" unicode="&#x100;" horiz-adv-x="651" 
d="M212 259h194.999l-54 165c-4.66699 14.667 -9.16699 30.5 -13.5 47.5s-8.16602 32.833 -11.499 47.5l-12 51h-5l-14 -52l-13.5 -47.5c-5 -17 -9.83301 -32.5 -14.5 -46.5zM7.99902 40l67 17l215 606h79l208 -606l66 -17v-40h-247v40l76 17l-50 153h-227l-52 -153l77 -17
v-40h-212v40zM188.999 807h273v-59h-273v59z" />
    <glyph glyph-name="amacron" unicode="&#x101;" horiz-adv-x="489" 
d="M213 47c20 0 38.668 3.83301 56.001 11.5s30.666 15.5 39.999 23.5v165l-97 -13c-32 -4.66699 -55.167 -15.5 -69.5 -32.5s-21.5 -38.833 -21.5 -65.5c0 -28 7.33301 -49.833 22 -65.5s38 -23.5 70 -23.5zM397.001 74c0 -15.333 4.16602 -24.8369 12.499 -28.5039
s19.833 -5.5 34.5 -5.5h31v-33c-8.66699 -2.66699 -20.667 -6 -36 -10s-31.666 -6 -48.999 -6c-19.333 0 -35.333 3.83301 -48 11.5s-20.667 20.5 -24 38.5h-5c-13.333 -13.333 -30.666 -25.666 -51.999 -36.999s-48 -17 -80 -17c-44 0 -80.167 12.167 -108.5 36.5
s-42.5 58.833 -42.5 103.5c0 22 3.83301 40.833 11.5 56.5s18.5 29.334 32.5 41.001s30.333 21.334 49 29.001s39 14.5 61 20.5l125 33v27c0 16 -1.16699 30.333 -3.5 43s-7.5 23.167 -15.5 31.5s-19.333 14.666 -34 18.999s-34.334 6.5 -59.001 6.5
c-20 0 -42.167 -1.16699 -66.5 -3.5s-44.5 -5.16602 -60.5 -8.49902v44c20 8.66699 45.5 16.5 76.5 23.5s62.5 10.5 94.5 10.5c54 0 93.5 -12.667 118.5 -38s37.5 -59.666 37.5 -102.999v-285zM100 678.996h255v-59h-255v59z" />
    <glyph glyph-name="Abreve" unicode="&#x102;" horiz-adv-x="651" 
d="M212 259h194.999l-54 165c-4.66699 14.667 -9.16699 30.5 -13.5 47.5s-8.16602 32.833 -11.499 47.5l-12 51h-5l-14 -52l-13.5 -47.5c-5 -17 -9.83301 -32.5 -14.5 -46.5zM7.99902 40l67 17l215 606h79l208 -606l66 -17v-40h-247v40l76 17l-50 153h-227l-52 -153l77 -17
v-40h-212v40zM326.999 732c-20.667 0 -39.332 3.16699 -55.999 9.5s-31 15 -43 26s-21.667 24 -29 39s-11.333 30.833 -12 47.5h54c5.33301 -19.333 14.833 -34.166 28.5 -44.499s32.834 -15.5 57.501 -15.5c25.333 0 44.666 5.16699 57.999 15.5
s22.666 25.166 27.999 44.499h54c-2 -16.667 -6.5 -32.5 -13.5 -47.5s-16.5 -28 -28.5 -39s-26.333 -19.667 -43 -26s-35 -9.5 -55 -9.5z" />
    <glyph glyph-name="abreve" unicode="&#x103;" horiz-adv-x="489" 
d="M213 47c20 0 38.668 3.83301 56.001 11.5s30.666 15.5 39.999 23.5v165l-97 -13c-32 -4.66699 -55.167 -15.5 -69.5 -32.5s-21.5 -38.833 -21.5 -65.5c0 -28 7.33301 -49.833 22 -65.5s38 -23.5 70 -23.5zM397.001 74c0 -15.333 4.16602 -24.8369 12.499 -28.5039
s19.833 -5.5 34.5 -5.5h31v-33c-8.66699 -2.66699 -20.667 -6 -36 -10s-31.666 -6 -48.999 -6c-19.333 0 -35.333 3.83301 -48 11.5s-20.667 20.5 -24 38.5h-5c-13.333 -13.333 -30.666 -25.666 -51.999 -36.999s-48 -17 -80 -17c-44 0 -80.167 12.167 -108.5 36.5
s-42.5 58.833 -42.5 103.5c0 22 3.83301 40.833 11.5 56.5s18.5 29.334 32.5 41.001s30.333 21.334 49 29.001s39 14.5 61 20.5l125 33v27c0 16 -1.16699 30.333 -3.5 43s-7.5 23.167 -15.5 31.5s-19.333 14.666 -34 18.999s-34.334 6.5 -59.001 6.5
c-20 0 -42.167 -1.16699 -66.5 -3.5s-44.5 -5.16602 -60.5 -8.49902v44c20 8.66699 45.5 16.5 76.5 23.5s62.5 10.5 94.5 10.5c54 0 93.5 -12.667 118.5 -38s37.5 -59.666 37.5 -102.999v-285zM226 599.996c-41.333 0 -74.498 12 -99.498 36s-38.5 55.667 -40.5 95h54
c5.33301 -24 14.833 -41.667 28.5 -53s32.834 -17 57.501 -17c25.333 0 44.666 5.66699 57.999 17s22.666 29 27.999 53h54c-3.33301 -39.333 -17.333 -71 -42 -95s-57.334 -36 -98.001 -36z" />
    <glyph glyph-name="Aogonek" unicode="&#x104;" horiz-adv-x="651" 
d="M452 -204c-33.333 0 -59.167 7.66602 -77.5 22.999s-27.5 35.333 -27.5 60c0 31.333 12.667 58.833 38 82.5s57.666 44.834 96.999 63.501l-60 185h-227l-52 -153l77 -17v-40h-212v40l67 17l215 606h79l208 -606l66 -17v-40h-70c-25.333 0 -46.833 -3.5 -64.5 -10.5
s-32 -16 -43 -27s-19 -22.833 -24 -35.5s-7.5 -24.334 -7.5 -35.001c0 -14 4.5 -25.833 13.5 -35.5s23.833 -14.5 44.5 -14.5h23v-34c-7.33301 -3.33301 -16.166 -6.16602 -26.499 -8.49902s-22.5 -3.5 -36.5 -3.5zM211.999 258.999h194.999l-54 165
c-4.66699 14.667 -9.16699 30.5 -13.5 47.5s-8.16602 32.833 -11.499 47.5l-12 51h-5l-14 -52l-13.5 -47.5c-5 -17 -9.83301 -32.5 -14.5 -46.5z" />
    <glyph glyph-name="aogonek" unicode="&#x105;" horiz-adv-x="489" 
d="M213 47c20 0 38.668 3.83203 56.001 11.499s30.666 15.5 39.999 23.5v146l-99 -7c-34 -2.66699 -57.333 -11.5 -70 -26.5s-19 -35.167 -19 -60.5s7.33301 -46.166 22 -62.499s38 -24.5 70 -24.5zM313.001 40.999c-13.333 -13.333 -30.666 -25.668 -51.999 -37.001
s-48 -17 -80 -17c-22 0 -42.167 3.33301 -60.5 10s-34.333 16 -48 28s-24.167 26.5 -31.5 43.5s-11 35.833 -11 56.5c0 21.333 3.66699 39.5 11 54.5s17.666 27.667 30.999 38s29.333 18.666 48 24.999s39.334 11.833 62.001 16.5l127 26v46
c0 19.333 -1.16699 35.5 -3.5 48.5s-7.5 23.5 -15.5 31.5s-19.333 13.833 -34 17.5s-34.334 5.5 -59.001 5.5c-20 0 -42.167 -1.16699 -66.5 -3.5s-44.5 -5.16602 -60.5 -8.49902v44c20 8.66699 45.5 16.5 76.5 23.5s62.5 10.5 94.5 10.5c54 0 93.5 -11.667 118.5 -35
s37.5 -59.666 37.5 -108.999v-282c0 -15.333 4.16699 -24.833 12.5 -28.5s19.833 -5.5 34.5 -5.5h31v-33c-32.667 -12 -58.667 -28.333 -78 -49s-29 -42.667 -29 -66c0 -14 4.5 -25.833 13.5 -35.5s23.833 -14.5 44.5 -14.5h23v-34c-8 -3.33301 -17 -6.16602 -27 -8.49902
s-22.333 -3.5 -37 -3.5c-32.667 0 -58.167 7.66699 -76.5 23s-27.5 35.333 -27.5 60c0 23.333 9.83301 45 29.5 65s44.5 36.333 74.5 49c-19.333 1.33301 -34.5 5.66602 -45.5 12.999s-18.167 19 -21.5 35h-5z" />
    <glyph glyph-name="Cacute" unicode="&#x106;" horiz-adv-x="605" 
d="M351 -11c-46.667 0 -89.1709 6.16895 -127.504 18.502s-71.166 31.833 -98.499 58.5s-48.5 61.334 -63.5 104.001s-22.5 94 -22.5 154c0 66 9.16699 121.333 27.5 166s42.833 80.667 73.5 108s65.5 46.833 104.5 58.5s79.5 17.5 121.5 17.5
c40.667 0 76.334 -2.33301 107.001 -7s56.334 -10.334 77.001 -17.001l5 -162h-44l-40 109c-12 5.33301 -28.667 10.666 -50 15.999s-43.666 8 -66.999 8c-72 0 -125.5 -24.333 -160.5 -73s-52.5 -117.334 -52.5 -206.001c0 -97.333 17.333 -171.5 52 -222.5
s91.667 -76.5 171 -76.5c23.333 0 44.166 2.5 62.499 7.5s34.5 11.5 48.5 19.5l39 119h47l-6 -167c-24 -10 -52.167 -18 -84.5 -24s-72.166 -9 -119.499 -9zM242.996 755.002l200 124l33 -77l-217 -83z" />
    <glyph glyph-name="cacute" unicode="&#x107;" horiz-adv-x="459" 
d="M275 -11c-38.667 0 -72.834 5.83105 -102.501 17.498s-54.667 28.5 -75 50.5s-35.666 48.5 -45.999 79.5s-15.5 65.833 -15.5 104.5c0 46.667 7 86.334 21 119.001s32.667 59.334 56 80.001s50.666 35.834 81.999 45.501s64.666 14.5 99.999 14.5
c23.333 0 46.166 -1.66699 68.499 -5s42.5 -8 60.5 -14v-123h-50l-20 81c-7.33301 2.66699 -15.666 4.83398 -24.999 6.50098s-24.333 2.5 -45 2.5c-48 0 -86.167 -16 -114.5 -48s-42.5 -81.333 -42.5 -148c0 -38 4.5 -69.667 13.5 -95s21.333 -45.833 37 -61.5
s34 -26.834 55 -33.501s43.5 -10 67.5 -10c34 0 61.833 2.66699 83.5 8s38.167 10.666 49.5 15.999v-44c-15.333 -11.333 -35.666 -21.333 -60.999 -30s-57.666 -13 -96.999 -13zM162 622.998l200 123l32 -73l-216 -86z" />
    <glyph glyph-name="Ccircumflex" unicode="&#x108;" horiz-adv-x="605" 
d="M351 -11c-46.667 0 -89.1709 6.16895 -127.504 18.502s-71.166 31.833 -98.499 58.5s-48.5 61.334 -63.5 104.001s-22.5 94 -22.5 154c0 66 9.16699 121.333 27.5 166s42.833 80.667 73.5 108s65.5 46.833 104.5 58.5s79.5 17.5 121.5 17.5
c40.667 0 76.334 -2.33301 107.001 -7s56.334 -10.334 77.001 -17.001l5 -162h-44l-40 109c-12 5.33301 -28.667 10.666 -50 15.999s-43.666 8 -66.999 8c-72 0 -125.5 -24.333 -160.5 -73s-52.5 -117.334 -52.5 -206.001c0 -97.333 17.333 -171.5 52 -222.5
s91.667 -76.5 171 -76.5c23.333 0 44.166 2.5 62.499 7.5s34.5 11.5 48.5 19.5l39 119h47l-6 -167c-24 -10 -52.167 -18 -84.5 -24s-72.166 -9 -119.499 -9zM202.996 753.002l124 118h45l124 -118l-17 -28l-129 73l-130 -73z" />
    <glyph glyph-name="ccircumflex" unicode="&#x109;" horiz-adv-x="459" 
d="M275 -11c-38.667 0 -72.834 5.83105 -102.501 17.498s-54.667 28.5 -75 50.5s-35.666 48.5 -45.999 79.5s-15.5 65.833 -15.5 104.5c0 46.667 7 86.334 21 119.001s32.667 59.334 56 80.001s50.666 35.834 81.999 45.501s64.666 14.5 99.999 14.5
c23.333 0 46.166 -1.66699 68.499 -5s42.5 -8 60.5 -14v-123h-50l-20 81c-7.33301 2.66699 -15.666 4.83398 -24.999 6.50098s-24.333 2.5 -45 2.5c-48 0 -86.167 -16 -114.5 -48s-42.5 -81.333 -42.5 -148c0 -38 4.5 -69.667 13.5 -95s21.333 -45.833 37 -61.5
s34 -26.834 55 -33.501s43.5 -10 67.5 -10c34 0 61.833 2.66699 83.5 8s38.167 10.666 49.5 15.999v-44c-15.333 -11.333 -35.666 -21.333 -60.999 -30s-57.666 -13 -96.999 -13zM123 614.998l124 135h45l124 -135l-20 -27l-127 88l-126 -88z" />
    <glyph glyph-name="Cdotaccent" unicode="&#x10a;" horiz-adv-x="605" 
d="M351 -11c-46.667 0 -89.1709 6.16895 -127.504 18.502s-71.166 31.833 -98.499 58.5s-48.5 61.334 -63.5 104.001s-22.5 94 -22.5 154c0 66 9.16699 121.333 27.5 166s42.833 80.667 73.5 108s65.5 46.833 104.5 58.5s79.5 17.5 121.5 17.5
c40.667 0 76.334 -2.33301 107.001 -7s56.334 -10.334 77.001 -17.001l5 -162h-44l-40 109c-12 5.33301 -28.667 10.666 -50 15.999s-43.666 8 -66.999 8c-72 0 -125.5 -24.333 -160.5 -73s-52.5 -117.334 -52.5 -206.001c0 -97.333 17.333 -171.5 52 -222.5
s91.667 -76.5 171 -76.5c23.333 0 44.166 2.5 62.499 7.5s34.5 11.5 48.5 19.5l39 119h47l-6 -167c-24 -10 -52.167 -18 -84.5 -24s-72.166 -9 -119.499 -9zM346.996 735.002c-16 0 -29.667 5.66699 -41 17s-17 24.333 -17 39c0 16 5.66699 29.5 17 40.5s25 16.5 41 16.5
s29.667 -5.5 41 -16.5s17 -24.5 17 -40.5c0 -14.667 -5.66699 -27.667 -17 -39s-25 -17 -41 -17z" />
    <glyph glyph-name="cdotaccent" unicode="&#x10b;" horiz-adv-x="459" 
d="M275 -11c-38.667 0 -72.834 5.83105 -102.501 17.498s-54.667 28.5 -75 50.5s-35.666 48.5 -45.999 79.5s-15.5 65.833 -15.5 104.5c0 46.667 7 86.334 21 119.001s32.667 59.334 56 80.001s50.666 35.834 81.999 45.501s64.666 14.5 99.999 14.5
c23.333 0 46.166 -1.66699 68.499 -5s42.5 -8 60.5 -14v-123h-50l-20 81c-7.33301 2.66699 -15.666 4.83398 -24.999 6.50098s-24.333 2.5 -45 2.5c-48 0 -86.167 -16 -114.5 -48s-42.5 -81.333 -42.5 -148c0 -38 4.5 -69.667 13.5 -95s21.333 -45.833 37 -61.5
s34 -26.834 55 -33.501s43.5 -10 67.5 -10c34 0 61.833 2.66699 83.5 8s38.167 10.666 49.5 15.999v-44c-15.333 -11.333 -35.666 -21.333 -60.999 -30s-57.666 -13 -96.999 -13zM267 601.998c-16 0 -29.667 5.66699 -41 17s-17 24.333 -17 39
c0 16.667 5.66699 30.334 17 41.001s25 16 41 16s29.667 -5.33301 41 -16s17 -24.334 17 -41.001c0 -14.667 -5.66699 -27.667 -17 -39s-25 -17 -41 -17z" />
    <glyph glyph-name="Ccaron" unicode="&#x10c;" horiz-adv-x="605" 
d="M351 -11c-46.667 0 -89.1709 6.16895 -127.504 18.502s-71.166 31.833 -98.499 58.5s-48.5 61.334 -63.5 104.001s-22.5 94 -22.5 154c0 66 9.16699 121.333 27.5 166s42.833 80.667 73.5 108s65.5 46.833 104.5 58.5s79.5 17.5 121.5 17.5
c40.667 0 76.334 -2.33301 107.001 -7s56.334 -10.334 77.001 -17.001l5 -162h-44l-40 109c-12 5.33301 -28.667 10.666 -50 15.999s-43.666 8 -66.999 8c-72 0 -125.5 -24.333 -160.5 -73s-52.5 -117.334 -52.5 -206.001c0 -97.333 17.333 -171.5 52 -222.5
s91.667 -76.5 171 -76.5c23.333 0 44.166 2.5 62.499 7.5s34.5 11.5 48.5 19.5l39 119h47l-6 -167c-24 -10 -52.167 -18 -84.5 -24s-72.166 -9 -119.499 -9zM495.996 851.002l-124 -119h-45l-124 119l17 28l129 -73l130 73z" />
    <glyph glyph-name="ccaron" unicode="&#x10d;" horiz-adv-x="459" 
d="M275 -11c-38.667 0 -72.834 5.83105 -102.501 17.498s-54.667 28.5 -75 50.5s-35.666 48.5 -45.999 79.5s-15.5 65.833 -15.5 104.5c0 46.667 7 86.334 21 119.001s32.667 59.334 56 80.001s50.666 35.834 81.999 45.501s64.666 14.5 99.999 14.5
c23.333 0 46.166 -1.66699 68.499 -5s42.5 -8 60.5 -14v-123h-50l-20 81c-7.33301 2.66699 -15.666 4.83398 -24.999 6.50098s-24.333 2.5 -45 2.5c-48 0 -86.167 -16 -114.5 -48s-42.5 -81.333 -42.5 -148c0 -38 4.5 -69.667 13.5 -95s21.333 -45.833 37 -61.5
s34 -26.834 55 -33.501s43.5 -10 67.5 -10c34 0 61.833 2.66699 83.5 8s38.167 10.666 49.5 15.999v-44c-15.333 -11.333 -35.666 -21.333 -60.999 -30s-57.666 -13 -96.999 -13zM121 719.998l20 28l127 -89l126 89l20 -28l-124 -134h-45z" />
    <glyph glyph-name="Dcaron" unicode="&#x10e;" horiz-adv-x="671" 
d="M30 40l87 17v548l-86 19v39h267c60.667 0 112.167 -7 154.5 -21s77 -34.333 104 -61s46.667 -59.5 59 -98.5s18.5 -83.5 18.5 -133.5c0 -112.667 -26 -199 -78 -259s-134.333 -90 -247 -90h-279v40zM311 52c36 0 67.668 4.66895 95.001 14.002s50.166 25 68.499 47
s32.166 51 41.499 87s14 80.667 14 134c0 61.333 -5.5 110.166 -16.5 146.499s-27 64.166 -48 83.499s-46.667 32 -77 38s-65.166 9 -104.499 9h-71v-559h98zM473.001 851.002l-124 -119h-45l-124 119l17 28l129 -73l130 73z" />
    <glyph glyph-name="dcaron" unicode="&#x10f;" horiz-adv-x="577" 
d="M277 55c22.667 0 43.667 3.33398 63 10.001s34.666 12.667 45.999 18v335l-17 10.5c-6 3.66699 -13 7 -21 10s-17.167 5.5 -27.5 7.5s-22.833 3 -37.5 3c-22 0 -42.333 -3.33301 -61 -10s-34.667 -17.834 -48 -33.501s-23.666 -36.5 -30.999 -62.5s-11 -58.667 -11 -98
c0 -68 12.667 -116.667 38 -146s61 -44 107 -44zM250 -10.999c-23.333 0 -47.3301 3.83203 -71.9971 11.499s-47.334 20.834 -68.001 39.501s-37.5 43.834 -50.5 75.501s-19.5 71.167 -19.5 118.5c0 45.333 6.16699 84.666 18.5 117.999s29.5 61 51.5 83
s48.667 38.333 80 49s66 16 104 16c19.333 0 36.166 -1.16699 50.499 -3.5s28.166 -5.5 41.499 -9.5v195l-79 15v36l157 22l11 -5v-689l72 -16v-32l-144 -22l-11 4v50h-6c-13.333 -16 -31 -29.333 -53 -40s-49.667 -16 -83 -16zM535.003 571
c2 12.667 3.83301 26.833 5.5 42.5s3 31.5 4 47.5s1.83301 31.833 2.5 47.5s1 30.167 1 43.5h89c-2 -16 -4.83301 -32.333 -8.5 -49s-8 -33 -13 -49s-10.5 -31.167 -16.5 -45.5s-11.667 -26.833 -17 -37.5h-47z" />
    <glyph glyph-name="Dcroat" unicode="&#x110;" horiz-adv-x="671" 
d="M39 362h78v243l-86 19v39h267c60.667 0 112.167 -7 154.5 -21s77 -34.333 104 -61s46.667 -59.5 59 -98.5s18.5 -83.5 18.5 -133.5c0 -112.667 -26 -199 -78 -259s-134.333 -90 -247 -90h-279v40l87 17v248h-78v57zM311 52c36 0 67.668 4.66895 95.001 14.002
s50.166 25 68.499 47s32.166 51 41.499 87s14 80.667 14 134c0 61.333 -5.5 110.166 -16.5 146.499s-27 64.166 -48 83.499s-46.667 32 -77 38s-65.166 9 -104.499 9h-71v-249h173v-57h-173v-253h98z" />
    <glyph glyph-name="dcroat" unicode="&#x111;" horiz-adv-x="577" 
d="M277 55c22.667 0 43.667 3.33398 63 10.001s34.666 12.667 45.999 18v335l-17 10.5c-6 3.66699 -13 7 -21 10s-17.167 5.5 -27.5 7.5s-22.833 3 -37.5 3c-22 0 -42.333 -3.33301 -61 -10s-34.667 -17.834 -48 -33.501s-23.666 -36.5 -30.999 -62.5s-11 -58.667 -11 -98
c0 -68 12.667 -116.667 38 -146s61 -44 107 -44zM213 633.001l173.003 -0.000976562v111l78 11l11 -5v-117h83v-42h-83v-530l72 -16v-32l-144 -22l-11 4v50h-6c-13.333 -16 -31 -29.333 -53 -40s-49.667 -16 -83 -16c-23.333 0 -47.333 3.83301 -72 11.5
s-47.334 20.834 -68.001 39.501s-37.5 43.834 -50.5 75.501s-19.5 71.167 -19.5 118.5c0 45.333 6.16699 84.666 18.5 117.999s29.5 61 51.5 83s48.667 38.333 80 49s66 16 104 16c19.333 0 36.166 -1.16699 50.499 -3.5s28.166 -5.5 41.499 -9.5v104h-173v42z" />
    <glyph glyph-name="Emacron" unicode="&#x112;" horiz-adv-x="588" 
d="M30 40l87 17v548l-86 19v39h497l11 -164h-47l-41 112h-238v-245h127l27 91h41v-232h-41l-27 92h-127v-265h248l51 139h47l-13 -191h-516v40zM175 807h273v-59h-273v59z" />
    <glyph glyph-name="emacron" unicode="&#x113;" horiz-adv-x="499" 
d="M277 -11c-42 0 -78.334 6.5 -109.001 19.5s-55.667 31 -75 54s-33.666 50.333 -42.999 82s-14 66.5 -14 104.5c0 39.333 5.83301 74.5 17.5 105.5s27.834 57.333 48.501 79s44.667 38.167 72 49.5s56.666 17 87.999 17c36 0 66.833 -6 92.5 -18s46.667 -29.167 63 -51.5
s28.333 -49.333 36 -81s11.5 -67.5 11.5 -107.5h-338c2.66699 -63.333 18.5 -111 47.5 -143s69.167 -48 120.5 -48c36 0 65.167 3 87.5 9s42.5 13.333 60.5 22v-43c-16 -11.333 -37.333 -22.5 -64 -33.5s-60.667 -16.5 -102 -16.5zM363.999 290
c0 57.333 -8.83301 98.167 -26.5 122.5s-44.5 36.5 -80.5 36.5c-39.333 0 -70 -12.5 -92 -37.5s-34.667 -65.5 -38 -121.5h237zM134.999 679.001h255v-59h-255v59z" />
    <glyph glyph-name="Ebreve" unicode="&#x114;" horiz-adv-x="588" 
d="M30 40l87 17v548l-86 19v39h497l11 -164h-47l-41 112h-238v-245h127l27 91h41v-232h-41l-27 92h-127v-265h248l51 139h47l-13 -191h-516v40zM314 732c-20.667 0 -39.332 3.16699 -55.999 9.5s-31 15 -43 26s-21.667 24 -29 39s-11.333 30.833 -12 47.5h54
c5.33301 -19.333 14.833 -34.166 28.5 -44.499s32.834 -15.5 57.501 -15.5c25.333 0 44.666 5.16699 57.999 15.5s22.666 25.166 27.999 44.499h54c-2 -16.667 -6.5 -32.5 -13.5 -47.5s-16.5 -28 -28.5 -39s-26.333 -19.667 -43 -26s-35 -9.5 -55 -9.5z" />
    <glyph glyph-name="ebreve" unicode="&#x115;" horiz-adv-x="499" 
d="M277 -11c-42 0 -78.334 6.5 -109.001 19.5s-55.667 31 -75 54s-33.666 50.333 -42.999 82s-14 66.5 -14 104.5c0 39.333 5.83301 74.5 17.5 105.5s27.834 57.333 48.501 79s44.667 38.167 72 49.5s56.666 17 87.999 17c36 0 66.833 -6 92.5 -18s46.667 -29.167 63 -51.5
s28.333 -49.333 36 -81s11.5 -67.5 11.5 -107.5h-338c2.66699 -63.333 18.5 -111 47.5 -143s69.167 -48 120.5 -48c36 0 65.167 3 87.5 9s42.5 13.333 60.5 22v-43c-16 -11.333 -37.333 -22.5 -64 -33.5s-60.667 -16.5 -102 -16.5zM363.999 290
c0 57.333 -8.83301 98.167 -26.5 122.5s-44.5 36.5 -80.5 36.5c-39.333 0 -70 -12.5 -92 -37.5s-34.667 -65.5 -38 -121.5h237zM259.999 600.001c-41.333 0 -74.498 12 -99.498 36s-38.5 55.667 -40.5 95h54c5.33301 -24 14.833 -41.667 28.5 -53s32.834 -17 57.501 -17
c25.333 0 44.666 5.66699 57.999 17s22.666 29 27.999 53h54c-3.33301 -39.333 -17.333 -71 -42 -95s-57.334 -36 -98.001 -36z" />
    <glyph glyph-name="Edotaccent" unicode="&#x116;" horiz-adv-x="588" 
d="M30 40l87 17v548l-86 19v39h497l11 -164h-47l-41 112h-238v-245h127l27 91h41v-232h-41l-27 92h-127v-265h248l51 139h47l-13 -191h-516v40zM313 735c-16 0 -29.667 5.66699 -41 17s-17 24.333 -17 39c0 16 5.66699 29.5 17 40.5s25 16.5 41 16.5s29.667 -5.5 41 -16.5
s17 -24.5 17 -40.5c0 -14.667 -5.66699 -27.667 -17 -39s-25 -17 -41 -17z" />
    <glyph glyph-name="edotaccent" unicode="&#x117;" horiz-adv-x="499" 
d="M277 -11c-42 0 -78.334 6.5 -109.001 19.5s-55.667 31 -75 54s-33.666 50.333 -42.999 82s-14 66.5 -14 104.5c0 39.333 5.83301 74.5 17.5 105.5s27.834 57.333 48.501 79s44.667 38.167 72 49.5s56.666 17 87.999 17c36 0 66.833 -6 92.5 -18s46.667 -29.167 63 -51.5
s28.333 -49.333 36 -81s11.5 -67.5 11.5 -107.5h-338c2.66699 -63.333 18.5 -111 47.5 -143s69.167 -48 120.5 -48c36 0 65.167 3 87.5 9s42.5 13.333 60.5 22v-43c-16 -11.333 -37.333 -22.5 -64 -33.5s-60.667 -16.5 -102 -16.5zM363.999 290
c0 57.333 -8.83301 98.167 -26.5 122.5s-44.5 36.5 -80.5 36.5c-39.333 0 -70 -12.5 -92 -37.5s-34.667 -65.5 -38 -121.5h237zM260.999 602.001c-16 0 -29.667 5.66699 -41 17s-17 24.333 -17 39c0 16.667 5.66699 30.334 17 41.001s25 16 41 16s29.667 -5.33301 41 -16
s17 -24.334 17 -41.001c0 -14.667 -5.66699 -27.667 -17 -39s-25 -17 -41 -17z" />
    <glyph glyph-name="Eogonek" unicode="&#x118;" horiz-adv-x="588" 
d="M30 40l87 16.999v548l-86 19v39h497l11 -164h-47l-41 112h-238v-245h127l27 91h41v-232h-41l-27 92h-127v-265h248l51 139h47l-13 -191h-53c-25.333 -21.333 -43.833 -39.833 -55.5 -55.5s-17.5 -33.167 -17.5 -52.5c0 -14 4.33301 -25.833 13 -35.5
s23.334 -14.5 44.001 -14.5h23v-34c-7.33301 -3.33301 -16 -6.16602 -26 -8.49902s-22.333 -3.5 -37 -3.5c-32.667 0 -58.334 7.66699 -77.001 23s-28 35.333 -28 60c0 24 10 46.833 30 68.5s44 39.167 72 52.5h-404v40z" />
    <glyph glyph-name="eogonek" unicode="&#x119;" horiz-adv-x="499" 
d="M341 -204c-32.667 0 -58.335 7.66602 -77.002 22.999s-28 35.333 -28 60c0 24 10 46.333 30 67s44.667 37 74 49c-9.33301 -1.33301 -19.166 -2.66602 -29.499 -3.99902s-21.5 -2 -33.5 -2c-42 0 -78.333 6.5 -109 19.5s-55.667 31 -75 54s-33.666 50.333 -42.999 82
s-14 66.5 -14 104.5c0 39.333 5.83301 74.5 17.5 105.5s27.834 57.333 48.501 79s44.667 38.167 72 49.5s56.666 17 87.999 17c36 0 66.833 -6 92.5 -18s46.667 -29.167 63 -51.5s28.333 -49.333 36 -81s11.5 -67.5 11.5 -107.5h-338c2.66699 -63.333 18.5 -111 47.5 -143
s69.167 -48 120.5 -48c36 0 65.167 3 87.5 9s42.5 13.333 60.5 22v-43l-35.5 -26c-13.667 -10 -26.667 -21.333 -39 -34s-22.833 -26.334 -31.5 -41.001s-13 -30 -13 -46c0 -14 4.33301 -25.833 13 -35.5s23.667 -14.5 45 -14.5h23v-34
c-8 -3.33301 -17 -6.16602 -27 -8.49902s-22.333 -3.5 -37 -3.5zM363.999 289.999c0 57.333 -8.83301 98.167 -26.5 122.5s-44.5 36.5 -80.5 36.5c-39.333 0 -70 -12.5 -92 -37.5s-34.667 -65.5 -38 -121.5h237z" />
    <glyph glyph-name="Ecaron" unicode="&#x11a;" horiz-adv-x="588" 
d="M30 40l87 17v548l-86 19v39h497l11 -164h-47l-41 112h-238v-245h127l27 91h41v-232h-41l-27 92h-127v-265h248l51 139h47l-13 -191h-516v40zM461 851l-124 -119h-45l-124 119l17 28l129 -73l130 73z" />
    <glyph glyph-name="ecaron" unicode="&#x11b;" horiz-adv-x="499" 
d="M277 -11c-42 0 -78.334 6.5 -109.001 19.5s-55.667 31 -75 54s-33.666 50.333 -42.999 82s-14 66.5 -14 104.5c0 39.333 5.83301 74.5 17.5 105.5s27.834 57.333 48.501 79s44.667 38.167 72 49.5s56.666 17 87.999 17c36 0 66.833 -6 92.5 -18s46.667 -29.167 63 -51.5
s28.333 -49.333 36 -81s11.5 -67.5 11.5 -107.5h-338c2.66699 -63.333 18.5 -111 47.5 -143s69.167 -48 120.5 -48c36 0 65.167 3 87.5 9s42.5 13.333 60.5 22v-43c-16 -11.333 -37.333 -22.5 -64 -33.5s-60.667 -16.5 -102 -16.5zM363.999 290
c0 57.333 -8.83301 98.167 -26.5 122.5s-44.5 36.5 -80.5 36.5c-39.333 0 -70 -12.5 -92 -37.5s-34.667 -65.5 -38 -121.5h237zM113.999 720.001l20 28l127 -89l126 89l20 -28l-124 -134h-45z" />
    <glyph glyph-name="Gcircumflex" unicode="&#x11c;" horiz-adv-x="660" 
d="M372 -13c-52 0 -98.6699 6.33301 -140.003 19s-76.166 32.5 -104.499 59.5s-50.166 61.833 -65.499 104.5s-23 94 -23 154c0 66 9.5 121.333 28.5 166s44 80.667 75 108s66.5 46.833 106.5 58.5s81 17.5 123 17.5c43.333 0 80.833 -2.33301 112.5 -7
s57.834 -10.334 78.501 -17.001l7 -163h-44l-40 108c-15.333 8 -33 14.333 -53 19s-43.667 7 -71 7c-74 0 -129.333 -24.333 -166 -73s-55 -117.334 -55 -206.001c0 -97.333 17.333 -171.5 52 -222.5s92 -76.5 172 -76.5c23.333 0 43.5 1.83301 60.5 5.5
s32.167 7.83398 45.5 12.501v185l-88 16v40h256v-40l-71 -16v-229c-28 -9.33301 -58.167 -16.666 -90.5 -21.999s-67.5 -8 -105.5 -8zM211.997 753l124 118h45l124 -118l-17 -28l-129 73l-130 -73z" />
    <glyph glyph-name="gcircumflex" unicode="&#x11d;" horiz-adv-x="510" 
d="M235 231c30.667 0 55.5 9 74.5 27s28.5 45.667 28.5 83c0 20 -2.66699 37 -8 51s-12.666 25.667 -21.999 35s-20.166 16.166 -32.499 20.499s-25.833 6.5 -40.5 6.5c-30.667 0 -55.334 -9.16699 -74.001 -27.5s-28 -46.166 -28 -83.499
c0 -39.333 9.66699 -67.833 29 -85.5s43.666 -26.5 72.999 -26.5zM221 -222c-36.667 0 -67.9932 3.49805 -93.9932 10.498s-47.167 16.333 -63.5 28s-28.166 24.667 -35.499 39s-11 29.166 -11 44.499c0 26.667 8.66699 50.5 26 71.5s42.666 38.167 75.999 51.5v5
c-16.667 5.33301 -30 14 -40 26s-15 27 -15 45c0 18.667 5.16699 37.834 15.5 57.501s25.166 37.167 44.499 52.5c-24.667 11.333 -43.834 27.5 -57.501 48.5s-20.5 47.5 -20.5 79.5c0 26.667 5 50.167 15 70.5s23.667 37.333 41 51s37.5 24 60.5 31s47.5 10.5 73.5 10.5
c17.333 0 34.166 -1.33301 50.499 -4s31.166 -7 44.499 -13l166 20v-65l-115 5v-3c14 -12.667 24.667 -25.667 32 -39s11 -31.333 11 -54c0 -27.333 -5 -51.166 -15 -71.499s-23.667 -37.166 -41 -50.499s-37.5 -23.5 -60.5 -30.5s-47.5 -10.5 -73.5 -10.5
c-28.667 0 -54.334 3 -77.001 9c-7.33301 -7.33301 -13.333 -17.333 -18 -30s-7 -24 -7 -34c0 -8.66699 3.5 -17 10.5 -25s19.167 -12 36.5 -12h156c20 0 39.167 -1.83301 57.5 -5.5s34.666 -10.167 48.999 -19.5s25.666 -21.833 33.999 -37.5s12.5 -35.834 12.5 -60.501
c0 -26 -5.83301 -50.5 -17.5 -73.5s-29 -43.167 -52 -60.5s-51.167 -31.166 -84.5 -41.499s-71.333 -15.5 -114 -15.5zM229.007 -168.002c30.667 0 57.334 3.16602 80.001 9.49902s41.5 14.666 56.5 24.999s26.167 22.333 33.5 36s11 27.834 11 42.501
c0 24.667 -7.66699 42 -23 52s-37 15 -65 15h-148c-25.333 -9.33301 -44 -22.833 -56 -40.5s-18 -37.167 -18 -58.5c0 -25.333 10.167 -45.166 30.5 -59.499s53.166 -21.5 98.499 -21.5zM112.007 614.997l124 135h45l124 -135l-20 -27l-127 88l-126 -88z" />
    <glyph glyph-name="Gbreve" unicode="&#x11e;" horiz-adv-x="660" 
d="M372 -13c-52 0 -98.6699 6.33301 -140.003 19s-76.166 32.5 -104.499 59.5s-50.166 61.833 -65.499 104.5s-23 94 -23 154c0 66 9.5 121.333 28.5 166s44 80.667 75 108s66.5 46.833 106.5 58.5s81 17.5 123 17.5c43.333 0 80.833 -2.33301 112.5 -7
s57.834 -10.334 78.501 -17.001l7 -163h-44l-40 108c-15.333 8 -33 14.333 -53 19s-43.667 7 -71 7c-74 0 -129.333 -24.333 -166 -73s-55 -117.334 -55 -206.001c0 -97.333 17.333 -171.5 52 -222.5s92 -76.5 172 -76.5c23.333 0 43.5 1.83301 60.5 5.5
s32.167 7.83398 45.5 12.501v185l-88 16v40h256v-40l-71 -16v-229c-28 -9.33301 -58.167 -16.666 -90.5 -21.999s-67.5 -8 -105.5 -8zM354.997 732c-20.667 0 -39.332 3.16699 -55.999 9.5s-31 15 -43 26s-21.667 24 -29 39s-11.333 30.833 -12 47.5h54
c5.33301 -19.333 14.833 -34.166 28.5 -44.499s32.834 -15.5 57.501 -15.5c25.333 0 44.666 5.16699 57.999 15.5s22.666 25.166 27.999 44.499h54c-2 -16.667 -6.5 -32.5 -13.5 -47.5s-16.5 -28 -28.5 -39s-26.333 -19.667 -43 -26s-35 -9.5 -55 -9.5z" />
    <glyph glyph-name="gbreve" unicode="&#x11f;" horiz-adv-x="510" 
d="M235 231c30.667 0 55.5 9 74.5 27s28.5 45.667 28.5 83c0 20 -2.66699 37 -8 51s-12.666 25.667 -21.999 35s-20.166 16.166 -32.499 20.499s-25.833 6.5 -40.5 6.5c-30.667 0 -55.334 -9.16699 -74.001 -27.5s-28 -46.166 -28 -83.499
c0 -39.333 9.66699 -67.833 29 -85.5s43.666 -26.5 72.999 -26.5zM221 -222c-36.667 0 -67.9932 3.49805 -93.9932 10.498s-47.167 16.333 -63.5 28s-28.166 24.667 -35.499 39s-11 29.166 -11 44.499c0 26.667 8.66699 50.5 26 71.5s42.666 38.167 75.999 51.5v5
c-16.667 5.33301 -30 14 -40 26s-15 27 -15 45c0 18.667 5.16699 37.834 15.5 57.501s25.166 37.167 44.499 52.5c-24.667 11.333 -43.834 27.5 -57.501 48.5s-20.5 47.5 -20.5 79.5c0 26.667 5 50.167 15 70.5s23.667 37.333 41 51s37.5 24 60.5 31s47.5 10.5 73.5 10.5
c17.333 0 34.166 -1.33301 50.499 -4s31.166 -7 44.499 -13l166 20v-65l-115 5v-3c14 -12.667 24.667 -25.667 32 -39s11 -31.333 11 -54c0 -27.333 -5 -51.166 -15 -71.499s-23.667 -37.166 -41 -50.499s-37.5 -23.5 -60.5 -30.5s-47.5 -10.5 -73.5 -10.5
c-28.667 0 -54.334 3 -77.001 9c-7.33301 -7.33301 -13.333 -17.333 -18 -30s-7 -24 -7 -34c0 -8.66699 3.5 -17 10.5 -25s19.167 -12 36.5 -12h156c20 0 39.167 -1.83301 57.5 -5.5s34.666 -10.167 48.999 -19.5s25.666 -21.833 33.999 -37.5s12.5 -35.834 12.5 -60.501
c0 -26 -5.83301 -50.5 -17.5 -73.5s-29 -43.167 -52 -60.5s-51.167 -31.166 -84.5 -41.499s-71.333 -15.5 -114 -15.5zM229.007 -168.002c30.667 0 57.334 3.16602 80.001 9.49902s41.5 14.666 56.5 24.999s26.167 22.333 33.5 36s11 27.834 11 42.501
c0 24.667 -7.66699 42 -23 52s-37 15 -65 15h-148c-25.333 -9.33301 -44 -22.833 -56 -40.5s-18 -37.167 -18 -58.5c0 -25.333 10.167 -45.166 30.5 -59.499s53.166 -21.5 98.499 -21.5zM259.007 599.997c-41.333 0 -74.498 12 -99.498 36s-38.5 55.667 -40.5 95h54
c5.33301 -24 14.833 -41.667 28.5 -53s32.834 -17 57.501 -17c25.333 0 44.666 5.66699 57.999 17s22.666 29 27.999 53h54c-3.33301 -39.333 -17.333 -71 -42 -95s-57.334 -36 -98.001 -36z" />
    <glyph glyph-name="Gdotaccent" unicode="&#x120;" horiz-adv-x="660" 
d="M372 -13c-52 0 -98.6699 6.33301 -140.003 19s-76.166 32.5 -104.499 59.5s-50.166 61.833 -65.499 104.5s-23 94 -23 154c0 66 9.5 121.333 28.5 166s44 80.667 75 108s66.5 46.833 106.5 58.5s81 17.5 123 17.5c43.333 0 80.833 -2.33301 112.5 -7
s57.834 -10.334 78.501 -17.001l7 -163h-44l-40 108c-15.333 8 -33 14.333 -53 19s-43.667 7 -71 7c-74 0 -129.333 -24.333 -166 -73s-55 -117.334 -55 -206.001c0 -97.333 17.333 -171.5 52 -222.5s92 -76.5 172 -76.5c23.333 0 43.5 1.83301 60.5 5.5
s32.167 7.83398 45.5 12.501v185l-88 16v40h256v-40l-71 -16v-229c-28 -9.33301 -58.167 -16.666 -90.5 -21.999s-67.5 -8 -105.5 -8zM353.997 735c-16 0 -29.667 5.66699 -41 17s-17 24.333 -17 39c0 16 5.66699 29.5 17 40.5s25 16.5 41 16.5s29.667 -5.5 41 -16.5
s17 -24.5 17 -40.5c0 -14.667 -5.66699 -27.667 -17 -39s-25 -17 -41 -17z" />
    <glyph glyph-name="gdotaccent" unicode="&#x121;" horiz-adv-x="510" 
d="M235 231c30.667 0 55.5 9 74.5 27s28.5 45.667 28.5 83c0 20 -2.66699 37 -8 51s-12.666 25.667 -21.999 35s-20.166 16.166 -32.499 20.499s-25.833 6.5 -40.5 6.5c-30.667 0 -55.334 -9.16699 -74.001 -27.5s-28 -46.166 -28 -83.499
c0 -39.333 9.66699 -67.833 29 -85.5s43.666 -26.5 72.999 -26.5zM221 -222c-36.667 0 -67.9932 3.49805 -93.9932 10.498s-47.167 16.333 -63.5 28s-28.166 24.667 -35.499 39s-11 29.166 -11 44.499c0 26.667 8.66699 50.5 26 71.5s42.666 38.167 75.999 51.5v5
c-16.667 5.33301 -30 14 -40 26s-15 27 -15 45c0 18.667 5.16699 37.834 15.5 57.501s25.166 37.167 44.499 52.5c-24.667 11.333 -43.834 27.5 -57.501 48.5s-20.5 47.5 -20.5 79.5c0 26.667 5 50.167 15 70.5s23.667 37.333 41 51s37.5 24 60.5 31s47.5 10.5 73.5 10.5
c17.333 0 34.166 -1.33301 50.499 -4s31.166 -7 44.499 -13l166 20v-65l-115 5v-3c14 -12.667 24.667 -25.667 32 -39s11 -31.333 11 -54c0 -27.333 -5 -51.166 -15 -71.499s-23.667 -37.166 -41 -50.499s-37.5 -23.5 -60.5 -30.5s-47.5 -10.5 -73.5 -10.5
c-28.667 0 -54.334 3 -77.001 9c-7.33301 -7.33301 -13.333 -17.333 -18 -30s-7 -24 -7 -34c0 -8.66699 3.5 -17 10.5 -25s19.167 -12 36.5 -12h156c20 0 39.167 -1.83301 57.5 -5.5s34.666 -10.167 48.999 -19.5s25.666 -21.833 33.999 -37.5s12.5 -35.834 12.5 -60.501
c0 -26 -5.83301 -50.5 -17.5 -73.5s-29 -43.167 -52 -60.5s-51.167 -31.166 -84.5 -41.499s-71.333 -15.5 -114 -15.5zM229.007 -168.002c30.667 0 57.334 3.16602 80.001 9.49902s41.5 14.666 56.5 24.999s26.167 22.333 33.5 36s11 27.834 11 42.501
c0 24.667 -7.66699 42 -23 52s-37 15 -65 15h-148c-25.333 -9.33301 -44 -22.833 -56 -40.5s-18 -37.167 -18 -58.5c0 -25.333 10.167 -45.166 30.5 -59.499s53.166 -21.5 98.499 -21.5zM259.007 601.997c-16 0 -29.667 5.66699 -41 17s-17 24.333 -17 39
c0 16.667 5.66699 30.334 17 41.001s25 16 41 16s29.667 -5.33301 41 -16s17 -24.334 17 -41.001c0 -14.667 -5.66699 -27.667 -17 -39s-25 -17 -41 -17z" />
    <glyph glyph-name="uni0122" unicode="&#x122;" horiz-adv-x="660" 
d="M372 -13c-52 0 -98.6699 6.33301 -140.003 19s-76.166 32.5 -104.499 59.5s-50.166 61.833 -65.499 104.5s-23 94 -23 154c0 66 9.5 121.333 28.5 166s44 80.667 75 108s66.5 46.833 106.5 58.5s81 17.5 123 17.5c43.333 0 80.833 -2.33301 112.5 -7
s57.834 -10.334 78.501 -17.001l7 -163h-44l-40 108c-15.333 8 -33 14.333 -53 19s-43.667 7 -71 7c-74 0 -129.333 -24.333 -166 -73s-55 -117.334 -55 -206.001c0 -97.333 17.333 -171.5 52 -222.5s92 -76.5 172 -76.5c23.333 0 43.5 1.83301 60.5 5.5
s32.167 7.83398 45.5 12.501v185l-88 16v40h256v-40l-71 -16v-229c-28 -9.33301 -58.167 -16.666 -90.5 -21.999s-67.5 -8 -105.5 -8zM291.997 -218c16 2.66699 29.001 6.50098 39.001 11.501s17.667 10.833 23 17.5s9.16602 13.667 11.499 21s3.5 15 3.5 23
c-3.33301 -4 -7.16602 -7.16699 -11.499 -9.5s-11.166 -3.5 -20.499 -3.5c-12 0 -22 4.16699 -30 12.5s-12 19.833 -12 34.5c0 15.333 5.5 27.5 16.5 36.5s24.833 13.5 41.5 13.5c19.333 0 35.666 -6.33301 48.999 -19s20 -31.334 20 -56.001c0 -11.333 -1.33301 -23 -4 -35
s-8.33398 -23.5 -17.001 -34.5s-21 -20.833 -37 -29.5s-37.333 -15 -64 -19z" />
    <glyph glyph-name="uni0123" unicode="&#x123;" horiz-adv-x="510" 
d="M235 231c30.667 0 55.5 9 74.5 27s28.5 45.667 28.5 83c0 20 -2.66699 37 -8 51s-12.666 25.667 -21.999 35s-20.166 16.166 -32.499 20.499s-25.833 6.5 -40.5 6.5c-30.667 0 -55.334 -9.16699 -74.001 -27.5s-28 -46.166 -28 -83.499
c0 -39.333 9.66699 -67.833 29 -85.5s43.666 -26.5 72.999 -26.5zM221 -222c-36.667 0 -67.9932 3.49805 -93.9932 10.498s-47.167 16.333 -63.5 28s-28.166 24.667 -35.499 39s-11 29.166 -11 44.499c0 26.667 8.66699 50.5 26 71.5s42.666 38.167 75.999 51.5v5
c-16.667 5.33301 -30 14 -40 26s-15 27 -15 45c0 18.667 5.16699 37.834 15.5 57.501s25.166 37.167 44.499 52.5c-24.667 11.333 -43.834 27.5 -57.501 48.5s-20.5 47.5 -20.5 79.5c0 26.667 5 50.167 15 70.5s23.667 37.333 41 51s37.5 24 60.5 31s47.5 10.5 73.5 10.5
c17.333 0 34.166 -1.33301 50.499 -4s31.166 -7 44.499 -13l166 20v-65l-115 5v-3c14 -12.667 24.667 -25.667 32 -39s11 -31.333 11 -54c0 -27.333 -5 -51.166 -15 -71.499s-23.667 -37.166 -41 -50.499s-37.5 -23.5 -60.5 -30.5s-47.5 -10.5 -73.5 -10.5
c-28.667 0 -54.334 3 -77.001 9c-7.33301 -7.33301 -13.333 -17.333 -18 -30s-7 -24 -7 -34c0 -8.66699 3.5 -17 10.5 -25s19.167 -12 36.5 -12h156c20 0 39.167 -1.83301 57.5 -5.5s34.666 -10.167 48.999 -19.5s25.666 -21.833 33.999 -37.5s12.5 -35.834 12.5 -60.501
c0 -26 -5.83301 -50.5 -17.5 -73.5s-29 -43.167 -52 -60.5s-51.167 -31.166 -84.5 -41.499s-71.333 -15.5 -114 -15.5zM229.007 -168.002c30.667 0 57.334 3.16602 80.001 9.49902s41.5 14.666 56.5 24.999s26.167 22.333 33.5 36s11 27.834 11 42.501
c0 24.667 -7.66699 42 -23 52s-37 15 -65 15h-148c-25.333 -9.33301 -44 -22.833 -56 -40.5s-18 -37.167 -18 -58.5c0 -25.333 10.167 -45.166 30.5 -59.499s53.166 -21.5 98.499 -21.5zM318.007 738.997c-16 -3.33301 -29.001 -7.50195 -39.001 -12.502
s-17.667 -10.667 -23 -17s-9.16602 -13.166 -11.499 -20.499s-3.5 -15 -3.5 -23c3.33301 3.33301 7.16602 6.33301 11.499 9s11.166 4 20.499 4c12 0 22 -4.16699 30 -12.5s12 -19.833 12 -34.5c0 -15.333 -5.5 -27.666 -16.5 -36.999s-24.833 -14 -41.5 -14
c-19.333 0 -35.666 6.5 -48.999 19.5s-20 31.833 -20 56.5c0 10.667 1.33301 22.167 4 34.5s8.33398 24 17.001 35s21.167 20.833 37.5 29.5s37.833 15 64.5 19z" />
    <glyph glyph-name="Hcircumflex" unicode="&#x124;" horiz-adv-x="722" 
d="M30 40l86 16v549l-86 19v39h266v-39l-83 -19v-242h299v242l-86 19v39h266v-39l-84 -19v-549l84 -16v-40h-266v40l86 16v259h-299v-259l83 -16v-40h-266v40zM217 753l124 118h45l124 -118l-17 -28l-129 73l-130 -73z" />
    <glyph glyph-name="hcircumflex" unicode="&#x125;" horiz-adv-x="583" 
d="M25 32l73 16v634l-73 15v36l150 22l11 -5v-297h5c24 12.667 49.5 23.667 76.5 33s55.5 14 85.5 14c46 0 80.667 -9.66699 104 -29s35 -53.333 35 -102v-321l73 -16v-32h-232v32l71 16v298c0 34 -8.66699 57 -26 69s-43.333 18 -78 18
c-20.667 0 -40.167 -2.16699 -58.5 -6.5s-36.833 -9.83301 -55.5 -16.5v-362l71 -16v-32h-232v32zM150 832l124 118h45l124 -118l-17 -28l-129 73l-130 -73z" />
    <glyph glyph-name="Hbar" unicode="&#x126;" horiz-adv-x="722" 
d="M512 363v103h-299v-103h299zM16 512h100v93l-86 19v39h266v-39l-83 -19v-93h299v93l-86 19v39h266v-39l-84 -19v-93h99v-46h-99v-410l84 -16v-40h-266v40l86 16v259h-299v-259l83 -16v-40h-266v40l86 16v410h-100v46z" />
    <glyph glyph-name="hbar" unicode="&#x127;" horiz-adv-x="583" 
d="M6 633h92v111l77 11l11 -5v-117h173v-42h-173v-138h5c24 12.667 49.5 23.667 76.5 33s55.5 14 85.5 14c46 0 80.667 -9.66699 104 -29s35 -53.333 35 -102v-321l73 -16v-32h-232v32l71 16v298c0 34 -8.66699 57 -26 69s-43.333 18 -78 18
c-20.667 0 -40.167 -2.16699 -58.5 -6.5s-36.833 -9.83301 -55.5 -16.5v-362l71 -16v-32h-232v32l73 16v543h-92v42z" />
    <glyph glyph-name="Itilde" unicode="&#x128;" horiz-adv-x="326" 
d="M30 40l86 16v550l-86 18v39h266v-39l-83 -18v-550l83 -16v-40h-266v40zM2 756c27.333 64.667 61.999 97 103.999 97c10 0 20.667 -2.16699 32 -6.5s22.333 -9 33 -14s20.834 -9.5 30.501 -13.5s17.834 -6 24.501 -6c9.33301 0 19 3.16699 29 9.5s20.667 19.5 32 39.5
l39 -17c-27.333 -66 -62 -99 -104 -99c-10 0 -20.667 2 -32 6s-22.333 8.5 -33 13.5l-30.5 14c-9.66699 4.33301 -17.834 6.5 -24.501 6.5c-9.33301 0 -19 -3 -29 -9s-20.667 -18.667 -32 -38z" />
    <glyph glyph-name="itilde" unicode="&#x129;" horiz-adv-x="282" 
d="M-21 619c25.333 64 58.333 96 99 96c10 0 20.333 -2 31 -6s21 -8.5 31 -13.5l28 -13.5c8.66699 -4 16 -6 22 -6c9.33301 0 18.333 3.16699 27 9.5s18.667 19.5 30 39.5l38 -18c-26 -65.333 -58.667 -98 -98 -98c-10 0 -20.333 2 -31 6s-21 8.5 -31 13.5l-28 13.5
c-8.66699 4 -16 6 -22 6c-9.33301 0 -18.5 -3 -27.5 -9s-19.167 -18.667 -30.5 -38zM26 32l72 16v376l-78 15v37l156 23l10 -6v-445l73 -16v-32h-233v32z" />
    <glyph glyph-name="Imacron" unicode="&#x12a;" horiz-adv-x="326" 
d="M30 40l86 16v550l-86 18v39h266v-39l-83 -18v-550l83 -16v-40h-266v40zM27 807h273v-59h-273v59z" />
    <glyph glyph-name="imacron" unicode="&#x12b;" horiz-adv-x="282" 
d="M13 679h227v-59h-227v59zM26 32l72 16v376l-78 15v37l156 23l10 -6v-445l73 -16v-32h-233v32z" />
    <glyph glyph-name="Ibreve" unicode="&#x12c;" horiz-adv-x="326" 
d="M30 40l86 16v550l-86 18v39h266v-39l-83 -18v-550l83 -16v-40h-266v40zM167 732c-20.667 0 -39.332 3.16699 -55.999 9.5s-31 15 -43 26s-21.667 24 -29 39s-11.333 30.833 -12 47.5h54c5.33301 -19.333 14.833 -34.166 28.5 -44.499s32.834 -15.5 57.501 -15.5
c25.333 0 44.666 5.16699 57.999 15.5s22.666 25.166 27.999 44.499h54c-2 -16.667 -6.5 -32.5 -13.5 -47.5s-16.5 -28 -28.5 -39s-26.333 -19.667 -43 -26s-35 -9.5 -55 -9.5z" />
    <glyph glyph-name="ibreve" unicode="&#x12d;" horiz-adv-x="282" 
d="M26 32l72 16v376l-78 15v37l156 23l10 -6v-445l73 -16v-32h-233v32zM130 600c-41.333 0 -74.498 12 -99.498 36s-38.5 55.667 -40.5 95h54c5.33301 -24 14.833 -41.667 28.5 -53s32.834 -17 57.501 -17c25.333 0 44.666 5.66699 57.999 17s22.666 29 27.999 53h54
c-3.33301 -39.333 -17.333 -71 -42 -95s-57.334 -36 -98.001 -36z" />
    <glyph glyph-name="Iogonek" unicode="&#x12e;" horiz-adv-x="326" 
d="M30 40l85.998 16v550l-86 18v39h266v-39l-83 -18v-550l83 -16v-40h-82c-20.667 -21.333 -35.167 -39.833 -43.5 -55.5s-12.5 -33.167 -12.5 -52.5c0 -14 4.5 -25.833 13.5 -35.5s23.833 -14.5 44.5 -14.5h23v-34c-7.33301 -3.33301 -16.166 -6.16602 -26.499 -8.49902
s-22.5 -3.5 -36.5 -3.5c-33.333 0 -59.166 7.66699 -77.499 23s-27.5 35.333 -27.5 60c0 23.333 8.5 45.666 25.5 66.999s38.167 39.333 63.5 54h-130v40z" />
    <glyph glyph-name="iogonek" unicode="&#x12f;" horiz-adv-x="282" 
d="M138 602c-16 0 -29.667 5.66699 -41 17s-17 24.333 -17 39c0 16.667 5.66699 30.334 17 41.001s25 16 41 16s29.667 -5.33301 41 -16s17 -24.334 17 -41.001c0 -14.667 -5.66699 -27.667 -17 -39s-25 -17 -41 -17zM26 32l72.001 16v376l-78 15v37l156 23l10 -6v-445
l73 -16v-32h-62c-21.333 -21.333 -36 -39.833 -44 -55.5s-12 -33.167 -12 -52.5c0 -14 4.33301 -25.833 13 -35.5s23.667 -14.5 45 -14.5h23v-34c-8 -3.33301 -17 -6.16602 -27 -8.49902s-22.333 -3.5 -37 -3.5c-32.667 0 -58.334 7.66699 -77.001 23s-28 35.333 -28 60
c0 23.333 8.83301 45.666 26.5 66.999s39.167 39.333 64.5 54h-118v32z" />
    <glyph glyph-name="Idotaccent" unicode="&#x130;" horiz-adv-x="326" 
d="M30 40l86 16v550l-86 18v39h266v-39l-83 -18v-550l83 -16v-40h-266v40zM164 735c-16 0 -29.667 5.66699 -41 17s-17 24.333 -17 39c0 16 5.66699 29.5 17 40.5s25 16.5 41 16.5s29.667 -5.5 41 -16.5s17 -24.5 17 -40.5c0 -14.667 -5.66699 -27.667 -17 -39
s-25 -17 -41 -17z" />
    <glyph glyph-name="dotlessi" unicode="&#x131;" horiz-adv-x="282" 
d="M26 32l72 16v376l-78 15v37l156 23l10 -6v-445l73 -16v-32h-233v32z" />
    <glyph glyph-name="IJ" unicode="&#x132;" horiz-adv-x="729" 
d="M30 40l86 16v550l-86 18v39h266v-39l-83 -18v-550l83 -16v-40h-266v40zM455 -9c-25.333 0 -46.667 2.49902 -64 7.49902s-32 10.5 -44 16.5v53c15.333 -5.33301 29.833 -9.33301 43.5 -12s29.834 -4 48.501 -4c13.333 0 25.5 1.33301 36.5 4s20.5 7.83398 28.5 15.501
s14.167 18 18.5 31s6.5 29.833 6.5 50.5v452l-86 19v39h266v-39l-83 -19v-461c0 -50 -15.333 -88 -46 -114s-72.334 -39 -125.001 -39z" />
    <glyph glyph-name="ij" unicode="&#x133;" horiz-adv-x="552" 
d="M138 602c-16 0 -29.667 5.66699 -41 17s-17 24.333 -17 39c0 16.667 5.66699 30.334 17 41.001s25 16 41 16s29.667 -5.33301 41 -16s17 -24.334 17 -41.001c0 -14.667 -5.66699 -27.667 -17 -39s-25 -17 -41 -17zM26 32l72 16v376l-78 15v37l156 23l10 -6v-445l73 -16
v-32h-233v32zM420 602c-16 0 -29.667 5.66699 -41 17s-17 24.333 -17 39c0 16.667 5.66699 30.334 17 41.001s25 16 41 16s29.667 -5.33301 41 -16s17 -24.334 17 -41.001c0 -14.667 -5.66699 -27.667 -17 -39s-25 -17 -41 -17zM321 -214
c-12 0 -24.1699 1.33008 -36.5029 3.99707s-24.166 6.33398 -35.499 11.001v39c7.33301 -0.666992 14.833 -1.16699 22.5 -1.5s14.834 -0.5 21.501 -0.5c12 0 23.167 1.33301 33.5 4s19.5 7.33398 27.5 14.001s14.333 16 19 28s7 27.667 7 47v493l-78 15v37l156 23l10 -6
v-572c0 -43.333 -12.667 -76.666 -38 -99.999s-61.666 -35 -108.999 -35z" />
    <glyph glyph-name="Jcircumflex" unicode="&#x134;" horiz-adv-x="412" 
d="M133 -9c-28 0 -50.667 2.49902 -68 7.49902s-32 10.5 -44 16.5v53c8 -2.66699 15.5 -5 22.5 -7s14.333 -3.66699 22 -5s16 -2.33301 25 -3s19.167 -1 30.5 -1c14 0 26.667 1.33301 38 4s21 7.83398 29 15.501s14.167 18 18.5 31s6.5 29.833 6.5 50.5v452l-86 19v39h266
v-39l-84 -19v-461c0 -50 -15.333 -88 -46 -114s-74 -39 -130 -39zM113 752.999l124 118h45l124 -118l-17 -28l-129 73l-130 -73z" />
    <glyph glyph-name="jcircumflex" unicode="&#x135;" horiz-adv-x="270" 
d="M40 -214c-12 0 -24.1699 1.33008 -36.5029 3.99707s-24.166 6.33398 -35.499 11.001v39c7.33301 -0.666992 14.833 -1.16699 22.5 -1.5s14.834 -0.5 21.501 -0.5c12 0 23.167 1.33301 33.5 4s19.5 7.33398 27.5 14.001s14.333 16 19 28s7 27.667 7 47v493l-78 15v37
l156 23l10 -6v-572c0 -43.333 -12.667 -76.666 -38 -99.999s-61.666 -35 -108.999 -35zM-9.00293 614.997l124 135h45l124 -135l-20 -27l-127 88l-126 -88z" />
    <glyph glyph-name="uni0136" unicode="&#x136;" horiz-adv-x="656" 
d="M30 40l86 16v550l-86 18v39h270v-39l-87 -18v-298l261 298l-62 18v39h208v-39l-65 -18l-204 -222l213 -327l73 -17v-40h-150l-201 316l-73 -66v-194l87 -16v-40h-270v40zM280 -218c16 2.66699 29.001 6.50098 39.001 11.501s17.667 10.833 23 17.5
s9.16602 13.667 11.499 21s3.5 15 3.5 23c-3.33301 -4 -7.16602 -7.16699 -11.499 -9.5s-11.166 -3.5 -20.499 -3.5c-12 0 -22 4.16699 -30 12.5s-12 19.833 -12 34.5c0 15.333 5.5 27.5 16.5 36.5s24.833 13.5 41.5 13.5c19.333 0 35.666 -6.33301 48.999 -19
s20 -31.334 20 -56.001c0 -11.333 -1.33301 -23 -4 -35s-8.33398 -23.5 -17.001 -34.5s-21 -20.833 -37 -29.5s-37.333 -15 -64 -19z" />
    <glyph glyph-name="uni0137" unicode="&#x137;" horiz-adv-x="534" 
d="M232 220l-46 4v-177l74 -15v-32h-235v32l73 15v635l-73 15v36l150 22l11 -5v-496l50 20l128 168l-58 14v35h195v-35l-70 -14l-138 -168l167 -226l63 -16v-32h-132zM219 -218c16 2.66699 29.001 6.50098 39.001 11.501s17.667 10.833 23 17.5s9.16602 13.667 11.499 21
s3.5 15 3.5 23c-3.33301 -4 -7.16602 -7.16699 -11.499 -9.5s-11.166 -3.5 -20.499 -3.5c-12 0 -22 4.16699 -30 12.5s-12 19.833 -12 34.5c0 15.333 5.5 27.5 16.5 36.5s24.833 13.5 41.5 13.5c19.333 0 35.666 -6.33301 48.999 -19s20 -31.334 20 -56.001
c0 -11.333 -1.33301 -23 -4 -35s-8.33398 -23.5 -17.001 -34.5s-21 -20.833 -37 -29.5s-37.333 -15 -64 -19z" />
    <glyph glyph-name="Lacute" unicode="&#x139;" horiz-adv-x="558" 
d="M30 40l86 16v550l-86 18v39h275v-39l-92 -18v-554h225l48 158h45l-12 -210h-489v40zM61 755l200 124l33 -77l-217 -83z" />
    <glyph glyph-name="lacute" unicode="&#x13a;" horiz-adv-x="282" 
d="M25 32l73 16v634l-80 15v36l157 22l11 -5v-702l73 -16v-32h-234v32zM30 834l200 124l33 -77l-217 -83z" />
    <glyph glyph-name="uni013B" unicode="&#x13b;" horiz-adv-x="558" 
d="M30 40l86 16v550l-86 18v39h275v-39l-92 -18v-554h225l48 158h45l-12 -210h-489v40zM237 -218c16 2.66699 29.001 6.50098 39.001 11.501s17.667 10.833 23 17.5s9.16602 13.667 11.499 21s3.5 15 3.5 23c-3.33301 -4 -7.16602 -7.16699 -11.499 -9.5
s-11.166 -3.5 -20.499 -3.5c-12 0 -22 4.16699 -30 12.5s-12 19.833 -12 34.5c0 15.333 5.5 27.5 16.5 36.5s24.833 13.5 41.5 13.5c19.333 0 35.666 -6.33301 48.999 -19s20 -31.334 20 -56.001c0 -11.333 -1.33301 -23 -4 -35s-8.33398 -23.5 -17.001 -34.5
s-21 -20.833 -37 -29.5s-37.333 -15 -64 -19z" />
    <glyph glyph-name="uni013C" unicode="&#x13c;" horiz-adv-x="282" 
d="M25 32l73 16v634l-80 15v36l157 22l11 -5v-702l73 -16v-32h-234v32zM77 -218c16 2.66699 29.001 6.50098 39.001 11.501s17.667 10.833 23 17.5s9.16602 13.667 11.499 21s3.5 15 3.5 23c-3.33301 -4 -7.16602 -7.16699 -11.499 -9.5s-11.166 -3.5 -20.499 -3.5
c-12 0 -22 4.16699 -30 12.5s-12 19.833 -12 34.5c0 15.333 5.5 27.5 16.5 36.5s24.833 13.5 41.5 13.5c19.333 0 35.666 -6.33301 48.999 -19s20 -31.334 20 -56.001c0 -11.333 -1.33301 -23 -4 -35s-8.33398 -23.5 -17.001 -34.5s-21 -20.833 -37 -29.5
s-37.333 -15 -64 -19z" />
    <glyph glyph-name="Lcaron" unicode="&#x13d;" horiz-adv-x="558" 
d="M30 40l86 16v550l-86 18v39h275v-39l-92 -18v-554h225l48 158h45l-12 -210h-489v40zM379 509c2 12.667 3.83301 26.833 5.5 42.5s3 31.5 4 47.5s1.83301 31.833 2.5 47.5s1 30.167 1 43.5h89c-2 -16 -4.83301 -32.333 -8.5 -49s-8 -33 -13 -49s-10.5 -31.167 -16.5 -45.5
s-11.667 -26.833 -17 -37.5h-47z" />
    <glyph glyph-name="lcaron" unicode="&#x13e;" horiz-adv-x="282" 
d="M25 32l73 16v634l-80 15v36l157 22l11 -5v-702l73 -16v-32h-234v32zM245 571c2 12.667 3.83301 26.833 5.5 42.5s3 31.5 4 47.5s1.83301 31.833 2.5 47.5s1 30.167 1 43.5h89c-2 -16 -4.83301 -32.333 -8.5 -49s-8 -33 -13 -49s-10.5 -31.167 -16.5 -45.5
s-11.667 -26.833 -17 -37.5h-47z" />
    <glyph glyph-name="Ldot" unicode="&#x13f;" horiz-adv-x="558" 
d="M30 40l86 16v550l-86 18v39h275v-39l-92 -18v-554h225l48 143h45l-12 -195h-489v40zM477 301c-19.333 0 -35.666 6.33301 -48.999 19s-20 28.667 -20 48s6.66699 35.333 20 48s29.666 19 48.999 19s35.666 -6.33301 48.999 -19s20 -28.667 20 -48
s-6.66699 -35.333 -20 -48s-29.666 -19 -48.999 -19z" />
    <glyph glyph-name="ldot" unicode="&#x140;" horiz-adv-x="410" 
d="M346 290c-17.333 0 -32.333 5.83301 -45 17.5s-19 26.5 -19 44.5c0 17.333 6.33301 32 19 44s27.667 18 45 18c18 0 33.167 -6 45.5 -18s18.5 -26.667 18.5 -44c0 -18 -6.16699 -32.833 -18.5 -44.5s-27.5 -17.5 -45.5 -17.5zM25 32l73 16v634l-80 15v36l157 22l11 -5
v-702l73 -16v-32h-234v32z" />
    <glyph glyph-name="Lslash" unicode="&#x141;" horiz-adv-x="558" 
d="M30 40l86 16v194l-77 -30v59l77 31v296l-86 18v39h275v-39l-92 -18v-257l230 93v-60l-230 -93v-237h225l48 158h45l-12 -210h-489v40z" />
    <glyph glyph-name="lslash" unicode="&#x142;" horiz-adv-x="319" 
d="M43 32l73 16v274l-87 -49v60l87 49v300l-79 15v36l156 22l11 -5v-318l95 54v-60l-95 -53v-325l73 -16v-32h-234v32z" />
    <glyph glyph-name="Nacute" unicode="&#x143;" horiz-adv-x="706" 
d="M30 38l87 18v549l-87 19v39h215l215 -363c8 -14 16.667 -30 26 -48l25 -50l26 -56h5v458l-86 20v39h228v-38l-76 -20v-605h-76l-266 450c-8.66699 14 -17.5 29.667 -26.5 47l-24.5 49l-26 54h-5v-543l86 -18v-39h-240v38zM269 755l200 124l33 -77l-217 -83z" />
    <glyph glyph-name="nacute" unicode="&#x144;" horiz-adv-x="585" 
d="M25 32l73 16v376l-73 15v37l146 23l10 -6v-43h6c24.667 13.333 51 25 79 35s57 15 87 15c46 0 80.667 -9.66699 104 -29s35 -53.333 35 -102v-321l73 -16v-32h-232v32l71 16v298c0 33.333 -8.66699 56 -26 68s-43.333 18 -78 18c-20.667 0 -40.167 -2 -58.5 -6
s-36.833 -9.33301 -55.5 -16v-362l71 -16v-32h-232v32zM184 623l200 123l32 -73l-216 -86z" />
    <glyph glyph-name="uni0145" unicode="&#x145;" horiz-adv-x="706" 
d="M30 38l87 18v549l-87 19v39h215l215 -363c8 -14 16.667 -30 26 -48l25 -50l26 -56h5v458l-86 20v39h228v-38l-76 -20v-605h-76l-266 450c-8.66699 14 -17.5 29.667 -26.5 47l-24.5 49l-26 54h-5v-543l86 -18v-39h-240v38zM311 -218
c16 2.66699 29.001 6.50098 39.001 11.501s17.667 10.833 23 17.5s9.16602 13.667 11.499 21s3.5 15 3.5 23c-3.33301 -4 -7.16602 -7.16699 -11.499 -9.5s-11.166 -3.5 -20.499 -3.5c-12 0 -22 4.16699 -30 12.5s-12 19.833 -12 34.5c0 15.333 5.5 27.5 16.5 36.5
s24.833 13.5 41.5 13.5c19.333 0 35.666 -6.33301 48.999 -19s20 -31.334 20 -56.001c0 -11.333 -1.33301 -23 -4 -35s-8.33398 -23.5 -17.001 -34.5s-21 -20.833 -37 -29.5s-37.333 -15 -64 -19z" />
    <glyph glyph-name="uni0146" unicode="&#x146;" horiz-adv-x="585" 
d="M25 32l73 16v376l-73 15v37l146 23l10 -6v-43h6c24.667 13.333 51 25 79 35s57 15 87 15c46 0 80.667 -9.66699 104 -29s35 -53.333 35 -102v-321l73 -16v-32h-232v32l71 16v298c0 33.333 -8.66699 56 -26 68s-43.333 18 -78 18c-20.667 0 -40.167 -2 -58.5 -6
s-36.833 -9.33301 -55.5 -16v-362l71 -16v-32h-232v32zM228 -218c16 2.66699 29.001 6.50098 39.001 11.501s17.667 10.833 23 17.5s9.16602 13.667 11.499 21s3.5 15 3.5 23c-3.33301 -4 -7.16602 -7.16699 -11.499 -9.5s-11.166 -3.5 -20.499 -3.5
c-12 0 -22 4.16699 -30 12.5s-12 19.833 -12 34.5c0 15.333 5.5 27.5 16.5 36.5s24.833 13.5 41.5 13.5c19.333 0 35.666 -6.33301 48.999 -19s20 -31.334 20 -56.001c0 -11.333 -1.33301 -23 -4 -35s-8.33398 -23.5 -17.001 -34.5s-21 -20.833 -37 -29.5
s-37.333 -15 -64 -19z" />
    <glyph glyph-name="Ncaron" unicode="&#x147;" horiz-adv-x="706" 
d="M30 38l87 18v549l-87 19v39h215l215 -363c8 -14 16.667 -30 26 -48l25 -50l26 -56h5v458l-86 20v39h228v-38l-76 -20v-605h-76l-266 450c-8.66699 14 -17.5 29.667 -26.5 47l-24.5 49l-26 54h-5v-543l86 -18v-39h-240v38zM523 851l-124 -119h-45l-124 119l17 28l129 -73
l130 73z" />
    <glyph glyph-name="ncaron" unicode="&#x148;" horiz-adv-x="585" 
d="M25 32l73 16v376l-73 15v37l146 23l10 -6v-43h6c24.667 13.333 51 25 79 35s57 15 87 15c46 0 80.667 -9.66699 104 -29s35 -53.333 35 -102v-321l73 -16v-32h-232v32l71 16v298c0 33.333 -8.66699 56 -26 68s-43.333 18 -78 18c-20.667 0 -40.167 -2 -58.5 -6
s-36.833 -9.33301 -55.5 -16v-362l71 -16v-32h-232v32zM146 720l20 28l127 -89l126 89l20 -28l-124 -134h-45z" />
    <glyph glyph-name="napostrophe" unicode="&#x149;" horiz-adv-x="665" 
d="M105 32l73 16v376l-73 15v37l146 23l10 -6v-43h6c24.667 13.333 51 25 79 35s57 15 87 15c46 0 80.667 -9.66699 104 -29s35 -53.333 35 -102v-321l73 -16v-32h-232v32l71 16v298c0 33.333 -8.66699 56 -26 68s-43.333 18 -78 18c-20.667 0 -40.167 -2 -58.5 -6
s-36.833 -9.33301 -55.5 -16v-362l71 -16v-32h-232v32zM-96 430c23.333 11.333 42.665 22.668 57.998 34.001s27.5 22.833 36.5 34.5s15.333 24 19 37s5.83398 26.5 6.50098 40.5c-4 -4 -8.5 -7.16699 -13.5 -9.5s-13.167 -3.5 -24.5 -3.5c-14 0 -26 4.66699 -36 14
s-15 22.666 -15 39.999c0 18 6.33301 32 19 42s28.667 15 48 15c20.667 0 39.334 -8.16699 56.001 -24.5s25 -41.5 25 -75.5c0 -15.333 -2.33301 -31 -7 -47s-13 -31.833 -25 -47.5s-28.667 -30.667 -50 -45s-49 -26.833 -83 -37.5z" />
    <glyph glyph-name="Eng" unicode="&#x14a;" horiz-adv-x="706" 
d="M30 38l87.001 17.998v549l-87 19v39h215l215 -363c8 -14 16.667 -30 26 -48l25 -50l26 -56h5v458l-86 20v39h228v-38l-76 -20v-618c0 -53.333 -12.333 -92.666 -37 -117.999s-65.667 -38 -123 -38c-24 0 -43.333 1.5 -58 4.5s-28 7.16699 -40 12.5v43
c9.33301 -1.33301 19.166 -2.66602 29.499 -3.99902s23.833 -2 40.5 -2c34 0 61.5 7.66699 82.5 23s32.167 43.333 33.5 84l-270 458c-8.66699 14 -17.5 29.667 -26.5 47l-24.5 49l-26 54h-5v-543l86 -18v-39h-240v38z" />
    <glyph glyph-name="eng" unicode="&#x14b;" horiz-adv-x="575" 
d="M25 32l72.999 15.9971v376l-73 15v37l146 23l10 -6v-43h6c24.667 13.333 51 25 79 35s57 15 87 15c46 0 80.667 -9.66699 104 -29s35 -53.333 35 -102v-432c0 -43.333 -12.667 -76.666 -38 -99.999s-62 -35 -110 -35c-12 0 -24.167 1.33301 -36.5 4
s-24.166 6.33398 -35.499 11.001v39c7.33301 -0.666992 15 -1.16699 23 -1.5s15 -0.5 21 -0.5c12 0 23.333 1.33301 34 4s20 7.33398 28 14.001s14.333 16 19 28s7 27.667 7 47v399c0 33.333 -8.66699 56 -26 68s-43.333 18 -78 18c-20.667 0 -40.167 -2 -58.5 -6
s-36.833 -9.33301 -55.5 -16v-362l71 -16v-32h-232v32z" />
    <glyph glyph-name="Omacron" unicode="&#x14c;" horiz-adv-x="682" 
d="M339 -11c-41.333 0 -80.3301 7.33105 -116.997 21.998s-68.5 36.5 -95.5 65.5s-48.333 64.833 -64 107.5s-23.5 92 -23.5 148c0 59.333 8.83301 110.5 26.5 153.5s40.667 78.5 69 106.5s60.666 48.667 96.999 62s73.166 20 110.499 20c42 0 81.167 -7.33301 117.5 -22
s68.166 -36.334 95.499 -65.001s48.833 -64.167 64.5 -106.5s23.5 -91.166 23.5 -146.499c0 -59.333 -8.83301 -110.666 -26.5 -153.999s-40.834 -79.166 -69.501 -107.499s-61.167 -49.333 -97.5 -63s-73.166 -20.5 -110.499 -20.5zM341.003 42.998
c34 0 63.501 6.99805 88.501 20.998s45.833 33.5 62.5 58.5s29 54.5 37 88.5s12 71 12 111c0 97.333 -16.667 171.5 -50 222.5s-84 76.5 -152 76.5c-34 0 -63.5 -7.16699 -88.5 -21.5s-45.667 -34 -62 -59s-28.333 -54.667 -36 -89s-11.5 -71.5 -11.5 -111.5
c0 -44 3.5 -84.167 10.5 -120.5s18.333 -67.666 34 -93.999s36.167 -46.666 61.5 -60.999s56.666 -21.5 93.999 -21.5zM205.004 806.996h273v-59h-273v59z" />
    <glyph glyph-name="omacron" unicode="&#x14d;" horiz-adv-x="546" 
d="M274 -13c-35.333 0 -67.665 6 -96.998 18s-54.5 29.167 -75.5 51.5s-37.167 49.166 -48.5 80.499s-17 66.333 -17 105s6.16699 73.834 18.5 105.501s29.166 58.834 50.499 81.501s46.333 40.167 75 52.5s59 18.5 91 18.5c35.333 0 67.666 -6 96.999 -18
s54.5 -29 75.5 -51s37.333 -48.5 49 -79.5s17.5 -65.833 17.5 -104.5s-6.16699 -73.834 -18.5 -105.501s-29.166 -59 -50.499 -82s-46.333 -40.833 -75 -53.5s-59.334 -19 -92.001 -19zM275.001 40c18 0 35.667 3.33203 53 9.99902s32.5 17.667 45.5 33
s23.5 35.666 31.5 60.999s12 57 12 95c0 39.333 -4.16699 72.333 -12.5 99s-19.333 48.167 -33 64.5s-29.334 28 -47.001 35s-35.834 10.5 -54.501 10.5c-18 0 -35.5 -3.33301 -52.5 -10s-32.167 -17.667 -45.5 -33s-24 -35.833 -32 -61.5s-12 -57.5 -12 -95.5
c0 -38.667 4.16699 -71.167 12.5 -97.5s19.333 -47.666 33 -63.999s29.334 -28.166 47.001 -35.499s35.834 -11 54.501 -11zM147.001 678.999h255v-59h-255v59z" />
    <glyph glyph-name="Obreve" unicode="&#x14e;" horiz-adv-x="682" 
d="M339 -11c-41.333 0 -80.3301 7.33105 -116.997 21.998s-68.5 36.5 -95.5 65.5s-48.333 64.833 -64 107.5s-23.5 92 -23.5 148c0 59.333 8.83301 110.5 26.5 153.5s40.667 78.5 69 106.5s60.666 48.667 96.999 62s73.166 20 110.499 20c42 0 81.167 -7.33301 117.5 -22
s68.166 -36.334 95.499 -65.001s48.833 -64.167 64.5 -106.5s23.5 -91.166 23.5 -146.499c0 -59.333 -8.83301 -110.666 -26.5 -153.999s-40.834 -79.166 -69.501 -107.499s-61.167 -49.333 -97.5 -63s-73.166 -20.5 -110.499 -20.5zM341.003 42.998
c34 0 63.501 6.99805 88.501 20.998s45.833 33.5 62.5 58.5s29 54.5 37 88.5s12 71 12 111c0 97.333 -16.667 171.5 -50 222.5s-84 76.5 -152 76.5c-34 0 -63.5 -7.16699 -88.5 -21.5s-45.667 -34 -62 -59s-28.333 -54.667 -36 -89s-11.5 -71.5 -11.5 -111.5
c0 -44 3.5 -84.167 10.5 -120.5s18.333 -67.666 34 -93.999s36.167 -46.666 61.5 -60.999s56.666 -21.5 93.999 -21.5zM340.004 731.996c-20.667 0 -39.332 3.16699 -55.999 9.5s-31 15 -43 26s-21.667 24 -29 39s-11.333 30.833 -12 47.5h54
c5.33301 -19.333 14.833 -34.166 28.5 -44.499s32.834 -15.5 57.501 -15.5c25.333 0 44.666 5.16699 57.999 15.5s22.666 25.166 27.999 44.499h54c-2 -16.667 -6.5 -32.5 -13.5 -47.5s-16.5 -28 -28.5 -39s-26.333 -19.667 -43 -26s-35 -9.5 -55 -9.5z" />
    <glyph glyph-name="obreve" unicode="&#x14f;" horiz-adv-x="546" 
d="M274 -13c-35.333 0 -67.665 6 -96.998 18s-54.5 29.167 -75.5 51.5s-37.167 49.166 -48.5 80.499s-17 66.333 -17 105s6.16699 73.834 18.5 105.501s29.166 58.834 50.499 81.501s46.333 40.167 75 52.5s59 18.5 91 18.5c35.333 0 67.666 -6 96.999 -18
s54.5 -29 75.5 -51s37.333 -48.5 49 -79.5s17.5 -65.833 17.5 -104.5s-6.16699 -73.834 -18.5 -105.501s-29.166 -59 -50.499 -82s-46.333 -40.833 -75 -53.5s-59.334 -19 -92.001 -19zM275.001 40c18 0 35.667 3.33203 53 9.99902s32.5 17.667 45.5 33
s23.5 35.666 31.5 60.999s12 57 12 95c0 39.333 -4.16699 72.333 -12.5 99s-19.333 48.167 -33 64.5s-29.334 28 -47.001 35s-35.834 10.5 -54.501 10.5c-18 0 -35.5 -3.33301 -52.5 -10s-32.167 -17.667 -45.5 -33s-24 -35.833 -32 -61.5s-12 -57.5 -12 -95.5
c0 -38.667 4.16699 -71.167 12.5 -97.5s19.333 -47.666 33 -63.999s29.334 -28.166 47.001 -35.499s35.834 -11 54.501 -11zM271.001 599.999c-41.333 0 -74.498 12 -99.498 36s-38.5 55.667 -40.5 95h54c5.33301 -24 14.833 -41.667 28.5 -53s32.834 -17 57.501 -17
c25.333 0 44.666 5.66699 57.999 17s22.666 29 27.999 53h54c-3.33301 -39.333 -17.333 -71 -42 -95s-57.334 -36 -98.001 -36z" />
    <glyph glyph-name="Ohungarumlaut" unicode="&#x150;" horiz-adv-x="682" 
d="M339 -11c-41.333 0 -80.3301 7.33105 -116.997 21.998s-68.5 36.5 -95.5 65.5s-48.333 64.833 -64 107.5s-23.5 92 -23.5 148c0 59.333 8.83301 110.5 26.5 153.5s40.667 78.5 69 106.5s60.666 48.667 96.999 62s73.166 20 110.499 20c42 0 81.167 -7.33301 117.5 -22
s68.166 -36.334 95.499 -65.001s48.833 -64.167 64.5 -106.5s23.5 -91.166 23.5 -146.499c0 -59.333 -8.83301 -110.666 -26.5 -153.999s-40.834 -79.166 -69.501 -107.499s-61.167 -49.333 -97.5 -63s-73.166 -20.5 -110.499 -20.5zM341.003 42.998
c34 0 63.501 6.99805 88.501 20.998s45.833 33.5 62.5 58.5s29 54.5 37 88.5s12 71 12 111c0 97.333 -16.667 171.5 -50 222.5s-84 76.5 -152 76.5c-34 0 -63.5 -7.16699 -88.5 -21.5s-45.667 -34 -62 -59s-28.333 -54.667 -36 -89s-11.5 -71.5 -11.5 -111.5
c0 -44 3.5 -84.167 10.5 -120.5s18.333 -67.666 34 -93.999s36.167 -46.666 61.5 -60.999s56.666 -21.5 93.999 -21.5zM402.004 754.996l93 148l64 -46l-122 -125zM236.004 754.996l93 148l65 -46l-123 -125z" />
    <glyph glyph-name="ohungarumlaut" unicode="&#x151;" horiz-adv-x="546" 
d="M274 -13c-35.333 0 -67.665 6 -96.998 18s-54.5 29.167 -75.5 51.5s-37.167 49.166 -48.5 80.499s-17 66.333 -17 105s6.16699 73.834 18.5 105.501s29.166 58.834 50.499 81.501s46.333 40.167 75 52.5s59 18.5 91 18.5c35.333 0 67.666 -6 96.999 -18
s54.5 -29 75.5 -51s37.333 -48.5 49 -79.5s17.5 -65.833 17.5 -104.5s-6.16699 -73.834 -18.5 -105.501s-29.166 -59 -50.499 -82s-46.333 -40.833 -75 -53.5s-59.334 -19 -92.001 -19zM275.001 40c18 0 35.667 3.33203 53 9.99902s32.5 17.667 45.5 33
s23.5 35.666 31.5 60.999s12 57 12 95c0 39.333 -4.16699 72.333 -12.5 99s-19.333 48.167 -33 64.5s-29.334 28 -47.001 35s-35.834 10.5 -54.501 10.5c-18 0 -35.5 -3.33301 -52.5 -10s-32.167 -17.667 -45.5 -33s-24 -35.833 -32 -61.5s-12 -57.5 -12 -95.5
c0 -38.667 4.16699 -71.167 12.5 -97.5s19.333 -47.666 33 -63.999s29.334 -28.166 47.001 -35.499s35.834 -11 54.501 -11zM327.001 617.999l93 148l64 -46l-122 -125zM161.001 617.999l93 148l65 -46l-123 -125z" />
    <glyph glyph-name="OE" unicode="&#x152;" horiz-adv-x="902" 
d="M443 52l0.000976562 558.998h-70c-38 0 -71.333 -4.66699 -100 -14s-52.834 -24.833 -72.501 -46.5s-34.5 -50.5 -44.5 -86.5s-15 -81 -15 -135c0 -61.333 5.83301 -110.166 17.5 -146.499s28.667 -64.166 51 -83.499s49.333 -32 81 -38s67.5 -9 107.5 -9h45z
M385.001 -0.00195312c-61.333 0 -113.999 7 -157.999 21s-80 34.333 -108 61s-48.5 59.667 -61.5 99s-19.5 84 -19.5 134c0 112 27.167 198 81.5 258s139.166 90 254.499 90h471l11 -164h-46l-43 112h-227v-245h118l26 91h41v-232h-41l-26 92h-118v-265h237l53 139h46
l-13 -191h-478z" />
    <glyph glyph-name="oe" unicode="&#x153;" horiz-adv-x="877" 
d="M742 290c0 57.333 -8.83398 98.167 -26.501 122.5s-44.5 36.5 -80.5 36.5c-38.667 0 -69.167 -12.5 -91.5 -37.5s-35.166 -65.5 -38.499 -121.5h237zM274.999 40.001c18 0 35.667 3.33203 53 9.99902s32.5 17.667 45.5 33s23.5 35.666 31.5 60.999s12 57 12 95
c0 39.333 -4.16699 72.333 -12.5 99s-19.333 48.167 -33 64.5s-29.334 28 -47.001 35s-35.834 10.5 -54.501 10.5c-18 0 -35.5 -3.33301 -52.5 -10s-32.167 -17.667 -45.5 -33s-24 -35.833 -32 -61.5s-12 -57.5 -12 -95.5c0 -38.667 4.16699 -71.167 12.5 -97.5
s19.333 -47.666 33 -63.999s29.334 -28.166 47.001 -35.499s35.834 -11 54.501 -11zM273.999 -13c-35.333 0 -67.6699 5.99902 -97.0029 17.999s-54.5 29.167 -75.5 51.5s-37.167 49.166 -48.5 80.499s-17 66.333 -17 105s6.16699 73.834 18.5 105.501
s29.166 58.834 50.499 81.501s46.333 40.167 75 52.5s59 18.5 91 18.5c46 0 84.833 -9.5 116.5 -28.5s56.167 -46.167 73.5 -81.5c17.333 36 41.333 63.333 72 82s66.334 28 107.001 28c36 0 66.833 -6 92.5 -18s46.667 -29.167 63 -51.5s28.333 -49.333 36 -81
s11.5 -67.5 11.5 -107.5h-338c2.66699 -63.333 18.5 -111 47.5 -143s69.167 -48 120.5 -48c36 0 65.167 3 87.5 9s42.5 13.333 60.5 22v-43c-16 -11.333 -37.333 -22.5 -64 -33.5s-60.667 -16.5 -102 -16.5c-53.333 0 -95.666 9.83301 -126.999 29.5
s-54.666 46.5 -69.999 80.5c-18.667 -35.333 -43.667 -62.833 -75 -82.5s-67.666 -29.5 -108.999 -29.5z" />
    <glyph glyph-name="Racute" unicode="&#x154;" horiz-adv-x="637" 
d="M312 346c25.333 0 46.6699 3.83301 64.0029 11.5s31.166 17.834 41.499 30.501s17.666 27.167 21.999 43.5s6.5 33.166 6.5 50.499c0 44 -10.333 75.667 -31 95s-55.334 29 -104.001 29h-97v-260h98zM30.0039 40l87.999 17v548l-88 19v39h284
c80 0 138.667 -15.5 176 -46.5s56 -75.167 56 -132.5c0 -24 -4 -45.167 -12 -63.5s-18.5 -34 -31.5 -47s-27.667 -23.833 -44 -32.5s-33.166 -15.667 -50.499 -21v-4l154 -260l68 -17v-39h-143l-171 297h-102v-240l83 -17v-40h-267v40zM208.003 755l200 124l33 -77l-217 -83
z" />
    <glyph glyph-name="racute" unicode="&#x155;" horiz-adv-x="372" 
d="M25 32l73 16v376l-73 15v37l146 23l10 -6v-62h6c6.66699 8 15.167 16.167 25.5 24.5s21.5 15.833 33.5 22.5s24.667 12 38 16s26.666 6 39.999 6c4 0 8.83301 -0.166992 14.5 -0.5s9.83398 -1.16602 12.501 -2.49902v-80c-6 1.33301 -12.667 2.16602 -20 2.49902
s-13.333 0.5 -18 0.5c-23.333 0 -46.333 -2.5 -69 -7.5s-42 -12.833 -58 -23.5v-341l83 -16v-32h-244v32zM114 623l200 123l32 -73l-216 -86z" />
    <glyph glyph-name="uni0156" unicode="&#x156;" horiz-adv-x="637" 
d="M312 346c25.333 0 46.6699 3.83301 64.0029 11.5s31.166 17.834 41.499 30.501s17.666 27.167 21.999 43.5s6.5 33.166 6.5 50.499c0 44 -10.333 75.667 -31 95s-55.334 29 -104.001 29h-97v-260h98zM30.0039 40l87.999 17v548l-88 19v39h284
c80 0 138.667 -15.5 176 -46.5s56 -75.167 56 -132.5c0 -24 -4 -45.167 -12 -63.5s-18.5 -34 -31.5 -47s-27.667 -23.833 -44 -32.5s-33.166 -15.667 -50.499 -21v-4l154 -260l68 -17v-39h-143l-171 297h-102v-240l83 -17v-40h-267v40zM292.003 -218
c16 2.66699 29.001 6.50098 39.001 11.501s17.667 10.833 23 17.5s9.16602 13.667 11.499 21s3.5 15 3.5 23c-3.33301 -4 -7.16602 -7.16699 -11.499 -9.5s-11.166 -3.5 -20.499 -3.5c-12 0 -22 4.16699 -30 12.5s-12 19.833 -12 34.5c0 15.333 5.5 27.5 16.5 36.5
s24.833 13.5 41.5 13.5c19.333 0 35.666 -6.33301 48.999 -19s20 -31.334 20 -56.001c0 -11.333 -1.33301 -23 -4 -35s-8.33398 -23.5 -17.001 -34.5s-21 -20.833 -37 -29.5s-37.333 -15 -64 -19z" />
    <glyph glyph-name="uni0157" unicode="&#x157;" horiz-adv-x="372" 
d="M25 32l73 16v376l-73 15v37l146 23l10 -6v-62h6c6.66699 8 15.167 16.167 25.5 24.5s21.5 15.833 33.5 22.5s24.667 12 38 16s26.666 6 39.999 6c4 0 8.83301 -0.166992 14.5 -0.5s9.83398 -1.16602 12.501 -2.49902v-80c-6 1.33301 -12.667 2.16602 -20 2.49902
s-13.333 0.5 -18 0.5c-23.333 0 -46.333 -2.5 -69 -7.5s-42 -12.833 -58 -23.5v-341l83 -16v-32h-244v32zM76 -218c16 2.66699 29.001 6.50098 39.001 11.501s17.667 10.833 23 17.5s9.16602 13.667 11.499 21s3.5 15 3.5 23c-3.33301 -4 -7.16602 -7.16699 -11.499 -9.5
s-11.166 -3.5 -20.499 -3.5c-12 0 -22 4.16699 -30 12.5s-12 19.833 -12 34.5c0 15.333 5.5 27.5 16.5 36.5s24.833 13.5 41.5 13.5c19.333 0 35.666 -6.33301 48.999 -19s20 -31.334 20 -56.001c0 -11.333 -1.33301 -23 -4 -35s-8.33398 -23.5 -17.001 -34.5
s-21 -20.833 -37 -29.5s-37.333 -15 -64 -19z" />
    <glyph glyph-name="Rcaron" unicode="&#x158;" horiz-adv-x="637" 
d="M312 346c25.333 0 46.6699 3.83301 64.0029 11.5s31.166 17.834 41.499 30.501s17.666 27.167 21.999 43.5s6.5 33.166 6.5 50.499c0 44 -10.333 75.667 -31 95s-55.334 29 -104.001 29h-97v-260h98zM30.0039 40l87.999 17v548l-88 19v39h284
c80 0 138.667 -15.5 176 -46.5s56 -75.167 56 -132.5c0 -24 -4 -45.167 -12 -63.5s-18.5 -34 -31.5 -47s-27.667 -23.833 -44 -32.5s-33.166 -15.667 -50.499 -21v-4l154 -260l68 -17v-39h-143l-171 297h-102v-240l83 -17v-40h-267v40zM462.003 851l-124 -119h-45l-124 119
l17 28l129 -73l130 73z" />
    <glyph glyph-name="rcaron" unicode="&#x159;" horiz-adv-x="372" 
d="M25 32l73 16v376l-73 15v37l146 23l10 -6v-62h6c6.66699 8 15.167 16.167 25.5 24.5s21.5 15.833 33.5 22.5s24.667 12 38 16s26.666 6 39.999 6c4 0 8.83301 -0.166992 14.5 -0.5s9.83398 -1.16602 12.501 -2.49902v-80c-6 1.33301 -12.667 2.16602 -20 2.49902
s-13.333 0.5 -18 0.5c-23.333 0 -46.333 -2.5 -69 -7.5s-42 -12.833 -58 -23.5v-341l83 -16v-32h-244v32zM65 720l20 28l127 -89l126 89l20 -28l-124 -134h-45z" />
    <glyph glyph-name="Sacute" unicode="&#x15a;" horiz-adv-x="512" 
d="M238 -11c-39.333 0 -74.667 2.99902 -106 8.99902s-58.666 13.667 -81.999 23l-7 151h46l32 -97c17.333 -10 35.666 -17.667 54.999 -23s43 -8 71 -8c22.667 0 42.5 3.16699 59.5 9.5s31.333 14.833 43 25.5s20.334 23 26.001 37s8.5 29 8.5 45
c0 17.333 -2.66699 32.333 -8 45s-13.333 24 -24 34s-23.5 19 -38.5 27s-32.167 16 -51.5 24l-81 35c-36.667 15.333 -67 36.333 -91 63s-36 63.667 -36 111c0 24 4.33301 46.5 13 67.5s21.667 39.5 39 55.5s39.166 28.667 65.499 38s57.5 14 93.5 14
c38 0 70.333 -2.33301 97 -7s49.667 -10.334 69 -17.001l6 -141h-45l-27 85c-9.33301 4.66699 -22 10 -38 16s-39 9 -69 9c-34 0 -63 -7.83301 -87 -23.5s-36 -40.167 -36 -73.5c0 -29.333 8.33301 -52.666 25 -69.999s42 -32.666 76 -45.999l81 -33
c21.333 -8.66699 41.333 -18.167 60 -28.5s35 -22.5 49 -36.5s25.167 -30.833 33.5 -50.5s12.5 -42.834 12.5 -69.501c0 -26 -4.33301 -51 -13 -75s-22.5 -45.167 -41.5 -63.5s-43.333 -33.166 -73 -44.499s-65.167 -17 -106.5 -17zM161.999 754.999l200 124l33 -77
l-217 -83z" />
    <glyph glyph-name="sacute" unicode="&#x15b;" horiz-adv-x="427" 
d="M198 -13c-27.333 0 -54.5 2.83301 -81.5 8.5s-51.167 12.167 -72.5 19.5l-7 117h46l26 -70c9.33301 -5.33301 22 -10.333 38 -15s35 -7 57 -7c30.667 0 56 6.16699 76 18.5s30 31.166 30 56.499c0 12.667 -1.83301 23.167 -5.5 31.5s-9.16699 15.833 -16.5 22.5
s-17 12.5 -29 17.5s-26.333 10.167 -43 15.5l-53 18c-38.667 12.667 -68.5 29.667 -89.5 51s-31.5 50.333 -31.5 87c0 18.667 3.66699 36.667 11 54s18.5 32.5 33.5 45.5s33.667 23.333 56 31s48.5 11.5 78.5 11.5c28 0 53.833 -1.83301 77.5 -5.5s43.5 -8.16699 59.5 -13.5
v-110h-43l-23 60c-8.66699 5.33301 -19.167 9.5 -31.5 12.5s-28.166 4.5 -47.499 4.5c-27.333 0 -49.833 -5.16699 -67.5 -15.5s-26.5 -28.166 -26.5 -53.499c0 -10.667 1.66699 -20 5 -28s8.66602 -15.333 15.999 -22s17 -12.834 29 -18.501s27 -11.167 45 -16.5l54 -16
c44.667 -14 76.167 -32 94.5 -54s27.5 -50.333 27.5 -85c0 -21.333 -4 -41.166 -12 -59.499s-20 -34.333 -36 -48s-36 -24.5 -60 -32.5s-52 -12 -84 -12zM110 623l200 123l32 -73l-216 -86z" />
    <glyph glyph-name="Scircumflex" unicode="&#x15c;" horiz-adv-x="512" 
d="M238 -11c-39.333 0 -74.667 2.99902 -106 8.99902s-58.666 13.667 -81.999 23l-7 151h46l32 -97c17.333 -10 35.666 -17.667 54.999 -23s43 -8 71 -8c22.667 0 42.5 3.16699 59.5 9.5s31.333 14.833 43 25.5s20.334 23 26.001 37s8.5 29 8.5 45
c0 17.333 -2.66699 32.333 -8 45s-13.333 24 -24 34s-23.5 19 -38.5 27s-32.167 16 -51.5 24l-81 35c-36.667 15.333 -67 36.333 -91 63s-36 63.667 -36 111c0 24 4.33301 46.5 13 67.5s21.667 39.5 39 55.5s39.166 28.667 65.499 38s57.5 14 93.5 14
c38 0 70.333 -2.33301 97 -7s49.667 -10.334 69 -17.001l6 -141h-45l-27 85c-9.33301 4.66699 -22 10 -38 16s-39 9 -69 9c-34 0 -63 -7.83301 -87 -23.5s-36 -40.167 -36 -73.5c0 -29.333 8.33301 -52.666 25 -69.999s42 -32.666 76 -45.999l81 -33
c21.333 -8.66699 41.333 -18.167 60 -28.5s35 -22.5 49 -36.5s25.167 -30.833 33.5 -50.5s12.5 -42.834 12.5 -69.501c0 -26 -4.33301 -51 -13 -75s-22.5 -45.167 -41.5 -63.5s-43.333 -33.166 -73 -44.499s-65.167 -17 -106.5 -17zM121.999 752.999l124 118h45l124 -118
l-17 -28l-129 73l-130 -73z" />
    <glyph glyph-name="scircumflex" unicode="&#x15d;" horiz-adv-x="427" 
d="M198 -13c-27.333 0 -54.5 2.83301 -81.5 8.5s-51.167 12.167 -72.5 19.5l-7 117h46l26 -70c9.33301 -5.33301 22 -10.333 38 -15s35 -7 57 -7c30.667 0 56 6.16699 76 18.5s30 31.166 30 56.499c0 12.667 -1.83301 23.167 -5.5 31.5s-9.16699 15.833 -16.5 22.5
s-17 12.5 -29 17.5s-26.333 10.167 -43 15.5l-53 18c-38.667 12.667 -68.5 29.667 -89.5 51s-31.5 50.333 -31.5 87c0 18.667 3.66699 36.667 11 54s18.5 32.5 33.5 45.5s33.667 23.333 56 31s48.5 11.5 78.5 11.5c28 0 53.833 -1.83301 77.5 -5.5s43.5 -8.16699 59.5 -13.5
v-110h-43l-23 60c-8.66699 5.33301 -19.167 9.5 -31.5 12.5s-28.166 4.5 -47.499 4.5c-27.333 0 -49.833 -5.16699 -67.5 -15.5s-26.5 -28.166 -26.5 -53.499c0 -10.667 1.66699 -20 5 -28s8.66602 -15.333 15.999 -22s17 -12.834 29 -18.501s27 -11.167 45 -16.5l54 -16
c44.667 -14 76.167 -32 94.5 -54s27.5 -50.333 27.5 -85c0 -21.333 -4 -41.166 -12 -59.499s-20 -34.333 -36 -48s-36 -24.5 -60 -32.5s-52 -12 -84 -12zM68 616l124 135h45l124 -135l-20 -27l-127 88l-126 -88z" />
    <glyph glyph-name="uni015E" unicode="&#x15e;" horiz-adv-x="512" 
d="M144 -188c27.333 2 49.667 4.83008 67 8.49707s30.833 7.66699 40.5 12s16.167 9.16602 19.5 14.499s5 11 5 17c0 11.333 -6.5 19.333 -19.5 24s-34.5 7 -64.5 7v96c-29.333 1.33301 -55.833 4.83301 -79.5 10.5s-44.5 12.167 -62.5 19.5l-7 151h46l32 -97
c17.333 -10 35.666 -17.667 54.999 -23s43 -8 71 -8c22.667 0 42.5 3.16699 59.5 9.5s31.333 14.833 43 25.5s20.334 23 26.001 37s8.5 29 8.5 45c0 17.333 -2.66699 32.333 -8 45s-13.333 24 -24 34s-23.5 19 -38.5 27s-32.167 16 -51.5 24l-81 35
c-36.667 15.333 -67 36.333 -91 63s-36 63.667 -36 111c0 24 4.33301 46.5 13 67.5s21.667 39.5 39 55.5s39.166 28.667 65.499 38s57.5 14 93.5 14c38 0 70.333 -2.33301 97 -7s49.667 -10.334 69 -17.001l6 -141h-45l-27 85c-9.33301 4.66699 -22 10 -38 16s-39 9 -69 9
c-34 0 -63 -7.83301 -87 -23.5s-36 -40.167 -36 -73.5c0 -29.333 8.33301 -52.666 25 -69.999s42 -32.666 76 -45.999l81 -33c21.333 -8.66699 41.333 -18.167 60 -28.5s35 -22.5 49 -36.5s25.167 -30.833 33.5 -50.5s12.5 -42.834 12.5 -69.501c0 -26 -4.33301 -51 -13 -75
s-22.5 -45.167 -41.5 -63.5s-43.333 -33.166 -73 -44.499s-65.5 -17 -107.5 -17v-51c78.667 -2 118 -25 118 -69c0 -12 -2.83301 -23.167 -8.5 -33.5s-16.167 -19.666 -31.5 -27.999s-36.666 -15.166 -63.999 -20.499s-63 -8.66602 -107 -9.99902v35z" />
    <glyph glyph-name="uni015F" unicode="&#x15f;" horiz-adv-x="427" 
d="M94 -188c27.333 2 49.499 4.83105 66.499 8.49805s30.333 7.66699 40 12s16.167 9.16602 19.5 14.499s5 11 5 17c0 11.333 -6.33301 19.333 -19 24s-34 7 -64 7v97c-17.333 2 -34.5 5 -51.5 9s-32.5 8.66699 -46.5 14l-7 117h46l26 -70
c9.33301 -5.33301 22 -10.333 38 -15s35 -7 57 -7c30.667 0 56 6.16699 76 18.5s30 31.166 30 56.499c0 12.667 -1.83301 23.167 -5.5 31.5s-9.16699 15.833 -16.5 22.5s-17 12.5 -29 17.5s-26.333 10.167 -43 15.5l-53 18c-38.667 12.667 -68.5 29.667 -89.5 51
s-31.5 50.333 -31.5 87c0 18.667 3.66699 36.667 11 54s18.5 32.5 33.5 45.5s33.667 23.333 56 31s48.5 11.5 78.5 11.5c28 0 53.833 -1.83301 77.5 -5.5s43.5 -8.16699 59.5 -13.5v-110h-43l-23 60c-8.66699 5.33301 -19.167 9.5 -31.5 12.5s-28.166 4.5 -47.499 4.5
c-27.333 0 -49.833 -5.16699 -67.5 -15.5s-26.5 -28.166 -26.5 -53.499c0 -10.667 1.66699 -20 5 -28s8.66602 -15.333 15.999 -22s17 -12.834 29 -18.501s27 -11.167 45 -16.5l54 -16c44.667 -14 76.167 -32 94.5 -54s27.5 -50.333 27.5 -85
c0 -21.333 -4 -41.166 -12 -59.499s-20 -34.333 -36 -48s-36 -24.5 -60 -32.5s-52 -12 -84 -12h-11v-49c78.667 -2 118 -25 118 -69c0 -12 -2.83301 -23.167 -8.5 -33.5s-16.167 -19.666 -31.5 -27.999s-36.666 -15.166 -63.999 -20.499s-63 -8.66602 -107 -9.99902v35z" />
    <glyph glyph-name="Scaron" unicode="&#x160;" horiz-adv-x="512" 
d="M238 -11c-39.333 0 -74.667 2.99902 -106 8.99902s-58.666 13.667 -81.999 23l-7 151h46l32 -97c17.333 -10 35.666 -17.667 54.999 -23s43 -8 71 -8c22.667 0 42.5 3.16699 59.5 9.5s31.333 14.833 43 25.5s20.334 23 26.001 37s8.5 29 8.5 45
c0 17.333 -2.66699 32.333 -8 45s-13.333 24 -24 34s-23.5 19 -38.5 27s-32.167 16 -51.5 24l-81 35c-36.667 15.333 -67 36.333 -91 63s-36 63.667 -36 111c0 24 4.33301 46.5 13 67.5s21.667 39.5 39 55.5s39.166 28.667 65.499 38s57.5 14 93.5 14
c38 0 70.333 -2.33301 97 -7s49.667 -10.334 69 -17.001l6 -141h-45l-27 85c-9.33301 4.66699 -22 10 -38 16s-39 9 -69 9c-34 0 -63 -7.83301 -87 -23.5s-36 -40.167 -36 -73.5c0 -29.333 8.33301 -52.666 25 -69.999s42 -32.666 76 -45.999l81 -33
c21.333 -8.66699 41.333 -18.167 60 -28.5s35 -22.5 49 -36.5s25.167 -30.833 33.5 -50.5s12.5 -42.834 12.5 -69.501c0 -26 -4.33301 -51 -13 -75s-22.5 -45.167 -41.5 -63.5s-43.333 -33.166 -73 -44.499s-65.167 -17 -106.5 -17zM406.999 850.999l-124 -119h-45l-124 119
l17 28l129 -73l130 73z" />
    <glyph glyph-name="scaron" unicode="&#x161;" horiz-adv-x="427" 
d="M198 -13c-27.333 0 -54.5 2.83301 -81.5 8.5s-51.167 12.167 -72.5 19.5l-7 117h46l26 -70c9.33301 -5.33301 22 -10.333 38 -15s35 -7 57 -7c30.667 0 56 6.16699 76 18.5s30 31.166 30 56.499c0 12.667 -1.83301 23.167 -5.5 31.5s-9.16699 15.833 -16.5 22.5
s-17 12.5 -29 17.5s-26.333 10.167 -43 15.5l-53 18c-38.667 12.667 -68.5 29.667 -89.5 51s-31.5 50.333 -31.5 87c0 18.667 3.66699 36.667 11 54s18.5 32.5 33.5 45.5s33.667 23.333 56 31s48.5 11.5 78.5 11.5c28 0 53.833 -1.83301 77.5 -5.5s43.5 -8.16699 59.5 -13.5
v-110h-43l-23 60c-8.66699 5.33301 -19.167 9.5 -31.5 12.5s-28.166 4.5 -47.499 4.5c-27.333 0 -49.833 -5.16699 -67.5 -15.5s-26.5 -28.166 -26.5 -53.499c0 -10.667 1.66699 -20 5 -28s8.66602 -15.333 15.999 -22s17 -12.834 29 -18.501s27 -11.167 45 -16.5l54 -16
c44.667 -14 76.167 -32 94.5 -54s27.5 -50.333 27.5 -85c0 -21.333 -4 -41.166 -12 -59.499s-20 -34.333 -36 -48s-36 -24.5 -60 -32.5s-52 -12 -84 -12zM65 720l20 28l127 -89l126 89l20 -28l-124 -134h-45z" />
    <glyph glyph-name="Tcommaaccent" unicode="&#x162;" horiz-adv-x="596" 
d="M161 40l88 16v555h-146l-37 -137h-46l10 189h536l10 -189h-46l-37 137h-146v-555l87 -16v-40h-273v40zM233 -218c16 2.66699 29.001 6.50098 39.001 11.501s17.667 10.833 23 17.5s9.16602 13.667 11.499 21s3.5 15 3.5 23c-3.33301 -4 -7.16602 -7.16699 -11.499 -9.5
s-11.166 -3.5 -20.499 -3.5c-12 0 -22 4.16699 -30 12.5s-12 19.833 -12 34.5c0 15.333 5.5 27.5 16.5 36.5s24.833 13.5 41.5 13.5c19.333 0 35.666 -6.33301 48.999 -19s20 -31.334 20 -56.001c0 -11.333 -1.33301 -23 -4 -35s-8.33398 -23.5 -17.001 -34.5
s-21 -20.833 -37 -29.5s-37.333 -15 -64 -19z" />
    <glyph glyph-name="tcommaaccent" unicode="&#x163;" horiz-adv-x="352" 
d="M219 -8c-42 0 -73.499 8.50098 -94.499 25.501s-31.5 47.833 -31.5 92.5v324h-76v39l76 23v126h88v-131h139v-57h-139v-306c0 -27.333 6 -47.333 18 -60s35 -19 69 -19c10.667 0 21.167 0.666992 31.5 2s20.166 2.66602 29.499 3.99902v-35
c-10.667 -7.33301 -26.5 -13.833 -47.5 -19.5s-41.833 -8.5 -62.5 -8.5zM136.001 -217.999c16 2.66699 29.001 6.50098 39.001 11.501s17.667 10.833 23 17.5s9.16602 13.667 11.499 21s3.5 15 3.5 23c-3.33301 -4 -7.16602 -7.16699 -11.499 -9.5
s-11.166 -3.5 -20.499 -3.5c-12 0 -22 4.16699 -30 12.5s-12 19.833 -12 34.5c0 15.333 5.5 27.5 16.5 36.5s24.833 13.5 41.5 13.5c19.333 0 35.666 -6.33301 48.999 -19s20 -31.334 20 -56.001c0 -11.333 -1.33301 -23 -4 -35s-8.33398 -23.5 -17.001 -34.5
s-21 -20.833 -37 -29.5s-37.333 -15 -64 -19z" />
    <glyph glyph-name="Tcaron" unicode="&#x164;" horiz-adv-x="596" 
d="M161 40l88 16v555h-146l-37 -137h-46l10 189h536l10 -189h-46l-37 137h-146v-555l87 -16v-40h-273v40zM444 851l-124 -119h-45l-124 119l17 28l129 -73l130 73z" />
    <glyph glyph-name="tcaron" unicode="&#x165;" horiz-adv-x="352" 
d="M219 -8c-42 0 -73.499 8.50098 -94.499 25.501s-31.5 47.833 -31.5 92.5v324h-76v39l76 23v126h88v-131h139v-57h-139v-306c0 -27.333 6 -47.333 18 -60s35 -19 69 -19c10.667 0 21.167 0.666992 31.5 2s20.166 2.66602 29.499 3.99902v-35
c-10.667 -7.33301 -26.5 -13.833 -47.5 -19.5s-41.833 -8.5 -62.5 -8.5zM257.001 584.001c2 12.667 3.83301 26.833 5.5 42.5s3 31.5 4 47.5s1.83301 31.833 2.5 47.5s1 30.167 1 43.5h89c-2 -16 -4.83301 -32.333 -8.5 -49s-8 -33 -13 -49s-10.5 -31.167 -16.5 -45.5
s-11.667 -26.833 -17 -37.5h-47z" />
    <glyph glyph-name="Tbar" unicode="&#x166;" horiz-adv-x="596" 
d="M108 400h141v211h-146l-37 -137h-46l10 189h536l10 -189h-46l-37 137h-146v-211h142v-49h-142v-295l87 -16v-40h-273v40l88 16v295h-141v49z" />
    <glyph glyph-name="tbar" unicode="&#x167;" horiz-adv-x="352" 
d="M17 335l76.001 0.000976562v99h-76v39l76 23v126h88v-131h139v-57h-139v-99h139v-52h-139v-155c0 -27.333 6 -47.333 18 -60s35 -19 69 -19c10.667 0 21.167 0.666992 31.5 2s20.166 2.66602 29.499 3.99902v-35c-10.667 -7.33301 -26.5 -13.833 -47.5 -19.5
s-41.833 -8.5 -62.5 -8.5c-42 0 -73.5 8.5 -94.5 25.5s-31.5 47.833 -31.5 92.5v173h-76v52z" />
    <glyph glyph-name="Utilde" unicode="&#x168;" horiz-adv-x="674" 
d="M342 -13c-82 0 -143.5 19.667 -184.5 59s-61.5 91 -61.5 155v405l-84 18v39h266v-39l-85 -18v-388c0 -59.333 14.167 -102.333 42.5 -129s68.833 -40 121.5 -40c54 0 95.167 13.333 123.5 40s42.5 70 42.5 130v386l-86 18v40h225v-39l-73 -18v-395
c0 -68.667 -21.333 -123.167 -64 -163.5s-103.667 -60.5 -183 -60.5zM194 756c27.333 64.667 61.999 97 103.999 97c10 0 20.667 -2.16699 32 -6.5s22.333 -9 33 -14s20.834 -9.5 30.501 -13.5s17.834 -6 24.501 -6c9.33301 0 19 3.16699 29 9.5s20.667 19.5 32 39.5l39 -17
c-27.333 -66 -62 -99 -104 -99c-10 0 -20.667 2 -32 6s-22.333 8.5 -33 13.5l-30.5 14c-9.66699 4.33301 -17.834 6.5 -24.501 6.5c-9.33301 0 -19 -3 -29 -9s-20.667 -18.667 -32 -38z" />
    <glyph glyph-name="utilde" unicode="&#x169;" horiz-adv-x="585" 
d="M230 -9c-50 0 -86.166 12.832 -108.499 38.499s-33.5 60.5 -33.5 104.5v297l-72 15v36l150 16l11 -6v-336c0 -17.333 1.33301 -32.5 4 -45.5s7.5 -23.667 14.5 -32s16.667 -14.666 29 -18.999s28.166 -6.5 47.499 -6.5c30.667 0 55 3.16699 73 9.5s34.333 12.5 49 18.5
v350l-71 15v36l149 16l11 -6v-431l72 -16v-32l-145 -22l-11 4v54h-5c-20.667 -18 -44.667 -32.167 -72 -42.5s-58 -15.5 -92 -15.5zM127.001 618.999c27.333 64 62 96 104 96c10 0 20.667 -2 32 -6s22.333 -8.5 33 -13.5s20.834 -9.5 30.501 -13.5s17.834 -6 24.501 -6
c9.33301 0 19 3.16699 29 9.5s20.667 19.5 32 39.5l39 -18c-28 -65.333 -62.667 -98 -104 -98c-10 0 -20.667 2 -32 6s-22.333 8.5 -33 13.5s-20.834 9.5 -30.501 13.5s-17.834 6 -24.501 6c-9.33301 0 -19 -3 -29 -9s-20.667 -18.667 -32 -38z" />
    <glyph glyph-name="Umacron" unicode="&#x16a;" horiz-adv-x="674" 
d="M342 -13c-82 0 -143.5 19.667 -184.5 59s-61.5 91 -61.5 155v405l-84 18v39h266v-39l-85 -18v-388c0 -59.333 14.167 -102.333 42.5 -129s68.833 -40 121.5 -40c54 0 95.167 13.333 123.5 40s42.5 70 42.5 130v386l-86 18v40h225v-39l-73 -18v-395
c0 -68.667 -21.333 -123.167 -64 -163.5s-103.667 -60.5 -183 -60.5zM219 807h273v-59h-273v59z" />
    <glyph glyph-name="umacron" unicode="&#x16b;" horiz-adv-x="585" 
d="M230 -9c-50 0 -86.166 12.832 -108.499 38.499s-33.5 60.5 -33.5 104.5v297l-72 15v36l150 16l11 -6v-336c0 -17.333 1.33301 -32.5 4 -45.5s7.5 -23.667 14.5 -32s16.667 -14.666 29 -18.999s28.166 -6.5 47.499 -6.5c30.667 0 55 3.16699 73 9.5s34.333 12.5 49 18.5
v350l-71 15v36l149 16l11 -6v-431l72 -16v-32l-145 -22l-11 4v54h-5c-20.667 -18 -44.667 -32.167 -72 -42.5s-58 -15.5 -92 -15.5zM156.001 678.999h255v-59h-255v59z" />
    <glyph glyph-name="Ubreve" unicode="&#x16c;" horiz-adv-x="674" 
d="M342 -13c-82 0 -143.5 19.667 -184.5 59s-61.5 91 -61.5 155v405l-84 18v39h266v-39l-85 -18v-388c0 -59.333 14.167 -102.333 42.5 -129s68.833 -40 121.5 -40c54 0 95.167 13.333 123.5 40s42.5 70 42.5 130v386l-86 18v40h225v-39l-73 -18v-395
c0 -68.667 -21.333 -123.167 -64 -163.5s-103.667 -60.5 -183 -60.5zM356 732c-20.667 0 -39.332 3.16699 -55.999 9.5s-31 15 -43 26s-21.667 24 -29 39s-11.333 30.833 -12 47.5h54c5.33301 -19.333 14.833 -34.166 28.5 -44.499s32.834 -15.5 57.501 -15.5
c25.333 0 44.666 5.16699 57.999 15.5s22.666 25.166 27.999 44.499h54c-2 -16.667 -6.5 -32.5 -13.5 -47.5s-16.5 -28 -28.5 -39s-26.333 -19.667 -43 -26s-35 -9.5 -55 -9.5z" />
    <glyph glyph-name="ubreve" unicode="&#x16d;" horiz-adv-x="585" 
d="M230 -9c-50 0 -86.166 12.832 -108.499 38.499s-33.5 60.5 -33.5 104.5v297l-72 15v36l150 16l11 -6v-336c0 -17.333 1.33301 -32.5 4 -45.5s7.5 -23.667 14.5 -32s16.667 -14.666 29 -18.999s28.166 -6.5 47.499 -6.5c30.667 0 55 3.16699 73 9.5s34.333 12.5 49 18.5
v350l-71 15v36l149 16l11 -6v-431l72 -16v-32l-145 -22l-11 4v54h-5c-20.667 -18 -44.667 -32.167 -72 -42.5s-58 -15.5 -92 -15.5zM282.001 599.999c-41.333 0 -74.498 12 -99.498 36s-38.5 55.667 -40.5 95h54c5.33301 -24 14.833 -41.667 28.5 -53s32.834 -17 57.501 -17
c25.333 0 44.666 5.66699 57.999 17s22.666 29 27.999 53h54c-3.33301 -39.333 -17.333 -71 -42 -95s-57.334 -36 -98.001 -36z" />
    <glyph glyph-name="Uring" unicode="&#x16e;" horiz-adv-x="674" 
d="M342 -13c-82 0 -143.5 19.667 -184.5 59s-61.5 91 -61.5 155v405l-84 18v39h266v-39l-85 -18v-388c0 -59.333 14.167 -102.333 42.5 -129s68.833 -40 121.5 -40c54 0 95.167 13.333 123.5 40s42.5 70 42.5 130v386l-86 18v40h225v-39l-73 -18v-395
c0 -68.667 -21.333 -123.167 -64 -163.5s-103.667 -60.5 -183 -60.5zM357 704c-16 0 -31 2.83301 -45 8.5s-26.167 13.5 -36.5 23.5s-18.5 21.5 -24.5 34.5s-9 27.167 -9 42.5c0 14.667 3 28.667 9 42s14.167 25 24.5 35s22.5 17.833 36.5 23.5s29 8.5 45 8.5
s30.833 -2.83301 44.5 -8.5s25.667 -13.5 36 -23.5s18.333 -21.667 24 -35s8.5 -27.333 8.5 -42c0 -15.333 -2.83301 -29.5 -8.5 -42.5s-13.667 -24.5 -24 -34.5s-22.333 -17.833 -36 -23.5s-28.5 -8.5 -44.5 -8.5zM357 744c20 0 36 6.16699 48 18.5s18 29.166 18 50.499
s-6 38.166 -18 50.499s-28 18.5 -48 18.5c-20.667 0 -37 -6.16699 -49 -18.5s-18 -29.166 -18 -50.499s6 -38.166 18 -50.499s28.333 -18.5 49 -18.5z" />
    </font>
</defs>
</svg>
