<?xml version="1.0" standalone="no"?>
<!DOCTYPE svg PUBLIC "-//W3C//DTD SVG 1.1//EN" "http://www.w3.org/Graphics/SVG/1.1/DTD/svg11.dtd" >
<svg>
<metadata>
Created by FontForge 20090914 at Tue Oct 19 20:02:17 2021
 By www-data
2009 Erik Spiekermann, Christian Schwartz, Kris Sowersby, Cyrillic/Greek by Ralph du Carrois published by FSI FontShop International GmbH
</metadata>
<defs>
<font id="MetaSerifOffcPro-Book" horiz-adv-x="1" >
  <font-face 
    font-family="Meta Serif Offc Pro"
    font-weight="400"
    font-stretch="normal"
    units-per-em="1000"
    panose-1="2 1 5 4 5 1 1 2 1 2"
    ascent="763"
    descent="-237"
    x-height="490.998"
    cap-height="689.003"
    bbox="-759 -276.006 1306 1072"
    underline-thickness="50"
    underline-position="-50"
    unicode-range="U+0020-U+FEFF"
  />
<missing-glyph horiz-adv-x="553" 
d="M71 689h411v-689h-411v689zM432 50v589h-311v-589h311z" />
    <glyph glyph-name=".notdef" horiz-adv-x="553" 
d="M71 689h411v-689h-411v689zM432 50v589h-311v-589h311z" />
    <glyph glyph-name="space" unicode=" " horiz-adv-x="225" 
 />
    <glyph glyph-name="exclam" unicode="!" horiz-adv-x="291" 
d="M86 687l115 17l-31 -494h-53zM144 -8c-18 0 -33.167 6.5 -45.5 19.5s-18.5 29.167 -18.5 48.5c0 18 6.16699 33.333 18.5 46s27.833 19 46.5 19c18 0 33.5 -6.33301 46.5 -19s19.5 -28 19.5 -46c0 -19.333 -6.66699 -35.5 -20 -48.5s-29 -19.5 -47 -19.5z" />
    <glyph glyph-name="quotedbl" unicode="&#x22;" horiz-adv-x="434" 
d="M264 453v256h85v-256h-85zM85 453v256h85v-256h-85z" />
    <glyph glyph-name="numbersign" unicode="#" horiz-adv-x="551" 
d="M64 499h102l29 209h62l-29 -209h132l29 209h62l-29 -209h94v-69h-103l-21 -151h94v-68h-103l-30 -211h-62l29 211h-132l-29 -211h-62l29 211h-91v68h101l20 151h-92v69zM198 279h132l21 151h-132z" />
    <glyph glyph-name="dollar" unicode="$" horiz-adv-x="570" 
d="M261 -100v89.001c-26 0 -49.667 1.83301 -71 5.5s-40.5 8.16699 -57.5 13.5s-31.833 11.166 -44.5 17.499s-23.334 12.5 -32.001 18.5v124h69c2.66699 -21.333 6.83398 -40 12.501 -56s13.667 -29.5 24 -40.5s23.5 -19.5 39.5 -25.5s36 -9.33301 60 -10v277l-37 12
c-50.667 15.333 -89.167 37.166 -115.5 65.499s-39.5 66.833 -39.5 115.5c0 26 4.33301 50.167 13 72.5s21.167 42 37.5 59s36.5 30.833 60.5 41.5s51 17.334 81 20.001v86h45v-84c45.333 -1.33301 81.5 -7.16602 108.5 -17.499s49.167 -21.5 66.5 -33.5v-107h-65
c-5.33301 30 -15.833 54.667 -31.5 74s-41.834 31 -78.501 35v-249l36 -11c24 -7.33301 46.333 -16.333 67 -27s38.334 -23.667 53.001 -39s26.167 -33.333 34.5 -54s12.5 -44.334 12.5 -71.001c0 -60 -17.333 -108.167 -52 -144.5s-85 -57.833 -151 -64.5v-92h-45z
M422 166.001c0 20 -2.16699 37.001 -6.5 51.001s-11.166 26 -20.499 36s-21.333 18.667 -36 26s-32.334 14.333 -53.001 21v-263c42 5.33301 71.833 19.666 89.5 42.999s26.5 52 26.5 86zM151 537.002c0 -18 2.16699 -33.167 6.5 -45.5s11 -23 20 -32s20.333 -17 34 -24
s30.167 -13.5 49.5 -19.5v237c-34.667 -3.33301 -61.667 -15 -81 -35s-29 -47 -29 -81z" />
    <glyph glyph-name="percent" unicode="%" horiz-adv-x="891" 
d="M342 442c0 -31.333 -4.00098 -59.334 -12.001 -84.001s-19.167 -45.667 -33.5 -63s-31 -30.666 -50 -39.999s-39.5 -14 -61.5 -14c-21.333 0 -41.5 4.66699 -60.5 14s-35.5 22.833 -49.5 40.5s-25 39 -33 64s-12 53.5 -12 85.5c0 31.333 4 59.666 12 84.999s19 47 33 65
s30.333 31.833 49 41.5s38.667 14.5 60 14.5c24 0 45.833 -5.33301 65.5 -16s36.334 -25.5 50.001 -44.5s24.167 -41.167 31.5 -66.5s11 -52.666 11 -81.999zM261.999 436.999c0 62 -7 106.999 -21 134.999s-32.333 42 -55 42c-27.333 0 -46.5 -13.167 -57.5 -39.5
s-16.5 -66.5 -16.5 -120.5c0 -63.333 6 -108.666 18 -135.999s30.667 -41 56 -41c23.333 0 41.833 12.833 55.5 38.5s20.5 66.167 20.5 121.5zM221.999 -123.002h-53l487 853h54zM860.999 191.998c0 -31.333 -4.00098 -59.334 -12.001 -84.001s-19.167 -45.667 -33.5 -63
s-31 -30.666 -50 -39.999s-39.5 -14 -61.5 -14c-21.333 0 -41.5 4.66699 -60.5 14s-35.5 22.833 -49.5 40.5s-25 39 -33 64s-12 53.5 -12 85.5c0 31.333 4 59.666 12 84.999s19 47 33 65s30.333 31.833 49 41.5s38.667 14.5 60 14.5c24 0 45.833 -5.33301 65.5 -16
s36.334 -25.5 50.001 -44.5s24.167 -41.167 31.5 -66.5s11 -52.666 11 -81.999zM780.998 186.997c0 62 -7 106.999 -21 134.999s-32.333 42 -55 42c-27.333 0 -46.5 -13.167 -57.5 -39.5s-16.5 -66.5 -16.5 -120.5c0 -63.333 6 -108.666 18 -135.999s30.667 -41 56 -41
c23.333 0 41.833 12.833 55.5 38.5s20.5 66.167 20.5 121.5z" />
    <glyph glyph-name="ampersand" unicode="&#x26;" horiz-adv-x="693" 
d="M472 548c0 -22 -3.83496 -41.8311 -11.502 -59.498s-18.334 -34 -32.001 -49s-30 -28.833 -49 -41.5s-39.833 -24.667 -62.5 -36l195 -196c13.333 30.667 20 66 20 106c0 14 -0.833008 25.833 -2.5 35.5s-5.16699 17.334 -10.5 23.001s-13 9.83398 -23 12.501
s-23.333 4.33398 -40 5.00098v35h214v-35c-16.667 -0.666992 -29.667 -2.33398 -39 -5.00098s-16.5 -6.83398 -21.5 -12.501s-8.5 -13.334 -10.5 -23.001s-3.66699 -21.5 -5 -35.5c-3.33301 -27.333 -8.83301 -52.833 -16.5 -76.5s-17.167 -45.834 -28.5 -66.501l68 -68
c10.667 -10 23.334 -17.167 38.001 -21.5s27.334 -6.5 38.001 -6.5v-33h-140l-60 60c-25.333 -22.667 -55.333 -40.167 -90 -52.5s-74 -18.5 -118 -18.5c-41.333 0 -77.166 4.33301 -107.499 13s-55.833 20.5 -76.5 35.5s-36 33 -46 54s-15 43.5 -15 67.5
c0 25.333 3.66699 47.166 11 65.499s18.166 34.5 32.499 48.5s31.833 27 52.5 39s44 24.333 70 37l-30 30l-37.5 38.5c-11 11.667 -20.333 23.834 -28 36.501s-13.667 26.5 -18 41.5s-6.5 32.5 -6.5 52.5c0 19.333 4.16699 38.166 12.5 56.499s20.5 34.666 36.5 48.999
s35.833 25.833 59.5 34.5s50.834 13 81.501 13c63.333 0 111.833 -13.167 145.5 -39.5s50.5 -64.166 50.5 -113.499zM304.998 35.002c30 0 58.498 4.33398 85.498 13.001s51.167 22.667 72.5 42l-229 231c-15.333 -10 -28.666 -19.333 -39.999 -28
s-20.666 -18.167 -27.999 -28.5s-12.833 -22.166 -16.5 -35.499s-5.5 -29 -5.5 -47c0 -18.667 3.33301 -36.834 10 -54.501s16.667 -33.334 30 -47.001s30 -24.667 50 -33s43.667 -12.5 71 -12.5zM178.996 555.003c0 -28 7.83301 -52.1699 23.5 -72.5029
s34.5 -41.166 56.5 -62.499l31 -30c17.333 14 31.5 26.333 42.5 37s19.833 21.834 26.5 33.501s11.167 24.334 13.5 38.001s3.5 30.167 3.5 49.5c0 72 -33.333 108 -100 108c-30 0 -53.667 -8.83301 -71 -26.5s-26 -42.5 -26 -74.5z" />
    <glyph glyph-name="quotesingle" unicode="'" horiz-adv-x="255" 
d="M85 453v256h85v-256h-85z" />
    <glyph glyph-name="parenleft" unicode="(" horiz-adv-x="333" 
d="M148 324c0 -43.333 1.66992 -87.335 5.00293 -132.002s10.666 -87 21.999 -127s27.833 -76.5 49.5 -109.5s51.167 -59.5 88.5 -79.5l-17 -35c-48.667 20.667 -88.334 48 -119.001 82s-54.667 72.333 -72 115s-29.166 88.334 -35.499 137.001s-9.5 97.667 -9.5 147
s3.5 96 10.5 140s19.5 85 37.5 123s42.167 72.833 72.5 104.5s68.833 60.167 115.5 85.5l17 -35c-36.667 -23.333 -65.834 -49.666 -87.501 -78.999s-38.334 -61.5 -50.001 -96.5s-19.167 -72.667 -22.5 -113s-5 -82.833 -5 -127.5z" />
    <glyph glyph-name="parenright" unicode=")" horiz-adv-x="333" 
d="M185 324c0 43.333 -1.83105 85.1689 -5.49805 125.502s-11.167 78.166 -22.5 113.499s-27.833 67.833 -49.5 97.5s-50.834 56.167 -87.501 79.5l17 35c46.667 -25.333 85.167 -53.833 115.5 -85.5s54.5 -66.5 72.5 -104.5s30.5 -79 37.5 -123s10.5 -90.667 10.5 -140
s-3.16699 -98.333 -9.5 -147s-18.166 -94.334 -35.499 -137.001s-41.333 -81 -72 -115s-70.334 -61.333 -119.001 -82l-17 35c36.667 20 66 45.667 88 77s38.667 66.333 50 105s18.666 80.667 21.999 126s5 92 5 140z" />
    <glyph glyph-name="asterisk" unicode="*" horiz-adv-x="461" 
d="M295 491l69 -127l-37 -29l-98 108l-95 -105l-36 27l68 126l-126 64l13 41l139 -30l18 142h42l17 -142l138 29l14 -42z" />
    <glyph glyph-name="plus" unicode="+" horiz-adv-x="575" 
d="M316 507v-209h204v-53h-204v-211h-59v211h-202v53h202v209h59z" />
    <glyph glyph-name="comma" unicode="," horiz-adv-x="297" 
d="M218 31c0 -19.333 -3.50195 -38.1689 -10.502 -56.502s-16.667 -35.166 -29 -50.499s-27.333 -28.833 -45 -40.5s-37.167 -20.5 -58.5 -26.5l-20 31c29.333 11.333 51.333 24.333 66 39s22 29.334 22 44.001c0 9.33301 -3.16699 16 -9.5 20s-15.166 8.33301 -26.499 13
c-9.33301 4 -18.666 10.333 -27.999 19s-14 21.667 -14 39c0 19.333 6.83301 35.833 20.5 49.5s30.834 20.5 51.501 20.5c23.333 0 42.666 -9.33301 57.999 -28s23 -43 23 -73z" />
    <glyph glyph-name="hyphen" unicode="-" horiz-adv-x="313" 
d="M55 235v71h203v-71h-203z" />
    <glyph glyph-name="period" unicode="." horiz-adv-x="272" 
d="M207 59c0 -20.667 -6.66699 -38 -20 -52s-30.333 -21 -51 -21s-37.667 7 -51 21s-20 31.333 -20 52s6.66699 38 20 52s30.333 21 51 21s37.667 -7 51 -21s20 -31.333 20 -52z" />
    <glyph glyph-name="slash" unicode="/" horiz-adv-x="398" 
d="M289 761h68l-260 -910h-68z" />
    <glyph glyph-name="zero" unicode="0" horiz-adv-x="570" 
d="M531 322c0 -51.333 -6.5 -97.667 -19.5 -139s-30.5 -76.333 -52.5 -105s-48 -50.667 -78 -66s-62 -23 -96 -23s-66 7.83301 -96 23.5s-56.167 38.167 -78.5 67.5s-39.833 64.833 -52.5 106.5s-19 88.834 -19 141.501c0 52 6.33301 99.167 19 141.5s30 78.166 52 107.499
s47.833 52 77.5 68s61.5 24 95.5 24c38 0 72.333 -9 103 -27s56.667 -42.5 78 -73.5s37.833 -67.667 49.5 -110s17.5 -87.833 17.5 -136.5zM428 315.999c0 104.667 -13.333 181.668 -40 231.001s-61.667 74 -105 74c-52 0 -88.833 -23.333 -110.5 -70
s-32.5 -116.667 -32.5 -210c0 -54 3 -100.333 9 -139s15 -70.334 27 -95.001s27 -42.667 45 -54s39.333 -17 64 -17c44 0 78.833 22.667 104.5 68s38.5 116 38.5 212z" />
    <glyph glyph-name="one" unicode="1" horiz-adv-x="570" 
d="M347 108c0 -15.333 1.83301 -27.332 5.5 -35.999s10.667 -15.334 21 -20.001s24.333 -7.83398 42 -9.50098s40.5 -2.83398 68.5 -3.50098v-39h-364v39c28 0.666992 50.833 1.66699 68.5 3s31.5 4.5 41.5 9.5s16.833 12 20.5 21s5.5 21.167 5.5 36.5v457
c-20.667 -11.333 -44.5 -22.166 -71.5 -32.499s-51.5 -19.166 -73.5 -26.499l-13 29l191 121h58v-549z" />
    <glyph glyph-name="two" unicode="2" horiz-adv-x="570" 
d="M271 668c31.333 0 59.1631 -4.49805 83.4961 -13.498s44.833 -21.5 61.5 -37.5s29.334 -35.167 38.001 -57.5s13 -46.833 13 -73.5c0 -30.667 -6.5 -60.834 -19.5 -90.501s-30.667 -59.334 -53 -89.001s-48.333 -59.167 -78 -88.5l-94.5 -90l-60 -55h338l-16 -73h-417v46
l125 127c28 28 52.833 54.5 74.5 79.5s40 49.833 55 74.5s26.5 49.5 34.5 74.5s12 52.167 12 81.5c0 40 -10.5 70.667 -31.5 92s-46.833 32 -77.5 32c-35.333 0 -64.166 -5.66699 -86.499 -17s-43.833 -25.333 -64.5 -42l-27 40c24.667 24 52.834 43.333 84.501 58
s66.834 22 105.501 22z" />
    <glyph glyph-name="three" unicode="3" horiz-adv-x="570" 
d="M253 604c-36 0 -66.3301 -5.16406 -90.9971 -15.4971s-45.334 -21.833 -62.001 -34.5l-31 39c27.333 21.333 57 38.833 89 52.5s67.333 20.5 106 20.5c58.667 0 105 -13.833 139 -41.5s51 -65.834 51 -114.501c0 -37.333 -11 -69.833 -33 -97.5s-54 -47.5 -96 -59.5
c46 -9.33301 82 -27.5 108 -54.5s39 -59.167 39 -96.5s-8.5 -70.5 -25.5 -99.5s-39 -53.5 -66 -73.5s-57.667 -35.167 -92 -45.5s-68.833 -15.5 -103.5 -15.5c-48.667 0 -89 5 -121 15l-11 43c16 -3.33301 32.833 -5.83301 50.5 -7.5s34.167 -2.5 49.5 -2.5
c32 0 61.667 4 89 12s50.666 19.833 69.999 35.5s34.5 34.667 45.5 57s16.5 48.166 16.5 77.499c0 24.667 -3.33301 45 -10 61s-16.667 28.667 -30 38s-29.833 15.833 -49.5 19.5s-42.167 5.5 -67.5 5.5c-7.33301 0 -14.5 -0.166992 -21.5 -0.5
s-14.833 -0.833008 -23.5 -1.5v51c9.33301 -0.666992 18 -1.16699 26 -1.5s17.667 -0.5 29 -0.5c43.333 0 76.666 10.167 99.999 30.5s35 56.166 35 107.499c0 29.333 -9.66699 52.833 -29 70.5s-46 26.5 -80 26.5z" />
    <glyph glyph-name="four" unicode="4" horiz-adv-x="570" 
d="M350 156h-305v42l225 461h98l-251 -454h233c0.666992 104.667 13.667 196.667 39 276l52 17v-293h84v-49h-84v-167l-91 -19v186z" />
    <glyph glyph-name="five" unicode="5" horiz-adv-x="570" 
d="M468 206c0 -39.333 -7.83203 -74.001 -23.499 -104.001s-36.5 -55 -62.5 -75s-55.833 -35.167 -89.5 -45.5s-68.5 -15.5 -104.5 -15.5c-14 0 -26.5 0.333008 -37.5 1s-21 1.83398 -30 3.50098s-17.333 3.5 -25 5.5s-15.834 4.66699 -24.501 8l-11 46
c18 -5.33301 35.5 -9.16602 52.5 -11.499s37.167 -3.5 60.5 -3.5c26 0 51 3.5 75 10.5s45 17.833 63 32.5s32.333 33.5 43 56.5s16 50.833 16 83.5c0 44 -11 77.667 -33 101s-55.333 35 -100 35c-25.333 0 -48.5 -2.16699 -69.5 -6.5s-41.167 -10.166 -60.5 -17.499l31 342
h317l-14 -75h-248l-18 -201c14 4 28.833 7.16699 44.5 9.5s30.167 3.5 43.5 3.5c30.667 0 58.667 -4.16699 84 -12.5s47 -20.333 65 -36s31.833 -34.834 41.5 -57.501s14.5 -48.334 14.5 -77.001z" />
    <glyph glyph-name="six" unicode="6" horiz-adv-x="570" 
d="M460 662c-39.333 -15.333 -75.334 -32.165 -108.001 -50.498s-61.167 -39.833 -85.5 -64.5s-44.666 -53.334 -60.999 -86.001s-27.833 -71 -34.5 -115c18 14.667 39.5 27.167 64.5 37.5s51.167 15.5 78.5 15.5c28 0 54.167 -4.33301 78.5 -13s45.5 -21.167 63.5 -37.5
s32.167 -36.5 42.5 -60.5s15.5 -51.333 15.5 -82c0 -31.333 -5.33301 -60.5 -16 -87.5s-25.5 -50.333 -44.5 -70s-41.833 -35.167 -68.5 -46.5s-55.667 -17 -87 -17c-34 0 -65.167 6.16699 -93.5 18.5s-52.666 30.166 -72.999 53.499s-36 52 -47 86s-16.5 72.667 -16.5 116
c0 64.667 10.5 121.5 31.5 170.5s48.833 91.5 83.5 127.5s74.667 65.833 120 89.5s92.666 42.5 141.999 56.5zM294.999 342.001c-23.333 0 -46.166 -4.16895 -68.499 -12.502s-42.5 -19.166 -60.5 -32.499c-0.666992 -7.33301 -1 -14.666 -1 -21.999v-23
c0 -40 3.16699 -73.833 9.5 -101.5s15.333 -50.167 27 -67.5s25.667 -29.833 42 -37.5s34.5 -11.5 54.5 -11.5c36.667 0 65.667 13.167 87 39.5s32 69.833 32 130.5c0 28.667 -3.33301 52 -10 70s-15.5 32 -26.5 42s-23.833 16.833 -38.5 20.5s-30.334 5.5 -47.001 5.5z" />
    <glyph glyph-name="seven" unicode="7" horiz-adv-x="570" 
d="M480 587c-28 -37.333 -54.5 -79.3311 -79.5 -125.998s-47.833 -96 -68.5 -148s-39.167 -105.333 -55.5 -160s-29.5 -108.667 -39.5 -162l-101 -26c12 51.333 28 104.666 48 159.999s42.5 109.833 67.5 163.5s51.333 105.167 79 154.5s55.5 93.666 83.5 132.999h-337
l17 75h399z" />
    <glyph glyph-name="eight" unicode="8" horiz-adv-x="570" 
d="M55 165c0 20.667 4.16797 40 12.501 58s19.333 34.333 33 49s29.334 27.667 47.001 39s35.5 21.333 53.5 30c-14.667 8 -28.834 16.833 -42.501 26.5s-25.834 20.834 -36.501 33.501s-19.167 27 -25.5 43s-9.5 33.667 -9.5 53c0 25.333 5.5 48.5 16.5 69.5
s25.667 39 44 54s39.5 26.667 63.5 35s49.333 12.5 76 12.5c30 0 57.167 -3.83301 81.5 -11.5s45.166 -18.334 62.499 -32.001s30.833 -30 40.5 -49s14.5 -39.833 14.5 -62.5c0 -18.667 -3.83301 -35.834 -11.5 -51.501s-17.5 -29.834 -29.5 -42.501s-25.667 -24 -41 -34
s-31 -18.667 -47 -26c18.667 -8 37.334 -17.167 56.001 -27.5s35.5 -22.833 50.5 -37.5s27.167 -31.667 36.5 -51s14 -42 14 -68c0 -28.667 -5.83301 -54.667 -17.5 -78s-27.834 -43.166 -48.501 -59.499s-45.167 -28.833 -73.5 -37.5s-58.833 -13 -91.5 -13
c-36.667 0 -69.167 4.66699 -97.5 14s-52.166 22 -71.499 38s-34 34.833 -44 56.5s-15 44.834 -15 69.501zM424.001 156c0 22 -4 40.667 -12 56s-19.667 29.166 -35 41.499s-34.5 23.833 -57.5 34.5s-49.5 22.334 -79.5 35.001c-27.333 -19.333 -49.333 -41 -66 -65
s-25 -53 -25 -87c0 -44 11.5 -77.667 34.5 -101s56.833 -35 101.5 -35c42 0 75.667 10.667 101 32s38 51 38 89zM174.001 511c0 -15.333 2.33301 -29.166 7 -41.499s12.5 -23.833 23.5 -34.5s25.5 -20.834 43.5 -30.501s40 -19.5 66 -29.5c21.333 14.667 40 32.667 56 54
s24 48 24 80c0 34 -9 61 -27 81s-45 30 -81 30s-63.667 -10.333 -83 -31s-29 -46.667 -29 -78z" />
    <glyph glyph-name="nine" unicode="9" horiz-adv-x="570" 
d="M61 -13c58.667 18 107.832 38.332 147.499 60.999s73.834 48.334 102.501 77.001c23.333 23.333 42.333 50 57 80s24.667 64.333 30 103c-17.333 -14.667 -38.5 -27 -63.5 -37s-51.167 -15 -78.5 -15c-28 0 -54.167 4.33301 -78.5 13s-45.5 21.167 -63.5 37.5
s-32.167 36.5 -42.5 60.5s-15.5 51.333 -15.5 82c0 31.333 5.5 60.5 16.5 87.5s26.333 50.333 46 70s43 35.167 70 46.5s56.167 17 87.5 17c68.667 0 123.5 -22.833 164.5 -68.5s61.5 -112.5 61.5 -200.5c0 -66 -10.833 -124.167 -32.5 -174.5s-51 -93.833 -88 -130.5
s-80.333 -67 -130 -91s-102.5 -42.333 -158.5 -55zM274.998 312.999c22.667 0 45.167 4.00098 67.5 12.001s42.5 18.667 60.5 32c0.666992 9.33301 1.16699 18.666 1.5 27.999s0.5 19.333 0.5 30c0 38.667 -3 71.167 -9 97.5s-14.667 47.5 -26 63.5s-24.833 27.5 -40.5 34.5
s-33.5 10.5 -53.5 10.5c-36.667 0 -66.334 -13.167 -89.001 -39.5s-34 -69.833 -34 -130.5c0 -28.667 3.33301 -52 10 -70s15.5 -32 26.5 -42s23.833 -16.833 38.5 -20.5s30.334 -5.5 47.001 -5.5z" />
    <glyph glyph-name="colon" unicode=":" horiz-adv-x="312" 
d="M227 373c0 -20.667 -6.66699 -38 -20 -52s-30.333 -21 -51 -21s-37.667 7 -51 21s-20 31.333 -20 52s6.66699 38 20 52s30.333 21 51 21s37.667 -7 51 -21s20 -31.333 20 -52zM227 59c0 -20.667 -6.66699 -38 -20 -52s-30.333 -21 -51 -21s-37.667 7 -51 21
s-20 31.333 -20 52s6.66699 38 20 52s30.333 21 51 21s37.667 -7 51 -21s20 -31.333 20 -52z" />
    <glyph glyph-name="semicolon" unicode=";" horiz-adv-x="327" 
d="M238 31c0 -19.333 -3.5 -38.1689 -10.5 -56.502s-16.667 -35.166 -29 -50.499s-27.333 -28.833 -45 -40.5s-37.167 -20.5 -58.5 -26.5l-20 31c29.333 11.333 51.333 24.333 66 39s22 29.334 22 44.001c0 9.33301 -3.33301 15.833 -10 19.5s-15.334 8.16699 -26.001 13.5
c-9.33301 4 -18.666 10.333 -27.999 19s-14 21.667 -14 39c0 19.333 6.83301 35.833 20.5 49.5s30.834 20.5 51.501 20.5c23.333 0 42.666 -9.33301 57.999 -28s23 -43 23 -73zM227 372.997c0 -20.667 -6.66699 -38 -20 -52s-30.333 -21 -51 -21s-37.667 7 -51 21
s-20 31.333 -20 52s6.66699 38 20 52s30.333 21 51 21s37.667 -7 51 -21s20 -31.333 20 -52z" />
    <glyph glyph-name="less" unicode="&#x3c;" horiz-adv-x="477" 
d="M55 254v72l367 232v-68l-316 -196l316 -173v-65z" />
    <glyph glyph-name="equal" unicode="=" horiz-adv-x="575" 
d="M55 226h465v-53h-465v53zM55 374h465v-53h-465v53z" />
    <glyph glyph-name="greater" unicode="&#x3e;" horiz-adv-x="477" 
d="M55 56v65l316 173l-316 196v68l367 -232v-72z" />
    <glyph glyph-name="question" unicode="?" horiz-adv-x="447" 
d="M277 60c0 -20 -7 -37.167 -21 -51.5s-30.667 -21.5 -50 -21.5s-35.5 7.16699 -48.5 21.5s-19.5 31.5 -19.5 51.5c0 19.333 6.5 35.5 19.5 48.5s29.167 19.5 48.5 19.5s36 -6.5 50 -19.5s21 -29.167 21 -48.5zM211 654c-28 0 -49.001 -8.16895 -63.001 -24.502
s-22.667 -38.5 -26 -66.5h-64v90c6 4 13.833 8.83301 23.5 14.5s21.5 10.834 35.5 15.501s29.667 8.66699 47 12s36.333 5 57 5c24 0 46.333 -2.66699 67 -8s38.834 -14.166 54.501 -26.499s27.834 -28.166 36.501 -47.499s13 -43 13 -71c0 -23.333 -4 -44 -12 -62
s-17.5 -33.333 -28.5 -46s-22 -22.834 -33 -30.501l-25.5 -17.5c-14 -9.33301 -25.833 -18 -35.5 -26s-17.667 -16.5 -24 -25.5s-10.833 -19 -13.5 -30s-4 -23.833 -4 -38.5c0 -8 0.666992 -17 2 -27s3.33301 -19.667 6 -29h-41
c-5.33301 9.33301 -10.666 20.166 -15.999 32.499s-8 28.166 -8 47.499c0 17.333 3.66699 36.333 11 57s22.666 41.667 45.999 63l28 25c10 8.66699 19.167 18.334 27.5 29.001s15.166 23.167 20.499 37.5s8 31.5 8 51.5c0 30.667 -8.5 54.334 -25.5 71.001
s-38.167 25 -63.5 25z" />
    <glyph glyph-name="at" unicode="@" horiz-adv-x="906" 
d="M614 -1c-40.667 0 -70.666 7.8291 -89.999 23.4961s-29 42.5 -29 80.5c-13.333 -29.333 -31.333 -54 -54 -74s-53 -30 -91 -30c-36 0 -64.167 12 -84.5 36s-30.5 58 -30.5 102c0 48.667 7.83301 92.5 23.5 131.5s36.5 72.167 62.5 99.5s55.667 48.166 89 62.499
s67.666 21.5 102.999 21.5c32 0 58.667 -4.33301 80 -13s41 -21 59 -37c-6.66699 -21.333 -11.5 -38.5 -14.5 -51.5l-10.5 -44.5l-43 -175c-4.66699 -19.333 -7 -35.666 -7 -48.999c0 -17.333 4 -29 12 -35s20.333 -9 37 -9c17.333 0 35 4.66699 53 14s34.5 23.333 49.5 42
s27.333 42.167 37 70.5s14.5 61.833 14.5 100.5c0 54.667 -7.83301 102 -23.5 142s-37.167 72.833 -64.5 98.5s-59.833 44.667 -97.5 57s-78.5 18.5 -122.5 18.5c-50.667 0 -97.167 -9 -139.5 -27s-78.833 -43.667 -109.5 -77s-54.5 -74 -71.5 -122s-25.5 -102 -25.5 -162
c0 -47.333 7 -91.166 21 -131.499s34 -75 60 -104s57.833 -51.667 95.5 -68s80.167 -24.5 127.5 -24.5c36 0 66.5 2.16699 91.5 6.5s48.167 10.166 69.5 17.499l15 -30c-26.667 -10.667 -54.667 -19.167 -84 -25.5s-64 -9.5 -104 -9.5
c-54.667 0 -104.834 8.33301 -150.501 25s-85 40.834 -118 72.501s-58.667 70.334 -77 116.001s-27.5 97.834 -27.5 156.501c0 63.333 10.667 121.5 32 174.5s51 98.5 89 136.5s83.167 67.5 135.5 88.5s109.833 31.5 172.5 31.5c58.667 0 111.834 -8.16699 159.501 -24.5
s88.334 -39.833 122.001 -70.5s59.667 -67.5 78 -110.5s27.5 -90.833 27.5 -143.5c0 -49.333 -7 -91.5 -21 -126.5s-32.667 -63.667 -56 -86s-49.833 -38.666 -79.5 -48.999s-59.834 -15.5 -90.501 -15.5zM554.001 375.996c-4 8 -10.668 15.001 -20.001 21.001
s-20.666 9 -33.999 9c-28 0 -52.833 -7.16699 -74.5 -21.5s-39.834 -33.5 -54.501 -57.5s-25.834 -51.833 -33.501 -83.5s-11.5 -64.834 -11.5 -99.501c0 -30.667 5 -52.167 15 -64.5s23 -18.5 39 -18.5c13.333 0 25.833 3.5 37.5 10.5s22.834 16.5 33.501 28.5
s20.834 25.667 30.501 41l29.5 48z" />
    <glyph glyph-name="A" unicode="A" horiz-adv-x="657" 
d="M426 215l-229.997 -0.00195312l-33 -108c-4 -14 -6 -25.667 -6 -35c0 -14.667 5.83301 -24.167 17.5 -28.5s30.167 -7.16602 55.5 -8.49902v-35h-214v35c12 0.666992 22.167 2.5 30.5 5.5s15.666 7.66699 21.999 14s12.166 14.833 17.499 25.5
s10.666 24.334 15.999 41.001l184 568h89l182 -566c4.66699 -14 9.16699 -26.333 13.5 -37s9.5 -19.5 15.5 -26.5s13.333 -12.667 22 -17s19.667 -6.83301 33 -7.5v-35h-245v35c24 1.33301 41.333 5 52 11s16 16.333 16 31c0 5.33301 -0.5 10.833 -1.5 16.5
s-2.16699 10.167 -3.5 13.5zM211.003 262.998h201l-45 148c-13.333 44 -24.5 83 -33.5 117s-15.167 58.667 -18.5 74h-4l-20.5 -76c-8.33301 -30.667 -19.5 -69 -33.5 -115z" />
    <glyph glyph-name="B" unicode="B" horiz-adv-x="607" 
d="M37 35c16.667 0.666992 30.166 2.32812 40.499 4.99512s18.5 6.83398 24.5 12.501s10 13.334 12 23.001s3 21.5 3 35.5v467c0 14 -1 25.833 -3 35.5s-6 17.334 -12 23.001s-14.167 9.83398 -24.5 12.501s-23.833 4.33398 -40.5 5.00098v35h252
c88.667 0 152.5 -14.667 191.5 -44s58.5 -71.333 58.5 -126c0 -36 -9.16699 -66.833 -27.5 -92.5s-51.166 -44.5 -98.499 -56.5v-4c55.333 -8.66699 96 -29.334 122 -62.001s39 -71 39 -115c0 -33.333 -6.5 -61.833 -19.5 -85.5s-30.5 -43.167 -52.5 -58.5
s-47.667 -26.666 -77 -33.999s-60 -11 -92 -11h-296v35zM338.999 48.9941c26.667 0 48.668 2.83398 66.001 8.50098s31.166 14.5 41.499 26.5s17.5 27.167 21.5 45.5s6 40.166 6 65.499s-2.33301 47 -7 65s-12.667 32.5 -24 43.5s-26.833 19 -46.5 24s-44.5 7.5 -74.5 7.5
h-110v-286h127zM315 382.995c48.667 0 82.168 10.332 100.501 30.999s27.5 52 27.5 94c0 48.667 -9.83301 82.834 -29.5 102.501s-53.834 29.5 -102.501 29.5h-99v-257h103z" />
    <glyph glyph-name="C" unicode="C" horiz-adv-x="577" 
d="M348 -11c-52 0 -97.1719 8.16895 -135.505 24.502s-70 39.666 -95 69.999s-43.5 67 -55.5 110s-18 91.5 -18 145.5c0 57.333 7.16699 108.5 21.5 153.5s34.5 83 60.5 114s57.167 54.5 93.5 70.5s76.5 24 120.5 24c27.333 0 51.333 -1.16699 72 -3.5
s38.667 -5.66602 54 -9.99902s28.833 -9.33301 40.5 -15s22.167 -11.834 31.5 -18.501v-112h-70c-9.33301 38.667 -23.166 67 -41.499 85s-48.166 27 -89.499 27c-28.667 0 -54.667 -5.5 -78 -16.5s-43.166 -28.667 -59.499 -53s-28.833 -56.5 -37.5 -96.5s-13 -89 -13 -147
c0 -60 4.66699 -109.667 14 -149s22.5 -70.5 39.5 -93.5s37.833 -39.167 62.5 -48.5s52.334 -14 83.001 -14c40 0 69.833 8.16699 89.5 24.5s33.167 44.166 40.5 83.499h65v-105c-17.333 -12.667 -41.666 -24.167 -72.999 -34.5s-72 -15.5 -122 -15.5z" />
    <glyph glyph-name="D" unicode="D" horiz-adv-x="670" 
d="M37 35c16.667 0.666992 30.168 2.3252 40.501 4.99219s18.5 6.83398 24.5 12.501s10 13.334 12 23.001s3 21.5 3 35.5v467c0 14 -1 25.833 -3 35.5s-6 17.334 -12 23.001s-14.167 9.83398 -24.5 12.501s-23.833 4.33398 -40.5 5.00098v35h253
c50.667 0 96.834 -6.66699 138.501 -20s77 -34.166 106 -62.499s51.5 -64.166 67.5 -107.499s24 -95 24 -155c0 -50 -5.83301 -96 -17.5 -138s-30.834 -78.167 -57.501 -108.5s-61.334 -54.166 -104.001 -71.499s-95 -26 -157 -26h-253v35zM300.001 50.9912
c37.333 0 69.832 4.16699 97.499 12.5s50.834 23 69.501 44s32.5 49.667 41.5 86s13.5 82.5 13.5 138.5c0 57.333 -4.66699 105.833 -14 145.5s-23.333 71.667 -42 96s-41.667 41.833 -69 52.5s-59 16 -95 16h-87v-591h85z" />
    <glyph glyph-name="E" unicode="E" horiz-adv-x="565" 
d="M37 35c16.667 0.666992 30.167 2.3291 40.5 4.99609s18.5 6.83398 24.5 12.501s10 13.334 12 23.001s3 21.5 3 35.5v467c0 14 -1 25.833 -3 35.5s-6 17.334 -12 23.001s-14.167 9.83398 -24.5 12.501s-23.833 4.33398 -40.5 5.00098v35h470l10 -150h-42
c-5.33301 18.667 -10.666 34.5 -15.999 47.5s-11.5 23.5 -18.5 31.5s-15.333 13.667 -25 17s-21.834 5 -36.501 5h-167v-256h93c15.333 0 28.333 1 39 3s19.334 5.66699 26.001 11s11.5 12.666 14.5 21.999s5.16699 21 6.5 35h41v-190h-41c-2 27.333 -8.83301 46 -20.5 56
s-33.167 15 -64.5 15h-94v-287h168c19.333 0 35.166 1.66699 47.499 5s22.333 9.33301 30 18s13.5 20.5 17.5 35.5s7 34.167 9 57.5h45v-165h-492v35z" />
    <glyph glyph-name="F" unicode="F" horiz-adv-x="552" 
d="M37 35c16.667 0.666992 30.1641 2.33008 40.4971 4.99707s18.5 6.83398 24.5 12.501s10 13.334 12 23.001s3 21.5 3 35.5v467c0 14 -1 25.833 -3 35.5s-6 17.334 -12 23.001s-14.167 9.83398 -24.5 12.501s-23.833 4.33398 -40.5 5.00098v35h472l12 -155h-42
c-7.33301 22 -14 39.833 -20 53.5s-12.667 24.5 -20 32.5s-16.166 13.333 -26.499 16s-23.166 4 -38.499 4h-162v-272h93c15.333 0 28.333 1 39 3s19.334 5.66699 26.001 11s11.5 12.666 14.5 21.999s5.16699 21 6.5 35h41v-193h-41c-2 28 -8.83301 47.333 -20.5 58
s-33.167 16 -64.5 16h-94v-206c0 -14.667 1.16699 -27 3.5 -37s6.83301 -18 13.5 -24s15.667 -10.333 27 -13s26 -4.33398 44 -5.00098v-35h-263v35z" />
    <glyph glyph-name="G" unicode="G" horiz-adv-x="644" 
d="M461 229c0 14 -0.996094 25.8262 -2.99609 35.4932s-6.33301 17.334 -13 23.001s-15.834 9.83398 -27.501 12.501s-27.167 4.33398 -46.5 5.00098v35h250v-35c-26 -1.33301 -43.333 -7.16602 -52 -17.499s-13 -29.833 -13 -58.5v-189
c-14 -8.66699 -29.667 -16.167 -47 -22.5s-35.5 -11.666 -54.5 -15.999s-38.167 -7.5 -57.5 -9.5s-38.333 -3 -57 -3c-46 0 -87.167 8 -123.5 24s-67.333 39 -93 69s-45.334 66.833 -59.001 110.5s-20.5 93.167 -20.5 148.5c0 56 7.33301 106.333 22 151s35 82.5 61 113.5
s57.167 54.667 93.5 71s76.166 24.5 119.499 24.5c54 0 98.167 -5.16699 132.5 -15.5s60.833 -22.166 79.5 -35.499v-111h-70c-4 18.667 -9 35.334 -15 50.001s-14.5 26.667 -25.5 36s-25.333 16.5 -43 21.5s-39.834 7.5 -66.501 7.5c-34.667 0 -63.834 -8 -87.501 -24
s-42.834 -38.167 -57.501 -66.5s-25.167 -61.833 -31.5 -100.5s-9.5 -81 -9.5 -127s3.16699 -87.5 9.5 -124.5s17.333 -68.667 33 -95s36.334 -46.5 62.001 -60.5s57.834 -21 96.501 -21c49.333 0 87.333 10.333 114 31v163z" />
    <glyph glyph-name="H" unicode="H" horiz-adv-x="708" 
d="M496 340h-284v-229c0 -14 1 -25.833 3 -35.5s6 -17.334 12 -23.001s14.167 -9.83398 24.5 -12.501s23.833 -4.33398 40.5 -5.00098v-35h-255v35c16.667 0.666992 30.167 2.33398 40.5 5.00098s18.5 6.83398 24.5 12.501s10 13.334 12 23.001s3 21.5 3 35.5v467
c0 14 -1 25.833 -3 35.5s-6 17.334 -12 23.001s-14.167 9.83398 -24.5 12.501s-23.833 4.33398 -40.5 5.00098v35h255v-35c-16.667 -0.666992 -30.167 -2.33398 -40.5 -5.00098s-18.5 -6.83398 -24.5 -12.501s-10 -13.334 -12 -23.001s-3 -21.5 -3 -35.5v-188h284v188
c0 14 -1 25.833 -3 35.5s-6 17.334 -12 23.001s-14.167 9.83398 -24.5 12.501s-23.833 4.33398 -40.5 5.00098v35h255v-35c-16.667 -0.666992 -30.167 -2.33398 -40.5 -5.00098s-18.5 -6.83398 -24.5 -12.501s-10 -13.334 -12 -23.001s-3 -21.5 -3 -35.5v-467
c0 -14 1 -25.833 3 -35.5s6 -17.334 12 -23.001s14.167 -9.83398 24.5 -12.501s23.833 -4.33398 40.5 -5.00098v-35h-255v35c16.667 0.666992 30.167 2.33398 40.5 5.00098s18.5 6.83398 24.5 12.501s10 13.334 12 23.001s3 21.5 3 35.5v229z" />
    <glyph glyph-name="I" unicode="I" horiz-adv-x="329" 
d="M117 578c0 14 -1 25.833 -3 35.5s-6 17.334 -12 23.001s-14.167 9.83398 -24.5 12.501s-23.833 4.33398 -40.5 5.00098v35h255v-35c-16.667 -0.666992 -30.167 -2.33398 -40.5 -5.00098s-18.5 -6.83398 -24.5 -12.501s-10 -13.334 -12 -23.001s-3 -21.5 -3 -35.5v-467
c0 -14 1 -25.833 3 -35.5s6 -17.334 12 -23.001s14.167 -9.83398 24.5 -12.501s23.833 -4.33398 40.5 -5.00098v-35h-255v35c16.667 0.666992 30.167 2.33398 40.5 5.00098s18.5 6.83398 24.5 12.501s10 13.334 12 23.001s3 21.5 3 35.5v467z" />
    <glyph glyph-name="J" unicode="J" horiz-adv-x="339" 
d="M122 578c0 14 -1.17188 25.833 -3.50488 35.5s-6.66602 17.334 -12.999 23.001s-15 9.83398 -26 12.501s-25.167 4.33398 -42.5 5.00098v35h265v-35c-17.333 -0.666992 -31.5 -2.33398 -42.5 -5.00098s-19.667 -6.83398 -26 -12.501s-10.666 -13.334 -12.999 -23.001
s-3.5 -21.5 -3.5 -35.5v-471c0 -39.333 -3.16699 -72.5 -9.5 -99.5s-16.666 -50.167 -30.999 -69.5s-33.666 -35.5 -57.999 -48.5s-54.5 -25.167 -90.5 -36.5l-24 37c26.667 14 47.834 27.5 63.501 40.5s27.5 27.5 35.5 43.5s13.167 34 15.5 54s3.5 44 3.5 72v478z" />
    <glyph glyph-name="K" unicode="K" horiz-adv-x="622" 
d="M117 578c0 14 -1 25.833 -3 35.5s-6 17.334 -12 23.001s-14.167 9.83398 -24.5 12.501s-23.833 4.33398 -40.5 5.00098v35h255v-35c-16.667 -0.666992 -30.167 -2.33398 -40.5 -5.00098s-18.5 -6.83398 -24.5 -12.501s-10 -13.334 -12 -23.001s-3 -21.5 -3 -35.5v-467
c0 -14 1 -25.833 3 -35.5s6 -17.334 12 -23.001s14.167 -9.83398 24.5 -12.501s23.833 -4.33398 40.5 -5.00098v-35h-255v35c16.667 0.666992 30.167 2.33398 40.5 5.00098s18.5 6.83398 24.5 12.501s10 13.334 12 23.001s3 21.5 3 35.5v467zM314 390l211.001 -305.997
c6 -9.33301 11.833 -16.833 17.5 -22.5s11.667 -10.334 18 -14.001s13.833 -6.5 22.5 -8.5s19.667 -3.33301 33 -4v-35h-149l-239 361l184 215c9.33301 11.333 15.666 20.666 18.999 27.999s5 14 5 20c0 18.667 -18 28.667 -54 30v35h212v-35
c-12 -2 -22.667 -4.83301 -32 -8.5s-19 -9.33398 -29 -17.001s-20.833 -17.667 -32.5 -30l-42.5 -46.5z" />
    <glyph glyph-name="L" unicode="L" horiz-adv-x="544" 
d="M212 49l143.998 -0.00390625c18 0 33.333 2 46 6s23.334 10.667 32.001 20s15.834 21.666 21.501 36.999s11.167 34.333 16.5 57h44l-15 -169h-464v35c16.667 0.666992 30.167 2.33398 40.5 5.00098s18.5 6.83398 24.5 12.501s10 13.334 12 23.001s3 21.5 3 35.5v467
c0 14 -1 25.833 -3 35.5s-6 17.334 -12 23.001s-14.167 9.83398 -24.5 12.501s-23.833 4.33398 -40.5 5.00098v35h260v-35c-18 -0.666992 -32.5 -2.33398 -43.5 -5.00098s-19.5 -7 -25.5 -13s-10.167 -14 -12.5 -24s-3.5 -22 -3.5 -36v-527z" />
    <glyph glyph-name="M" unicode="M" horiz-adv-x="801" 
d="M758 654c-18 -1.33301 -32.4902 -3.50098 -43.4902 -6.50098s-19.333 -7.5 -25 -13.5s-9.33398 -13.667 -11.001 -23s-1.83398 -20.333 -0.500977 -33l40 -464c1.33301 -14.667 3 -26.834 5 -36.501s5.5 -17.667 10.5 -24s12 -10.833 21 -13.5
s20.5 -4.33398 34.5 -5.00098v-35h-237v35c17.333 0 31.166 1.5 41.499 4.5s18 7.33301 23 13s8 13 9 22s1.16699 19.833 0.5 32.5l-29 366c-1.33301 15.333 -2.16602 32.333 -2.49902 51s-0.5 34.334 -0.5 47.001v20h-6c-0.666992 -5.33301 -1.83398 -12.5 -3.50098 -21.5
l-5.5 -28.5c-2 -10 -4.16699 -20.167 -6.5 -30.5s-4.83301 -19.833 -7.5 -28.5l-150 -482h-60l-147 460c-3.33301 10 -6.5 21.667 -9.5 35l-8.5 39.5l-7 35c-2 10.333 -3.33301 17.833 -4 22.5h-6c0 -7.33301 -0.5 -22.833 -1.5 -46.5s-2.5 -52.167 -4.5 -85.5l-20 -352
c-0.666992 -12 -0.833984 -22.667 -0.500977 -32s2.66602 -17 6.99902 -23s11.666 -10.5 21.999 -13.5s25.166 -4.5 44.499 -4.5v-35h-208v35c14 0.666992 25.5 2.33398 34.5 5.00098s16 7 21 13s8.66699 13.833 11 23.5s4.16602 22.167 5.49902 37.5l34 464
c0.666992 12.667 0.5 23.667 -0.5 33s-4.33301 17 -10 23s-14 10.667 -25 14s-25.833 5.33301 -44.5 6v35h193l145 -453c7.33301 -23.333 12.666 -45.833 15.999 -67.5s5.66602 -37.834 6.99902 -48.501h6c0.666992 4.66699 1.5 11.334 2.5 20.001s2.5 18.334 4.5 29.001
s4.33301 21.667 7 33s5.66699 22.333 9 33l136 454h194v-35z" />
    <glyph glyph-name="N" unicode="N" horiz-adv-x="685" 
d="M516 578c0 14 -1.00391 25.8281 -3.00391 35.4951s-6 17.334 -12 23.001s-14.167 9.83398 -24.5 12.501s-23.833 4.33398 -40.5 5.00098v35h219v-35c-15.333 -0.666992 -27.666 -2.33398 -36.999 -5.00098s-16.666 -6.83398 -21.999 -12.501
s-8.83301 -13.334 -10.5 -23.001s-2.5 -21.5 -2.5 -35.5v-578h-71l-250 408c-28 44.667 -47.833 80.834 -59.5 108.501s-19.834 48.167 -24.501 61.5h-6c2 -13.333 4.5 -35.166 7.5 -65.499s4.5 -69.833 4.5 -118.5v-283c0 -14 1 -25.833 3 -35.5s6 -17.334 12 -23.001
s14.167 -9.83398 24.5 -12.501s23.833 -4.33398 40.5 -5.00098v-35h-227v35c16.667 0.666992 30.167 2.33398 40.5 5.00098s18.5 6.83398 24.5 12.501s10 13.334 12 23.001s3 21.5 3 35.5v467c0 14 -1 25.833 -3 35.5s-6 17.334 -12 23.001s-14.167 9.83398 -24.5 12.501
s-23.833 4.33398 -40.5 5.00098v35h162l255 -418c7.33301 -12 14.5 -24.833 21.5 -38.5s13.5 -27 19.5 -40s11.333 -25.333 16 -37s8.33398 -21.5 11.001 -29.5h6c-1.33301 7.33301 -2.66602 18 -3.99902 32s-2.66602 30.333 -3.99902 49s-2.33301 38.667 -3 60
s-1 43.333 -1 66v245z" />
    <glyph glyph-name="O" unicode="O" horiz-adv-x="674" 
d="M340 -11c-49.333 0 -92.502 9 -129.502 27s-67.833 42.833 -92.5 74.5s-43.167 69.334 -55.5 113.001s-18.5 91.5 -18.5 143.5c0 56.667 6.83301 107 20.5 151s33.334 81 59.001 111s56.334 52.833 92.001 68.5s75.5 23.5 119.5 23.5c52.667 0 97.667 -9.83301 135 -29.5
s67.833 -46 91.5 -79s41 -71.333 52 -115s16.5 -89.5 16.5 -137.5c0 -52.667 -6.5 -100.667 -19.5 -144s-32 -80.333 -57 -111s-55.5 -54.334 -91.5 -71.001s-76.667 -25 -122 -25zM334.998 654c-66.667 0 -114.834 -24.833 -144.501 -74.5s-44.5 -123.5 -44.5 -221.5
c0 -48.667 3.33301 -92.834 10 -132.501s17.5 -73.667 32.5 -102s35 -50.333 60 -66s55.5 -23.5 91.5 -23.5c28.667 0 54.5 5.5 77.5 16.5s42.5 28.5 58.5 52.5s28.333 54.833 37 92.5s13 82.834 13 135.501c0 51.333 -3.33301 97 -10 137s-17.667 73.833 -33 101.5
s-35.166 48.667 -59.499 63s-53.833 21.5 -88.5 21.5z" />
    <glyph glyph-name="P" unicode="P" horiz-adv-x="577" 
d="M212 114c0 -14.667 1.16699 -27.0039 3.5 -37.0039s6.83301 -18 13.5 -24s15.667 -10.333 27 -13s26 -4.33398 44 -5.00098v-35h-263v35c16.667 0.666992 30.167 2.33398 40.5 5.00098s18.5 6.83398 24.5 12.501s10 13.334 12 23.001s3 21.5 3 35.5v467
c0 14 -1 25.833 -3 35.5s-6 17.334 -12 23.001s-14.167 9.83398 -24.5 12.501s-23.833 4.33398 -40.5 5.00098v35h252c49.333 0 90.5 -5.16699 123.5 -15.5s59.5 -24.333 79.5 -42s34.167 -38.5 42.5 -62.5s12.5 -50 12.5 -78c0 -64.667 -19.667 -114.834 -59 -150.501
s-97 -53.5 -173 -53.5h-103v-173zM446 479.996c0 29.333 -2.33398 54.166 -7.00098 74.499s-12.667 36.833 -24 49.5s-27.166 21.834 -47.499 27.501s-45.833 8.5 -76.5 8.5h-79v-305h97c50 0 85.333 11.167 106 33.5s31 59.5 31 111.5z" />
    <glyph glyph-name="Q" unicode="Q" horiz-adv-x="676" 
d="M588 -125c-22.667 0 -43.6729 5.83301 -63.0059 17.5s-39.166 24.667 -59.499 39s-42.166 27.5 -65.499 39.5s-50.666 18.667 -81.999 20c-44 1.33301 -83.167 11.166 -117.5 29.499s-63 43.333 -86 75s-40.5 68.834 -52.5 111.501s-18 89.334 -18 140.001
c0 56.667 6.83301 107 20.5 151s33.334 81 59.001 111s56.334 52.833 92.001 68.5s75.5 23.5 119.5 23.5c52.667 0 97.667 -9.83301 135 -29.5s67.833 -46 91.5 -79s41 -71.333 52 -115s16.5 -89.5 16.5 -137.5c0 -44.667 -4.66699 -85.834 -14 -123.501
s-23 -70.667 -41 -99s-40 -51.833 -66 -70.5s-55.667 -31 -89 -37c20 -4.66699 38 -10.5 54 -17.5l46.5 -20c15 -6.33301 30 -11.833 45 -16.5s31.5 -7 49.5 -7c16 0 28.5 0.333008 37.5 1s15.833 1.66699 20.5 3l-27 -68c-3.33301 -2 -9.66602 -4.16699 -18.999 -6.5
s-22.333 -3.5 -39 -3.5zM334.994 654c-66.667 0 -114.834 -24.833 -144.501 -74.5s-44.5 -123.5 -44.5 -221.5c0 -48.667 3.33301 -92.834 10 -132.501s17.5 -73.667 32.5 -102s35 -50.333 60 -66s55.5 -23.5 91.5 -23.5c28.667 0 54.5 5.5 77.5 16.5s42.5 28.5 58.5 52.5
s28.333 54.833 37 92.5s13 82.834 13 135.501c0 51.333 -3.33301 97 -10 137s-17.667 73.833 -33 101.5s-35.166 48.667 -59.499 63s-53.833 21.5 -88.5 21.5z" />
    <glyph glyph-name="R" unicode="R" horiz-adv-x="611" 
d="M324 324c24.667 -6 44.8369 -14.6689 60.5039 -26.002s29.167 -24.666 40.5 -39.999c13.333 -16.667 29 -40.167 47 -70.5l56 -94.5c5.33301 -9.33301 10.333 -17.333 15 -24s10.167 -12.5 16.5 -17.5s13.833 -8.83301 22.5 -11.5s19.667 -4.33398 33 -5.00098v-35h-148
l-65 127c-20.667 40.667 -41.667 78 -63 112c-9.33301 14.667 -18.333 27.5 -27 38.5s-17.834 20 -27.501 27s-20.334 12.167 -32.001 15.5s-25.167 5.33301 -40.5 6v-217c0 -26.667 5.16699 -45.5 15.5 -56.5s31.166 -16.833 62.499 -17.5v-35h-253v35
c16.667 0.666992 30.167 2.33398 40.5 5.00098s18.5 6.83398 24.5 12.501s10 13.334 12 23.001s3 21.5 3 35.5v467c0 14 -1 25.833 -3 35.5s-6 17.334 -12 23.001s-14.167 9.83398 -24.5 12.501s-23.833 4.33398 -40.5 5.00098v35h248c37.333 0 71.333 -3.16699 102 -9.5
s56.834 -16.833 78.501 -31.5s38.5 -33.834 50.5 -57.501s18 -52.834 18 -87.501c0 -28.667 -5.33301 -53.834 -16 -75.501s-25.334 -39.667 -44.001 -54s-40.834 -25.333 -66.501 -33s-53.5 -11.834 -83.5 -12.501v-4zM433.003 501.998c0 26.667 -2.66699 49 -8 67
s-13.833 32.167 -25.5 42.5s-26.5 17.666 -44.5 21.999s-39.333 6.5 -64 6.5h-79v-278h74c22 0 42 2.33301 60 7s33.5 12.334 46.5 23.001s23 25 30 43s10.5 40.333 10.5 67z" />
    <glyph glyph-name="S" unicode="S" horiz-adv-x="538" 
d="M245 -11c-26 0 -49.668 1.83594 -71.001 5.50293s-40.5 8.16699 -57.5 13.5s-31.833 11.166 -44.5 17.499s-23.334 12.5 -32.001 18.5v124h69c3.33301 -22 8 -41.333 14 -58s14.667 -30.5 26 -41.5s25.833 -19.167 43.5 -24.5s39.834 -8 66.501 -8s49.5 3.33301 68.5 10
s34.167 15.834 45.5 27.501s19.666 25.334 24.999 41.001s8 32.834 8 51.501c0 21.333 -2.33301 39.166 -7 53.499s-12.334 26.666 -23.001 36.999s-24.167 19 -40.5 26s-35.833 14.167 -58.5 21.5l-69 21c-50.667 15.333 -89.167 37.166 -115.5 65.499
s-39.5 66.833 -39.5 115.5c0 28.667 5.16699 54.834 15.5 78.501s25 44.167 44 61.5s42.333 30.833 70 40.5s58.834 14.5 93.501 14.5c49.333 0 88.833 -5.33301 118.5 -16s53.167 -22.334 70.5 -35.001v-107h-65c-3.33301 16.667 -7.66602 31.834 -12.999 45.501
s-13.333 25.334 -24 35.001s-24 17.167 -40 22.5s-36 8 -60 8c-40 0 -71.333 -10.333 -94 -31s-34 -49.334 -34 -86.001c0 -18.667 2.33301 -34.334 7 -47.001s11.834 -23.667 21.501 -33s22.167 -17.333 37.5 -24s33.666 -13.334 54.999 -20.001l70 -21
c24 -7.33301 46.333 -16.333 67 -27s38.334 -23.667 53.001 -39s26.167 -33.333 34.5 -54s12.5 -44.334 12.5 -71.001c0 -66.667 -21.167 -118.667 -63.5 -156s-103.833 -56 -184.5 -56z" />
    <glyph glyph-name="T" unicode="T" horiz-adv-x="551" 
d="M523 689l8 -157h-47c-4 21.333 -7.83301 39 -11.5 53s-8.33398 25 -14.001 33s-13.167 13.667 -22.5 17s-21.333 5 -36 5h-77v-529c0 -16 1.5 -28.833 4.5 -38.5s8 -17.167 15 -22.5s16.333 -9 28 -11s25.834 -3.33301 42.501 -4v-35h-275v35
c16.667 0.666992 30.834 2 42.501 4s21 5.66699 28 11s12 12.833 15 22.5s4.5 22.5 4.5 38.5v529h-77c-15.333 0 -27.5 -1.66699 -36.5 -5s-16.333 -9 -22 -17s-10.334 -19 -14.001 -33s-7.5 -31.667 -11.5 -53h-47l8 157h495z" />
    <glyph glyph-name="U" unicode="U" horiz-adv-x="684" 
d="M517 578c0 14 -1.00098 25.8311 -3.00098 35.498s-6.16699 17.334 -12.5 23.001s-15 9.83398 -26 12.501s-25.5 4.33398 -43.5 5.00098v35h224v-35c-15.333 -0.666992 -27.666 -2.33398 -36.999 -5.00098s-16.666 -6.83398 -21.999 -12.501
s-8.83301 -13.334 -10.5 -23.001s-2.5 -21.5 -2.5 -35.5v-354c0 -82.667 -20.167 -142.5 -60.5 -179.5s-98.166 -55.5 -173.499 -55.5c-83.333 0 -145.333 19.333 -186 58s-61 95.334 -61 170.001v361c0 14 -1 25.833 -3 35.5s-5.83301 17.334 -11.5 23.001
s-13.334 9.83398 -23.001 12.501s-22.167 4.33398 -37.5 5.00098v35h255v-35c-18 -0.666992 -32.5 -2.33398 -43.5 -5.00098s-19.667 -6.83398 -26 -12.501s-10.5 -13.334 -12.5 -23.001s-3 -21.5 -3 -35.5v-339c0 -33.333 2.66699 -62 8 -86s14.333 -43.667 27 -59
s29.667 -26.666 51 -33.999s48 -11 80 -11c55.333 0 94.666 13.667 117.999 41s35 72 35 134v354z" />
    <glyph glyph-name="V" unicode="V" horiz-adv-x="653" 
d="M279 0l-179.001 566c-4.66699 14.667 -9.33398 27.334 -14.001 38.001s-10 19.5 -16 26.5s-13.333 12.333 -22 16s-19.334 6.16699 -32.001 7.5v35h245v-35c-24 -1.33301 -41.333 -4.83301 -52 -10.5s-16 -16.167 -16 -31.5c0 -6.66699 1.66699 -16.667 5 -30l89 -303
l13 -47.5l14 -53.5l13 -52l10 -43h6l10 37l13 49.5l15 55l16 54.5l91 303c2 7.33301 3.5 13.5 4.5 18.5s1.5 10.833 1.5 17.5c0 13.333 -5.5 22.333 -16.5 27s-28.5 7.66699 -52.5 9v35h212v-35c-12 -2 -22.167 -4.33301 -30.5 -7s-15.666 -7 -21.999 -13
s-12.166 -14.333 -17.499 -25s-10.666 -24.334 -15.999 -41.001l-181 -568h-91z" />
    <glyph glyph-name="W" unicode="W" horiz-adv-x="897" 
d="M471 438c-2.66699 10.667 -5.16504 21.833 -7.49805 33.5s-4.33301 23 -6 34l-4.5 30.5c-1.33301 9.33301 -2.33301 17 -3 23h-4c-0.666992 -4.66699 -1.83398 -11.5 -3.50098 -20.5l-5.5 -30l-6.5 -34.5c-2.33301 -12 -4.83301 -24 -7.5 -36l-103 -438h-96l-128 566
c-3.33301 16 -7 29.333 -11 40s-9 19.334 -15 26.001s-13.333 11.667 -22 15s-19.334 5.66602 -32.001 6.99902v35h241v-35c-24.667 -2 -42.5 -6 -53.5 -12s-16.5 -16.667 -16.5 -32c0 -6 0.166992 -10.833 0.5 -14.5s1.16602 -8.16699 2.49902 -13.5l66 -298
c3.33301 -16 6.5 -32.833 9.5 -50.5s5.66699 -34.667 8 -51s4.33301 -31.166 6 -44.499s2.83398 -23.333 3.50098 -30h6c0.666992 4.66699 2.16699 12.667 4.5 24l8.5 40.5l11 52c4 19 8.66699 38.833 14 59.5l97 405h75l101 -406l13.5 -56.5
c4.33301 -18.333 8.16602 -35.333 11.499 -51l9 -41l6 -26.5h6c0.666992 4.66699 2 12.834 4 24.501l7 41.5c2.66699 16 5.83398 33.5 9.50098 52.5s7.5 37.833 11.5 56.5l61 277c2 10 3.33301 18.167 4 24.5s1 11.833 1 16.5c0 19.333 -5.66699 32.666 -17 39.999
s-30 11.666 -56 12.999v35h209v-35c-24 -3.33301 -41.5 -12.333 -52.5 -27s-20.167 -38 -27.5 -70l-128 -557h-92z" />
    <glyph glyph-name="X" unicode="X" horiz-adv-x="632" 
d="M359 374l148.999 -256.999c8.66699 -15.333 17 -28 25 -38s16 -18 24 -24s16 -10.5 24 -13.5s17 -5.16699 27 -6.5v-35h-244v35c36.667 0.666992 55 11 55 31c0 10.667 -5.33301 26 -16 46l-110 198h-4l-105 -200c-9.33301 -16.667 -14 -31 -14 -43
c0 -11.333 5 -19.166 15 -23.499s24.667 -7.16602 44 -8.49902v-35h-205v35c10 1.33301 19.167 3.5 27.5 6.5s16.333 8 24 15s15.667 16.167 24 27.5s17.5 26 27.5 44l133 235l-128 217c-8.66699 14.667 -16.667 26.5 -24 35.5s-14.5 16.167 -21.5 21.5
s-14.333 9.16602 -22 11.499s-16.5 4.16602 -26.5 5.49902v35h239v-35c-20.667 -1.33301 -35.167 -4.33301 -43.5 -9s-12.5 -11.667 -12.5 -21c0 -6 1.5 -12.833 4.5 -20.5s7.16699 -16.167 12.5 -25.5l88 -157h4l83 156c10 18 15 33 15 45c0 19.333 -17.667 30 -53 32v35
h194v-35c-10 -1.33301 -19 -3.5 -27 -6.5s-15.667 -7.5 -23 -13.5s-14.666 -13.833 -21.999 -23.5s-15 -21.834 -23 -36.501z" />
    <glyph glyph-name="Y" unicode="Y" horiz-adv-x="594" 
d="M323 345l108 234.003c8 18 12 32.333 12 43c0 11.333 -5 19.166 -15 23.499s-24.667 7.16602 -44 8.49902v35h199v-35c-10 -1.33301 -19 -3.5 -27 -6.5s-15.667 -7.83301 -23 -14.5s-14.666 -15.667 -21.999 -27s-15.666 -26.333 -24.999 -45l-137 -279v-171
c0 -14 1.16699 -25.833 3.5 -35.5s6.66602 -17.334 12.999 -23.001s15 -9.83398 26 -12.501s25.167 -4.33398 42.5 -5.00098v-35h-265v35c17.333 0.666992 31.5 2.33398 42.5 5.00098s19.667 6.83398 26 12.501s10.666 13.334 12.999 23.001s3.5 21.5 3.5 35.5v165l-149 296
c-8 16 -15.5 29 -22.5 39s-14.167 18 -21.5 24s-15 10.333 -23 13s-17 4.66699 -27 6v35h238v-35c-19.333 -0.666992 -33 -3.33398 -41 -8.00098s-12 -12 -12 -22c0 -6.66699 1.16699 -13.667 3.5 -21s5.83301 -16 10.5 -26l109 -232h4z" />
    <glyph glyph-name="Z" unicode="Z" horiz-adv-x="519" 
d="M123 49l197 -0.00195312c19.333 0 35.833 2.16699 49.5 6.5s25.334 11.333 35.001 21s17.667 22.334 24 38.001s12.166 34.834 17.499 57.501h44l-15 -172h-451v56l374 584h-186c-34 0 -59.5 -9 -76.5 -27s-30.5 -46.667 -40.5 -86h-44l14 162h432v-56z" />
    <glyph glyph-name="bracketleft" unicode="[" horiz-adv-x="300" 
d="M90 -155v928h185v-42h-106v-844h106v-42h-185z" />
    <glyph glyph-name="backslash" unicode="\" horiz-adv-x="398" 
d="M375 -149h-68l-260 910h68z" />
    <glyph glyph-name="bracketright" unicode="]" horiz-adv-x="300" 
d="M25 -155v42h106v844h-106v42h185v-928h-185z" />
    <glyph glyph-name="asciicircum" unicode="^" horiz-adv-x="604" 
d="M464 310l-165 326l-160 -326h-74l203 398h68l203 -398h-75z" />
    <glyph glyph-name="underscore" unicode="_" horiz-adv-x="496" 
d="M-2 -125v50h500v-50h-500z" />
    <glyph glyph-name="grave" unicode="`" horiz-adv-x="392" 
d="M292 566l-212 96l53 91l179 -153z" />
    <glyph glyph-name="a" unicode="a" horiz-adv-x="512" 
d="M420 131c0 -18.667 0.833008 -33.8301 2.5 -45.4971s5 -20.834 10 -27.501s12.5 -11.334 22.5 -14.001s23 -4.66699 39 -6v-33c-7.33301 -3.33301 -17.333 -6 -30 -8s-25.667 -3 -39 -3c-18 0 -32.5 1.66699 -43.5 5s-19.833 8.16602 -26.5 14.499
s-11.5 13.833 -14.5 22.5s-5.16699 18.334 -6.5 29.001c-4 -7.33301 -10 -15.666 -18 -24.999s-17.667 -18 -29 -26s-24.5 -14.833 -39.5 -20.5s-31.833 -8.5 -50.5 -8.5c-48 0 -86.833 12.333 -116.5 37s-44.5 60 -44.5 106c0 30 6.33301 55.333 19 76
s30.5 37.167 53.5 49.5s50.5 21.333 82.5 27s67.667 8.5 107 8.5h17c5.33301 0 11.333 -0.333008 18 -1v44c0 42.667 -6.33301 74 -19 94s-36.667 30 -72 30c-21.333 0 -38.833 -2.5 -52.5 -7.5s-25 -11.667 -34 -20s-15.667 -18 -20 -29s-7.5 -22.167 -9.5 -33.5h-63v89
c10.667 6 23.167 12 37.5 18s29.666 11.5 45.999 16.5s33.333 9 51 12s35.167 4.5 52.5 4.5c56.667 0 99.834 -13.333 129.501 -40s44.5 -69.334 44.5 -128.001c0 -7.33301 -0.166992 -18 -0.5 -32s-0.833008 -30.167 -1.5 -48.5s-1.16699 -38.333 -1.5 -60
s-0.5 -43.834 -0.5 -66.501zM331 240.004c-7.33301 0.666992 -13.332 1.16699 -17.999 1.5s-10.334 0.5 -17.001 0.5c-57.333 0 -98.833 -8.33301 -124.5 -25s-38.5 -44 -38.5 -82c0 -36 7 -60.5 21 -73.5s35.667 -19.5 65 -19.5c23.333 0 44.5 7.16699 63.5 21.5
s34.167 31.5 45.5 51.5z" />
    <glyph glyph-name="b" unicode="b" horiz-adv-x="555" 
d="M421 256c0 34 -2.33594 62.6689 -7.00293 86.002s-11.667 42.166 -21 56.499s-21.166 24.5 -35.499 30.5s-31.166 9 -50.499 9c-14 0 -27.5 -2 -40.5 -6s-25.167 -9 -36.5 -15s-21.5 -12.667 -30.5 -20s-16.167 -14.333 -21.5 -21v-268
c16.667 -16 34.167 -29.667 52.5 -41s42.5 -17 72.5 -17c20 0 37.333 3.33301 52 10s26.834 18 36.501 34s17 37.167 22 63.5s7.5 59.166 7.5 98.499zM164.997 67.002c-1.33301 -4.66699 -3.16602 -10.002 -5.49902 -16.002s-5 -12.167 -8 -18.5s-6.16699 -12.333 -9.5 -18
s-6.66602 -10.5 -9.99902 -14.5h-58c4.66699 12 8 26.333 10 43s3 41.334 3 74.001v467c0 18 -1.16699 32.5 -3.5 43.5s-6.5 19.5 -12.5 25.5s-13.833 10 -23.5 12s-21.834 3.33301 -36.501 4v32l140 29h15c3.33301 -9.33301 6.16602 -22.333 8.49902 -39
s3.5 -36.667 3.5 -60v-203c16.667 18 37.667 35 63 51s55.666 24 90.999 24c56.667 0 102 -20.5 136 -61.5s51 -103.5 51 -187.5c0 -83.333 -17.167 -148.166 -51.5 -194.499s-82.833 -69.5 -145.5 -69.5c-19.333 0 -36.666 2.33301 -51.999 7s-29.5 10.667 -42.5 18
s-24.667 15.5 -35 24.5s-19.5 18.167 -27.5 27.5z" />
    <glyph glyph-name="c" unicode="c" horiz-adv-x="463" 
d="M415 372l-68.001 0.00292969c-5.33301 30 -13.666 51.667 -24.999 65s-31 20 -59 20c-19.333 0 -36.833 -3.33301 -52.5 -10s-29 -17.834 -40 -33.501s-19.667 -36.167 -26 -61.5s-9.5 -56.666 -9.5 -93.999c0 -40 2.83301 -73.667 8.5 -101s14.334 -49.333 26.001 -66
s26.167 -28.667 43.5 -36s37.666 -11 60.999 -11c14.667 0 27.834 1.16699 39.501 3.5s22.667 5.83301 33 10.5s20.166 10.334 29.499 17.001s19.666 14.667 30.999 24l26 -28c-22 -25.333 -47.167 -45.333 -75.5 -60s-60.833 -22 -97.5 -22
c-30.667 0 -59.667 5.16699 -87 15.5s-51.166 25.666 -71.499 45.999s-36.333 46.166 -48 77.499s-17.5 68 -17.5 110c0 43.333 5.83301 81.5 17.5 114.5s27.667 60.667 48 83s44.5 39.166 72.5 50.499s58.333 17 91 17c38.667 0 70.167 -4.33301 94.5 -13
s42.833 -17.334 55.5 -26.001v-92z" />
    <glyph glyph-name="d" unicode="d" horiz-adv-x="567" 
d="M383 74c-19.333 -24.667 -42.498 -44.833 -69.498 -60.5s-53.833 -23.5 -80.5 -23.5c-25.333 0 -49.833 4.5 -73.5 13.5s-44.667 23.5 -63 43.5s-33 46 -44 78s-16.5 70.667 -16.5 116c0 38.667 4.66699 74.167 14 106.5s22.833 60 40.5 83s39.167 40.833 64.5 53.5
s54 19 86 19c25.333 0 49.666 -5 72.999 -15s44.333 -25 63 -45v141c0 18 -1.16699 32.5 -3.5 43.5s-6.5 19.5 -12.5 25.5s-13.833 10 -23.5 12s-21.834 3.33301 -36.501 4v32l146 29h21v-592c0 -18 1.16699 -32.5 3.5 -43.5s6.33301 -19.5 12 -25.5s13.667 -10 24 -12
s23.5 -3.33301 39.5 -4v-30l-127 -36h-15c-3.33301 6 -7.5 17 -12.5 33s-8.16699 34 -9.5 54zM134.002 253.001c0 -38.667 2.33398 -71.167 7.00098 -97.5s11.667 -47.666 21 -63.999s21.166 -28 35.499 -35s31.5 -10.5 51.5 -10.5c22.667 0 44.667 6.5 66 19.5
s42 30.5 62 52.5v271c-15.333 19.333 -34 33.666 -56 42.999s-43.667 14 -65 14c-19.333 0 -36.5 -2.66699 -51.5 -8s-27.667 -15.333 -38 -30s-18.333 -34.5 -24 -59.5s-8.5 -56.833 -8.5 -95.5z" />
    <glyph glyph-name="e" unicode="e" horiz-adv-x="483" 
d="M289 49c21.333 0 44.5 4.16797 69.5 12.501s46.167 18.166 63.5 29.499l21 -34c-24 -18.667 -50.667 -34.667 -80 -48s-62 -20 -98 -20c-72 0 -128.167 22.667 -168.5 68s-60.5 109.333 -60.5 192c0 40.667 5.5 77 16.5 109s26 59 45 81s41.667 38.833 68 50.5
s54.833 17.5 85.5 17.5c63.333 0 112.5 -20.667 147.5 -62s52.5 -100.333 52.5 -177v-27h-319c0.666992 -36 4.16699 -66.333 10.5 -91s16 -44.5 29 -59.5s29.333 -25.667 49 -32s42.5 -9.5 68.5 -9.5zM249 459.001c-17.333 0 -32.667 -2.83301 -46 -8.5s-25 -15 -35 -28
s-17.833 -30.333 -23.5 -52s-9.5 -48.5 -11.5 -80.5h223c0 61.333 -8.33301 104.833 -25 130.5s-44 38.5 -82 38.5z" />
    <glyph glyph-name="f" unicode="f" horiz-adv-x="316" 
d="M190 104c0 -13.333 0.999023 -24.335 2.99902 -33.002s6.16699 -15.667 12.5 -21s15.333 -9.16602 27 -11.499s27.167 -3.83301 46.5 -4.5v-34h-250v34c14 0.666992 25.667 2.16699 35 4.5s16.5 6 21.5 11s8.5 11.833 10.5 20.5s3 20 3 34v332h-63v32l63 23v94
c0 46 14.667 81.667 44 107s67.666 38 114.999 38c19.333 0 39 -1.66699 59 -5s36 -7.66602 48 -12.999l-9 -83h-61c-5.33301 34.667 -20.666 52 -45.999 52c-19.333 0 -34.166 -7.16699 -44.499 -21.5s-15.5 -38.833 -15.5 -73.5v-95h121l-14 -55h-106v-332z" />
    <glyph glyph-name="g" unicode="g" horiz-adv-x="523" 
d="M254 -189c-34.667 0 -65.0039 3.17969 -91.0039 9.5127s-47.833 14.666 -65.5 24.999s-31 22.5 -40 36.5s-13.5 28.667 -13.5 44c0 18 5.5 32.333 16.5 43s22.5 19.667 34.5 27l42 2c-2.66699 -4.66699 -5.16699 -11.834 -7.5 -21.501s-3.5 -19.834 -3.5 -30.501
c0 -28 9 -49.5 27 -64.5s51 -22.5 99 -22.5c26 0 48 2.33301 66 7s32.5 11.167 43.5 19.5s18.833 18.166 23.5 29.499s7 23.666 7 36.999c0 15.333 -2 27.833 -6 37.5s-11.667 17.334 -23 23.001s-27.166 9.66699 -47.499 12s-46.833 3.83301 -79.5 4.5
c-17.333 0.666992 -34.166 1.5 -50.499 2.5s-29.166 2.16699 -38.499 3.5c-22 2.66699 -38.333 11.667 -49 27s-16 32.333 -16 51c0 19.333 8.66699 36.166 26 50.499s39.666 26.166 66.999 35.499c-36.667 8.66699 -65.667 26.167 -87 52.5s-32 56.166 -32 89.499
c0 24 4.33301 46.167 13 66.5s21.167 37.666 37.5 51.999s36.166 25.5 59.499 33.5s49.333 12 78 12c13.333 0 25.833 -0.666992 37.5 -2s25.167 -4.33301 40.5 -9c13.333 -4 26.333 -7.66699 39 -11s24.667 -5 36 -5c15.333 0 29.333 2.83301 42 8.5s25.667 13.167 39 22.5
l34 -65c-11.333 -5.33301 -22.5 -9.66602 -33.5 -12.999s-23.167 -5 -36.5 -5c-19.333 0 -42.666 6.33301 -69.999 19c16.667 -12.667 30.834 -27.834 42.501 -45.501s17.5 -37.834 17.5 -60.501c0 -16.667 -3 -33.5 -9 -50.5s-16.167 -32.833 -30.5 -47.5
s-33.5 -26.834 -57.5 -36.501s-54 -15.5 -90 -17.5c-3.33301 -0.666992 -7 -1 -11 -1h-11c-18 -5.33301 -32.667 -12.5 -44 -21.5s-17 -19.167 -17 -30.5c0 -16.667 12 -25 36 -25h92c29.333 0 55.333 -2.16699 78 -6.5s41.834 -11.833 57.501 -22.5
s27.667 -24.834 36 -42.501s12.5 -39.834 12.5 -66.501c0 -24.667 -5.66699 -46.834 -17 -66.501s-26.833 -36.5 -46.5 -50.5s-43 -24.667 -70 -32s-55.833 -11 -86.5 -11zM242.996 232.013c30 0 52.667 8.83301 68 26.5s23 45.5 23 83.5c0 40 -7.33301 69.333 -22 88
s-38 28 -70 28c-30 0 -52.667 -8.83301 -68 -26.5s-23 -46.5 -23 -86.5c0 -38.667 7.83301 -67.167 23.5 -85.5s38.5 -27.5 68.5 -27.5z" />
    <glyph glyph-name="h" unicode="h" horiz-adv-x="583" 
d="M190 421c22.667 22.667 46.668 41.998 72.001 57.998s57 24 95 24c40 0 72.5 -11.333 97.5 -34s37.5 -56 37.5 -100v-265c0 -14 0.833008 -25.333 2.5 -34s5 -15.5 10 -20.5s11.667 -8.66699 20 -11s19.166 -3.83301 32.499 -4.5v-34h-226v34c16 0.666992 28.5 2 37.5 4
s16 5.33301 21 10s8.16699 11 9.5 19s2 18 2 30v254c0 30 -6.16699 51.167 -18.5 63.5s-30.5 18.5 -54.5 18.5c-30 0 -55.5 -5.66699 -76.5 -17s-41.5 -26.666 -61.5 -45.999v-273c0 -12 0.666992 -22 2 -30s4.5 -14.333 9.5 -19s12 -8 21 -10s21.5 -3.33301 37.5 -4v-34
h-231v34c14 0.666992 25.667 2.16699 35 4.5s16.5 6 21.5 11s8.5 11.833 10.5 20.5s3 20 3 34v480c0 18 -1.16699 32.5 -3.5 43.5s-6.5 19.5 -12.5 25.5s-13.833 10 -23.5 12s-21.834 3.33301 -36.501 4v32l140 29h15c2.66699 -8 5.33398 -20.667 8.00098 -38
s4 -37.666 4 -60.999v-210z" />
    <glyph glyph-name="i" unicode="i" horiz-adv-x="286" 
d="M29 0v34c14 0.666992 25.667 2.16699 35 4.5s16.5 6 21.5 11s8.5 11.833 10.5 20.5s3 20 3 34v245c0 18 -1 32.5 -3 43.5s-5.83301 19.5 -11.5 25.5s-13.167 10 -22.5 12s-21.333 3.33301 -36 4v30l149 40h15v-400c0 -14 0.666992 -25.5 2 -34.5s4.5 -16 9.5 -21
s12 -8.5 21 -10.5s21.5 -3.33301 37.5 -4v-34h-231zM200 644c0 -17.333 -6 -32.166 -18 -44.499s-26.667 -18.5 -44 -18.5s-32 6.16699 -44 18.5s-18 27.166 -18 44.499s6 32.166 18 44.499s26.667 18.5 44 18.5s32 -6.16699 44 -18.5s18 -27.166 18 -44.499z" />
    <glyph glyph-name="j" unicode="j" horiz-adv-x="269" 
d="M99 349c0 18 -0.999023 32.498 -2.99902 43.498s-5.83301 19.5 -11.5 25.5s-13.167 10 -22.5 12s-21.333 3.33301 -36 4v30l149 40h15v-493c0 -37.333 -3.33301 -67.666 -10 -90.999s-16.334 -42.666 -29.001 -57.999s-27.667 -28 -45 -38s-36.666 -20 -57.999 -30
l-29 40c15.333 6.66699 28.166 15 38.499 25s18.5 22 24.5 36s10.333 30.5 13 49.5s4 41.5 4 67.5v337zM200.001 643.998c0 -17.333 -6 -32.166 -18 -44.499s-26.667 -18.5 -44 -18.5s-32 6.16699 -44 18.5s-18 27.166 -18 44.499s6 32.166 18 44.499s26.667 18.5 44 18.5
s32 -6.16699 44 -18.5s18 -27.166 18 -44.499z" />
    <glyph glyph-name="k" unicode="k" horiz-adv-x="531" 
d="M29 34c14 0.666992 25.6689 2.16699 35.002 4.5s16.5 6 21.5 11s8.5 11.833 10.5 20.5s3 20 3 34v480c0 18 -1.16699 32.5 -3.5 43.5s-6.5 19.5 -12.5 25.5s-13.833 10 -23.5 12s-21.834 3.33301 -36.501 4v32l140 29h15c3.33301 -9.33301 6.16602 -22.5 8.49902 -39.5
s3.5 -36.833 3.5 -59.5v-534c0 -12 0.666992 -22 2 -30s4.5 -14.333 9.5 -19s12 -8 21 -10s21.5 -3.33301 37.5 -4v-34h-231v34zM199.002 262l137.001 140c16.667 16.667 22.167 29.667 16.5 39s-20.167 14.666 -43.5 15.999v34h188v-34c-20 -2 -38.333 -10.333 -55 -25
s-36.667 -33.667 -60 -57l-92 -91l151 -190c15.333 -19.333 29.666 -33.666 42.999 -42.999s28.333 -15 45 -17v-34h-121z" />
    <glyph glyph-name="l" unicode="l" horiz-adv-x="294" 
d="M194 107c0 -14.667 0.833984 -26.666 2.50098 -35.999s5 -16.5 10 -21.5s12.5 -8.66699 22.5 -11s23 -3.83301 39 -4.5v-34h-239v34c15.333 0.666992 27.833 2.16699 37.5 4.5s17.167 6 22.5 11s9 11.833 11 20.5s3 20 3 34v480c0 18 -1.16699 32.5 -3.5 43.5
s-6.5 19.5 -12.5 25.5s-14.167 10 -24.5 12s-23.5 3.33301 -39.5 4v32l144 29h15c3.33301 -10.667 6.16602 -24.834 8.49902 -42.501s3.5 -36.5 3.5 -56.5v-524z" />
    <glyph glyph-name="m" unicode="m" horiz-adv-x="831" 
d="M458 425c22.667 21.333 46.333 39.666 71 54.999s53 23 85 23c36 0 66 -11.333 90 -34s36 -56 36 -100v-265c0 -14 0.833008 -25.333 2.5 -34s5 -15.5 10 -20.5s11.667 -8.66699 20 -11s19.166 -3.83301 32.499 -4.5v-34h-221v34c14.667 0.666992 26.167 2 34.5 4
s14.833 5.33301 19.5 10s7.66699 11 9 19s2 18 2 30v254c0 30 -4.66699 51.167 -14 63.5s-25 18.5 -47 18.5c-24 0 -45.333 -4.33301 -64 -13s-36.667 -20.667 -54 -36v-287c0 -12 0.833008 -22 2.5 -30s4.83398 -14.167 9.50098 -18.5s10.834 -7.66602 18.501 -9.99902
s17.5 -3.83301 29.5 -4.5v-34h-216v34c14.667 0.666992 26.167 2 34.5 4s14.833 5.33301 19.5 10s7.66699 11 9 19s2 18 2 30v254c0 30 -4.66699 51.167 -14 63.5s-25 18.5 -47 18.5c-27.333 0 -50.5 -5.33301 -69.5 -16s-38.5 -24.667 -58.5 -42v-278
c0 -12 0.666992 -22 2 -30s4.16602 -14.333 8.49902 -19s10.833 -8 19.5 -10s20.334 -3.33301 35.001 -4v-34h-226v34c14 0.666992 25.667 2.16699 35 4.5s16.5 6 21.5 11s8.5 11.833 10.5 20.5s3 20 3 34v245c0 18 -1 32.5 -3 43.5s-5.83301 19.5 -11.5 25.5
s-13.167 10 -22.5 12s-21.333 3.33301 -36 4v30l128 40h15c4 -10 7.66699 -22.333 11 -37s5.33301 -29.667 6 -45c22.667 21.333 46.167 40.166 70.5 56.499s53.5 24.5 87.5 24.5c27.333 0 51.166 -6.66699 71.499 -20s34.5 -32.666 42.5 -57.999z" />
    <glyph glyph-name="n" unicode="n" horiz-adv-x="583" 
d="M492 104c0 -14 0.833008 -25.3359 2.5 -34.0029s5 -15.5 10 -20.5s11.667 -8.66699 20 -11s19.166 -3.83301 32.499 -4.5v-34h-226v34c16 0.666992 28.5 2 37.5 4s16 5.33301 21 10s8.16699 11 9.5 19s2 18 2 30v254c0 30 -6.16699 51.167 -18.5 63.5
s-30.5 18.5 -54.5 18.5c-30 0 -55.5 -5.66699 -76.5 -17s-41.5 -26.666 -61.5 -45.999v-273c0 -12 0.666992 -22 2 -30s4.5 -14.333 9.5 -19s12 -8 21 -10s21.5 -3.33301 37.5 -4v-34h-231v34c14 0.666992 25.667 2.16699 35 4.5s16.5 6 21.5 11s8.5 11.833 10.5 20.5
s3 20 3 34v245c0 18 -1 32.5 -3 43.5s-5.83301 19.5 -11.5 25.5s-13.167 10 -22.5 12s-21.333 3.33301 -36 4v30l128 40h15c3.33301 -8 6.83301 -20.167 10.5 -36.5s5.83398 -33.166 6.50098 -50.499c11.333 12 23 23.167 35 33.5s25 19.333 39 27
s28.833 13.834 44.5 18.501s33.167 7 52.5 7c40 0 72.5 -11.333 97.5 -34s37.5 -56 37.5 -100v-265z" />
    <glyph glyph-name="o" unicode="o" horiz-adv-x="532" 
d="M496 242c0 -40 -5.66895 -75.666 -17.002 -106.999s-27.333 -57.833 -48 -79.5s-45 -38.334 -73 -50.001s-58.667 -17.5 -92 -17.5s-64.166 5.83301 -92.499 17.5s-52.666 28.667 -72.999 51s-36.166 49.5 -47.499 81.5s-17 68.333 -17 109s5.66699 77 17 109
s27.166 59.167 47.499 81.5s44.333 39.333 72 51s58.167 17.5 91.5 17.5c36.667 0 69.5 -6.66699 98.5 -20s53.333 -31.833 73 -55.5s34.667 -51.5 45 -83.5s15.5 -67 15.5 -105zM397.998 238.001c0 76.667 -11.333 132.332 -34 166.999s-56 52 -100 52
c-25.333 0 -46.333 -4.66699 -63 -14s-30 -22.5 -40 -39.5s-17 -38 -21 -63s-6 -52.833 -6 -83.5c0 -76 10 -131.667 30 -167s54.667 -53 104 -53c43.333 0 75.833 17.333 97.5 52s32.5 84.334 32.5 149.001z" />
    <glyph glyph-name="p" unicode="p" horiz-adv-x="568" 
d="M434 236c0 38.667 -2.16699 70.9961 -6.5 96.9961s-11 46.833 -20 62.5s-20.833 26.834 -35.5 33.501s-32 10 -52 10c-23.333 0 -45.833 -5.16699 -67.5 -15.5s-42.5 -26.5 -62.5 -48.5v-271c15.333 -19.333 33.833 -34.166 55.5 -44.499s42.167 -15.5 61.5 -15.5
c20.667 0 39 2.83301 55 8.5s29.333 15.834 40 30.501s18.667 34.334 24 59.001s8 56 8 94zM185 420.996c18.667 24 42.001 43.666 70.001 58.999s55.667 23 83 23s52.833 -4.83301 76.5 -14.5s44.167 -24.667 61.5 -45s31 -46.166 41 -77.499s15 -68.333 15 -111
c0 -39.333 -4.5 -74.833 -13.5 -106.5s-22 -59 -39 -82s-38.333 -40.667 -64 -53s-54.834 -18.5 -87.501 -18.5c-25.333 0 -49.833 4.5 -73.5 13.5s-45.167 23.5 -64.5 43.5v-145c0 -13.333 0.833008 -24.333 2.5 -33s5.33398 -15.5 11.001 -20.5s13.5 -8.66699 23.5 -11
s23.667 -3.83301 41 -4.5v-34h-239v34c14 0.666992 25.667 2.16699 35 4.5s16.5 6 21.5 11s8.5 11.833 10.5 20.5s3 20 3 34v441c0 18 -1 32.5 -3 43.5s-5.83301 19.5 -11.5 25.5s-13.167 10 -22.5 12s-21.333 3.33301 -36 4v30l128 40h15c2.66699 -6 5.66699 -16.5 9 -31.5
s5.66602 -32.167 6.99902 -51.5z" />
    <glyph glyph-name="q" unicode="q" horiz-adv-x="544" 
d="M134 253c0 -38.667 2.33398 -71.167 7.00098 -97.5s11.667 -47.666 21 -63.999s21.166 -28 35.499 -35s31.5 -10.5 51.5 -10.5c22.667 0 44.667 6.5 66 19.5s42 30.5 62 52.5v271c-15.333 19.333 -34 33.666 -56 42.999s-43.667 14 -65 14
c-19.333 0 -36.5 -2.66699 -51.5 -8s-27.667 -15.333 -38 -30s-18.333 -34.5 -24 -59.5s-8.5 -56.833 -8.5 -95.5zM393.001 426c4 14 9.66406 27.333 16.9971 40s14.333 22.334 21 29.001h50c-3.33301 -13.333 -6.16602 -32.5 -8.49902 -57.5s-3.5 -52.5 -3.5 -82.5v-447
c0 -14 1 -25.333 3 -34s5.5 -15.5 10.5 -20.5s12.167 -8.66699 21.5 -11s21 -3.83301 35 -4.5v-34h-239v34c16.667 0.666992 30.167 2.16699 40.5 4.5s18.333 6 24 11s9.33398 11.833 11.001 20.5s2.5 19.667 2.5 33v161c-19.333 -22.667 -41.666 -41.334 -66.999 -56.001
s-51.333 -22 -78 -22c-25.333 0 -49.833 4.5 -73.5 13.5s-44.667 23.5 -63 43.5s-33 46 -44 78s-16.5 70.667 -16.5 116c0 38.667 4.66699 74.167 14 106.5s22.833 60 40.5 83s39.167 40.833 64.5 53.5s54 19 86 19c32.667 0 61.5 -7 86.5 -21s46.833 -32.667 65.5 -56z" />
    <glyph glyph-name="r" unicode="r" horiz-adv-x="364" 
d="M186 390c19.333 34.667 40 62.834 62 84.501s46.667 32.5 74 32.5c11.333 0 21.333 -1.66699 30 -5l-22 -99c-3.33301 1.33301 -7.5 2.5 -12.5 3.5s-11.167 1.5 -18.5 1.5c-20.667 0 -38 -2.16699 -52 -6.5s-25.167 -11.5 -33.5 -21.5s-14.333 -23.333 -18 -40
s-5.5 -37 -5.5 -61v-175c0 -14 0.833008 -25.5 2.5 -34.5s5.5 -16 11.5 -21s14.667 -8.5 26 -10.5s26.333 -3.33301 45 -4v-34h-246v34c14 0.666992 25.667 2.16699 35 4.5s16.5 6 21.5 11s8.5 11.833 10.5 20.5s3 20 3 34v245c0 18 -1 32.5 -3 43.5
s-5.83301 19.5 -11.5 25.5s-13.167 10 -22.5 12s-21.333 3.33301 -36 4v30l128 40h15c3.33301 -8.66699 7 -22.834 11 -42.501s6 -43.5 6 -71.5z" />
    <glyph glyph-name="s" unicode="s" horiz-adv-x="431" 
d="M202 -12c-23.333 0 -43.8311 1.50098 -61.498 4.50098s-33.167 6.66699 -46.5 11s-24.666 8.83301 -33.999 13.5s-17 9 -23 13v97h67c3.33301 -34 13.166 -58 29.499 -72s42.166 -21 77.499 -21c28.667 0 53 6.5 73 19.5s30 35.5 30 67.5
c0 27.333 -7.16699 46.833 -21.5 58.5s-35.833 21.167 -64.5 28.5l-59 14c-38 9.33301 -68.667 24.666 -92 45.999s-35 52.333 -35 93c0 23.333 4.66699 44 14 62s21.833 33 37.5 45s34.167 21.167 55.5 27.5s44 9.5 68 9.5c39.333 0 71.166 -4.33301 95.499 -13
s42.5 -16 54.5 -22v-90h-64c-5.33301 26.667 -15.333 46.5 -30 59.5s-36 19.5 -64 19.5c-30 0 -52.833 -6.83301 -68.5 -20.5s-23.5 -32.5 -23.5 -56.5c0 -21.333 5.66699 -38 17 -50s32.333 -21.667 63 -29l59 -14c47.333 -11.333 82 -27.833 104 -49.5s33 -50.5 33 -86.5
c0 -50 -17.167 -90 -51.5 -120s-80.833 -45 -139.5 -45z" />
    <glyph glyph-name="t" unicode="t" horiz-adv-x="321" 
d="M284 436h-106.001v-302c0 -19.333 1 -35.333 3 -48s5.5 -22.5 10.5 -29.5s11.5 -11.833 19.5 -14.5s18.333 -4 31 -4c18 0 37 3.33301 57 10l8 -36c-33.333 -17.333 -66.333 -26 -99 -26c-38 0 -67.667 10 -89 30s-32 55 -32 105v315h-60v32l67 23
c4.66699 23.333 10.834 47.5 18.501 72.5s17.167 46.833 28.5 65.5l47 12c-1.33301 -9.33301 -2.5 -19.833 -3.5 -31.5s-2 -24.167 -3 -37.5s-1.66699 -27 -2 -41s-0.5 -27.333 -0.5 -40h119z" />
    <glyph glyph-name="u" unicode="u" horiz-adv-x="580" 
d="M481 138c0 -18 1.00098 -32.502 3.00098 -43.502s5.83301 -19.5 11.5 -25.5s13.167 -10 22.5 -12s21.333 -3.33301 36 -4v-30l-121 -36h-15c-5.33301 13.333 -10 27.333 -14 42s-6.66699 30.334 -8 47.001c-11.333 -12 -22.833 -23.333 -34.5 -34s-24.167 -20 -37.5 -28
s-27.833 -14.333 -43.5 -19s-32.834 -7 -51.501 -7c-40 0 -73 10.667 -99 32s-39 55 -39 101v228c0 18 -1 32.5 -3 43.5s-5.66699 19.5 -11 25.5s-12.5 10 -21.5 12s-20.5 3.33301 -34.5 4v30l139 40h22v-366c0 -31.333 6.5 -52.666 19.5 -63.999s31.5 -17 55.5 -17
c30 0 54.667 5.83301 74 17.5s39 27.167 59 46.5v228c0 18 -1 32.5 -3 43.5s-5.66699 19.5 -11 25.5s-12.5 10 -21.5 12s-20.5 3.33301 -34.5 4v30l139 40h22v-366z" />
    <glyph glyph-name="v" unicode="v" horiz-adv-x="505" 
d="M220 -5l-148 392.002c-5.33301 13.333 -10.166 24.166 -14.499 32.499s-9.33301 15.166 -15 20.499s-11.834 9.16602 -18.501 11.499s-15 4.16602 -25 5.49902v34h222v-34c-24 -1.33301 -40.667 -4.16602 -50 -8.49902s-14 -11.166 -14 -20.499
c0 -6.66699 2.33301 -16.667 7 -30l81 -223c3.33301 -8.66699 7.33301 -21.834 12 -39.501s8.33398 -33.5 11.001 -47.5h4c1.33301 6.66699 4.33301 18.834 9 36.501s9.66699 34.167 15 49.5l79 224c2 6 3.66699 11.5 5 16.5s2 9.16699 2 12.5
c0 10 -4.66699 17.167 -14 21.5s-26 7.16602 -50 8.49902v34h188v-34c-10 -1.33301 -18.5 -3.16602 -25.5 -5.49902s-13.167 -6 -18.5 -11s-10.333 -11.833 -15 -20.5s-9.33398 -19.667 -14.001 -33l-144 -392h-69z" />
    <glyph glyph-name="w" unicode="w" horiz-adv-x="747" 
d="M271 -5l-73.001 0.00292969l-126 392c-4 13.333 -8.16699 24.333 -12.5 33s-9.16602 15.5 -14.499 20.5s-11.333 8.66699 -18 11s-15 4.16602 -25 5.49902v34h214v-34c-16 -1.33301 -29.5 -3.66602 -40.5 -6.99902s-16.5 -11.333 -16.5 -24c0 -3.33301 0.333008 -7 1 -11
s2 -9.66699 4 -17l60 -199l7 -26l7.5 -29c2.33301 -9.33301 4.33301 -18 6 -26s2.83398 -14 3.50098 -18h4c1.33301 7.33301 4.16602 20.166 8.49902 38.499s9.5 38.166 15.5 59.499l80 293h63l95 -292c6 -18 11.167 -36.833 15.5 -56.5s7.16602 -33.834 8.49902 -42.501h4
l11.5 46.5l12.5 51.5l51 200c2.66699 8.66699 4 17.334 4 26.001c0 10.667 -4 18.5 -12 23.5s-22.667 8.16699 -44 9.5v34h180v-34c-10.667 -1.33301 -19.667 -3.33301 -27 -6s-13.5 -6.5 -18.5 -11.5s-9.33301 -11.833 -13 -20.5s-7.5 -19.334 -11.5 -32.001l-114 -392h-71
l-80 258c-8.66699 28 -15.667 53.167 -21 75.5l-11 45.5h-4c-0.666992 -4 -2 -10.167 -4 -18.5s-4.16699 -18 -6.5 -29s-5.16602 -22.833 -8.49902 -35.5l-10 -38z" />
    <glyph glyph-name="x" unicode="x" horiz-adv-x="521" 
d="M157 86c-6.66699 -10.667 -10 -19.6709 -10 -27.0039c0 -14.667 16.333 -23 49 -25v-34h-182v34c10.667 0.666992 19.667 2.16699 27 4.5s14 5.83301 20 10.5s11.833 10.834 17.5 18.501s12.5 17.5 20.5 29.5l108 160l-94 137
c-8.66699 12.667 -16.167 22.834 -22.5 30.501s-12.666 13.667 -18.999 18s-13.5 7.5 -21.5 9.5s-18 3.66699 -30 5v34h223v-34c-16 -1.33301 -27.5 -3.33301 -34.5 -6s-10.5 -7 -10.5 -13c0 -7.33301 4.66699 -18.333 14 -33l65 -103h4l62 103
c4.66699 7.33301 7.83398 13.333 9.50098 18s2.5 9 2.5 13c0 5.33301 -2.83301 9.83301 -8.5 13.5s-18.167 6.16699 -37.5 7.5v34h176v-34c-10.667 -1.33301 -19.834 -3.16602 -27.501 -5.49902s-14.667 -5.83301 -21 -10.5s-12.5 -10.667 -18.5 -18s-12.667 -17 -20 -29
l-85 -132l110 -165c8 -12 15 -22 21 -30s12 -14.167 18 -18.5s12.667 -7.66602 20 -9.99902s16.666 -3.83301 27.999 -4.5v-34h-222v34c33.333 2 50 8.66699 50 20c0 6 -4.66699 16.667 -14 32l-82 129h-4z" />
    <glyph glyph-name="y" unicode="y" horiz-adv-x="505" 
d="M81 -144c18.667 4.66699 36.1729 9.99902 52.5059 15.999s31 14.167 44 24.5s24.667 23.833 35 40.5s19.5 38.334 27.5 65.001l-36 -5c-6.66699 26 -14 52.667 -22 80s-18 58 -30 92l-80 218c-9.33301 25.333 -19 42.666 -29 51.999s-24.667 15.333 -44 18v34h222v-34
c-24.667 -1.33301 -41.5 -4.33301 -50.5 -9s-13.5 -12 -13.5 -22c0 -3.33301 0.666992 -7.33301 2 -12s3 -10 5 -16l72 -202c10.667 -30 18.667 -56.667 24 -80s9 -40.666 11 -51.999h3c1.33301 8 4.16602 21.5 8.49902 40.5s11.166 42.5 20.499 70.5l72 223
c2.66699 8.66699 4.66699 16.334 6 23.001c1.33301 12 -2 20.667 -10 26s-25.667 8.66602 -53 9.99902v34h188v-34c-10 -1.33301 -18.5 -3.16602 -25.5 -5.49902s-13.333 -6 -19 -11s-10.667 -11.833 -15 -20.5s-8.83301 -19.667 -13.5 -33l-140 -403
c-10.667 -30 -21.834 -56.333 -33.501 -79s-24.834 -41.834 -39.501 -57.501s-31.334 -28.5 -50.001 -38.5s-40.334 -17.333 -65.001 -22z" />
    <glyph glyph-name="z" unicode="z" horiz-adv-x="455" 
d="M408 0l-367.998 0.000976562v49l281 393h-122c-17.333 0 -31.333 -1.33301 -42 -4s-19.5 -7.5 -26.5 -14.5s-12.333 -16.5 -16 -28.5s-6.83398 -27.333 -9.50098 -46h-43v142h358v-53l-278 -389h111c23.333 0 42.166 1.5 56.499 4.5s26 8.33301 35 16
s16.5 18.167 22.5 31.5s12.667 30.666 20 51.999h45z" />
    <glyph glyph-name="braceleft" unicode="{" horiz-adv-x="351" 
d="M206 429c0 -22 -2.66797 -40.333 -8.00098 -55s-11.833 -26.5 -19.5 -35.5s-16 -15.5 -25 -19.5s-17.167 -6.66699 -24.5 -8v-4c7.33301 -1.33301 15.5 -4 24.5 -8s17.333 -10.5 25 -19.5s14.167 -20.833 19.5 -35.5s8 -33 8 -55v-230
c0 -18.667 4.16699 -35.667 12.5 -51s25.166 -23 50.499 -23h57v-40h-80c-38.667 0 -67.5 9 -86.5 27s-28.5 48.667 -28.5 92v237c0 34 -8.83301 57.667 -26.5 71s-44.167 20 -79.5 20v34c35.333 0 61.833 6.66699 79.5 20s26.5 37 26.5 71v237c0 21.333 3 39.5 9 54.5
s14.333 27.333 25 37s22.834 16.667 36.501 21s28.5 6.5 44.5 6.5h80v-40h-57c-25.333 0 -42.166 -7.66699 -50.499 -23s-12.5 -32.333 -12.5 -51v-230z" />
    <glyph glyph-name="bar" unicode="|" horiz-adv-x="244" 
d="M90 -149v910h64v-910h-64z" />
    <glyph glyph-name="braceright" unicode="}" horiz-adv-x="351" 
d="M145 659c0 18.667 -4.16602 35.6641 -12.499 50.9971s-25.166 23 -50.499 23h-57v40h80c38.667 0 67.5 -9 86.5 -27s28.5 -48.667 28.5 -92v-237c0 -34 8.83301 -57.667 26.5 -71s44.167 -20 79.5 -20v-34c-35.333 0 -61.833 -6.66699 -79.5 -20s-26.5 -37 -26.5 -71
v-237c0 -21.333 -3 -39.666 -9 -54.999s-14.333 -27.666 -25 -36.999s-22.834 -16.166 -36.501 -20.499s-28.5 -6.5 -44.5 -6.5h-80v39h57c25.333 0 42.166 7.66699 50.499 23s12.5 32.333 12.5 51v231c0 22 2.66699 40.333 8 55s11.833 26.5 19.5 35.5s16 15.5 25 19.5
s17.167 6.66699 24.5 8v4c-7.33301 1.33301 -15.5 4 -24.5 8s-17.333 10.5 -25 19.5s-14.167 20.833 -19.5 35.5s-8 33 -8 55v230z" />
    <glyph glyph-name="asciitilde" unicode="~" horiz-adv-x="554" 
d="M361 320c48.667 0 83.665 21 104.998 63l38 -21c-11.333 -39.333 -27.333 -70 -48 -92s-50.334 -33 -89.001 -33c-19.333 0 -37.5 2.5 -54.5 7.5s-33 10.667 -48 17s-29.5 12 -43.5 17s-27.333 7.5 -40 7.5c-24.667 0 -44.167 -5.83301 -58.5 -17.5
s-27.166 -28.167 -38.499 -49.5l-34 19c8.66699 42 22.334 74.167 41.001 96.5s47.667 33.5 87 33.5c19.333 0 37 -2.5 53 -7.5s31.167 -10.5 45.5 -16.5s28.333 -11.5 42 -16.5s27.834 -7.5 42.501 -7.5z" />
    <glyph glyph-name="uni00A0" unicode="&#xa0;" horiz-adv-x="225" 
 />
    <glyph glyph-name="exclamdown" unicode="&#xa1;" horiz-adv-x="291" 
d="M121 305h53l31 -477l-115 -17zM80 455c0 19.333 6.66699 35.5 20 48.5s29 19.5 47 19.5s33.167 -6.5 45.5 -19.5s18.5 -29.167 18.5 -48.5c0 -18 -6.16699 -33.333 -18.5 -46s-27.833 -19 -46.5 -19c-18 0 -33.5 6.33301 -46.5 19s-19.5 28 -19.5 46z" />
    <glyph glyph-name="cent" unicode="&#xa2;" horiz-adv-x="570" 
d="M288 -100l-0.000976562 89.9941c-28 2.66699 -54.167 9.66699 -78.5 21s-45.333 27.333 -63 48s-31.667 45.834 -42 75.501s-15.5 64.167 -15.5 103.5c0 40 5 75.5 15 106.5s23.833 57.5 41.5 79.5s38.667 39.5 63 52.5s50.833 21.167 79.5 24.5v96h45v-94
c34 -1.33301 62 -6.16602 84 -14.499s39 -16.5 51 -24.5v-92h-68c-4.66699 26 -11.667 45.833 -21 59.5s-24.666 21.834 -45.999 24.501v-412c14 0 26.5 1.33301 37.5 4s21.333 6.33398 31 11.001s19.167 10.334 28.5 17.001s19.333 14.334 30 23.001l26 -28
c-20 -23.333 -42.5 -41.833 -67.5 -55.5s-53.5 -22.167 -85.5 -25.5v-90h-45zM187.999 257.994c0 -68 8.33301 -118.168 25 -150.501s41.667 -52.166 75 -59.499v406c-30.667 -6 -55 -24 -73 -54s-27 -77.333 -27 -142z" />
    <glyph glyph-name="sterling" unicode="&#xa3;" horiz-adv-x="570" 
d="M374 49c18 0 33.332 2.00195 45.999 6.00195s23.334 10.667 32.001 20s15.834 21.666 21.501 36.999s11.167 34.333 16.5 57h44l-15 -169h-474v35c16.667 0.666992 30.167 2.33398 40.5 5.00098s18.5 6.83398 24.5 12.501s10 13.334 12 23.001s3 21.5 3 35.5v190h-80v44
h80v87c0 43.333 5.83301 80.166 17.5 110.499s27.667 55.166 48 74.499s44.5 33.333 72.5 42s58.333 13 91 13c38.667 0 70 -4.83301 94 -14.5s42.667 -20.167 56 -31.5v-94h-74c-4.66699 32 -13.167 55.667 -25.5 71s-33.5 23 -63.5 23c-18 0 -34.333 -2.5 -49 -7.5
s-27.334 -13.833 -38.001 -26.5s-19 -29.834 -25 -51.501s-9 -48.834 -9 -81.501v-114h191v-44h-191v-252h154z" />
    <glyph glyph-name="currency" unicode="&#xa4;" horiz-adv-x="570" 
d="M285 99c-26.667 0 -49.999 3.33203 -69.999 9.99902l-50 -78l-57 38l48 74c-17.333 15.333 -31 34.333 -41 57s-15 49 -15 79c0 29.333 4.83301 55.333 14.5 78s23.167 41.667 40.5 57l-47 73l57 38l48 -76c22 8 46 12 72 12c23.333 0 46 -3.66699 68 -11l48 75l57 -38
l-45 -70c17.333 -16 31.166 -35.5 41.499 -58.5s15.5 -49.5 15.5 -79.5s-5.16699 -56.667 -15.5 -80s-24.833 -42.666 -43.5 -57.999l47 -72l-57 -38l-50 77c-20 -6 -42 -9 -66 -9zM285.001 415.999c-35.333 0 -59.499 -11.668 -72.499 -35.001s-19.5 -54.666 -19.5 -93.999
c0 -48 6.66699 -83.667 20 -107s37.333 -35 72 -35c35.333 0 59.666 11.667 72.999 35s20 59 20 107c0 40 -6.5 71.5 -19.5 94.5s-37.5 34.5 -73.5 34.5z" />
    <glyph glyph-name="yen" unicode="&#xa5;" horiz-adv-x="570" 
d="M337 219v-111.997c0 -14 1.16699 -25.833 3.5 -35.5s6.66602 -17.334 12.999 -23.001s15 -9.83398 26 -12.501s25.167 -4.33398 42.5 -5.00098v-31h-265v31c17.333 0.666992 31.5 2.33398 42.5 5.00098s19.667 6.83398 26 12.501s10.666 13.334 12.999 23.001
s3.5 21.5 3.5 35.5v112h-182v44h182v13l-31 60h-151v44h129l-96 192c-8 16 -15.5 29 -22.5 39s-14.167 18 -21.5 24s-15 10.333 -23 13s-17 4.66699 -27 6v35h238v-35c-19.333 -0.666992 -33 -3.33398 -41 -8.00098s-12 -12 -12 -22c0 -6.66699 1.16699 -13.667 3.5 -21
s5.83301 -16 10.5 -26l109 -232h4l108 234c8 18 12 32.333 12 43c0 11.333 -5 19.166 -15 23.499s-24.667 7.16602 -44 8.49902v35h199v-35c-10 -1.33301 -19 -3.5 -27 -6.5s-15.667 -7.83301 -23 -14.5s-14.666 -15.667 -21.999 -27s-15.666 -26.333 -24.999 -45l-89 -181
h139v-44h-161l-26 -54v-19h187v-44h-187z" />
    <glyph glyph-name="brokenbar" unicode="&#xa6;" horiz-adv-x="261" 
d="M90 -150v401h64v-401h-64zM90 356v401h64v-401h-64z" />
    <glyph glyph-name="section" unicode="&#xa7;" horiz-adv-x="436" 
d="M411 311c0 -40 -11.1709 -73.3252 -33.5039 -99.9922s-53.166 -44.667 -92.499 -54c29.333 -16.667 51.666 -35.334 66.999 -56.001s23 -48.334 23 -83.001c0 -46.667 -15.5 -83.5 -46.5 -110.5s-74.833 -40.5 -131.5 -40.5c-44.667 0 -79.334 4 -104.001 12
s-43 15.667 -55 23v97h67c3.33301 -34 12.5 -58 27.5 -72s39.5 -21 73.5 -21c12.667 0 24.834 1.5 36.501 4.5s21.834 8 30.501 15s15.667 16 21 27s8 24.5 8 40.5c0 27.333 -7.5 48.666 -22.5 63.999s-35.167 28.666 -60.5 39.999l-64 28c-18 8 -35 16.5 -51 25.5
s-30.333 19.667 -43 32s-22.667 27.166 -30 44.499s-11 38.333 -11 63c0 36 11 65.833 33 89.5s52 40.5 90 50.5c-12.667 6.66699 -24.5 14.167 -35.5 22.5s-20.5 18.166 -28.5 29.499s-14.333 24.666 -19 39.999s-7 33 -7 53c0 23.333 4.5 44.5 13.5 63.5
s21.167 35 36.5 48s33 23 53 30s40.667 10.5 62 10.5c34.667 0 64.167 -3.83301 88.5 -11.5s42.5 -14.5 54.5 -20.5v-90h-64c-5.33301 26.667 -14.666 46 -27.999 58s-32.666 18 -57.999 18c-26.667 0 -47.834 -8.33301 -63.501 -25s-23.5 -38.334 -23.5 -65.001
c0 -24 7.33301 -43 22 -57s35.667 -27 63 -39l58 -26c22 -10 41.833 -20 59.5 -30s32.834 -21 45.501 -33s22.334 -25.667 29.001 -41s10 -33.333 10 -54zM180.996 413.008c-23.333 -7.33301 -43.835 -19.834 -61.502 -37.501s-26.5 -40.5 -26.5 -68.5
c0 -26 7.83301 -46 23.5 -60s37.834 -27.667 66.501 -41l53 -25c28 3.33301 51.5 13.666 70.5 30.999s28.5 41 28.5 71c0 13.333 -2.66699 25.333 -8 36s-12.5 20.334 -21.5 29.001s-19.667 16.334 -32 23.001s-25.166 13 -38.499 19z" />
    <glyph glyph-name="dieresis" unicode="&#xa8;" horiz-adv-x="489" 
d="M200 638c0 -17.333 -5.66699 -31.666 -17 -42.999s-25.666 -17 -42.999 -17s-31.666 5.66699 -42.999 17s-17 25.666 -17 42.999s5.66699 31.666 17 42.999s25.666 17 42.999 17s31.666 -5.66699 42.999 -17s17 -25.666 17 -42.999zM409 638
c0 -17.333 -5.66699 -31.666 -17 -42.999s-25.666 -17 -42.999 -17s-31.666 5.66699 -42.999 17s-17 25.666 -17 42.999s5.66699 31.666 17 42.999s25.666 17 42.999 17s31.666 -5.66699 42.999 -17s17 -25.666 17 -42.999z" />
    <glyph glyph-name="copyright" unicode="&#xa9;" horiz-adv-x="800" 
d="M279 348c0 -26.667 2.49805 -50.999 7.49805 -72.999s12.5 -41 22.5 -57s22.833 -28.5 38.5 -37.5s34.167 -13.5 55.5 -13.5c16 0 29.333 1.66699 40 5s19.334 8.33301 26.001 15s11.834 15 15.501 25s6.5 21.667 8.5 35h58v-87c-13.333 -8.66699 -32 -16.667 -56 -24
s-53.333 -11 -88 -11c-73.333 0 -127.833 18.667 -163.5 56s-53.5 90.333 -53.5 159c0 68 17.5 121.833 52.5 161.5s88.833 59.5 161.5 59.5c34.667 0 64 -3.66699 88 -11s42.667 -15.333 56 -24v-88h-64c-2 13.333 -4.5 25.166 -7.5 35.499s-7.5 19 -13.5 26
s-13.833 12.333 -23.5 16s-22.5 5.5 -38.5 5.5c-43.333 0 -74.5 -15.667 -93.5 -47s-28.5 -73.333 -28.5 -126zM399.998 31.001c42 0 81.333 7.33301 118 22s68.5 35.5 95.5 62.5s48.333 59.833 64 98.5s23.5 81.667 23.5 129c0 48.667 -7.83301 92.334 -23.5 131.001
s-37 71.5 -64 98.5s-58.833 47.833 -95.5 62.5s-76 22 -118 22s-81.333 -7.33301 -118 -22s-68.5 -35.5 -95.5 -62.5s-48.333 -59.833 -64 -98.5s-23.5 -82.334 -23.5 -131.001c0 -47.333 7.83301 -90.333 23.5 -129s37 -71.5 64 -98.5s58.833 -47.833 95.5 -62.5
s76 -22 118 -22zM399.998 -11.999c-50.667 0 -97.666 8.33301 -140.999 25s-81 40.5 -113 71.5s-57 68.5 -75 112.5s-27 93 -27 147c0 53.333 9.33301 102 28 146s44.167 81.667 76.5 113s70 55.5 113 72.5s89.167 25.5 138.5 25.5c48.667 0 94.667 -8.5 138 -25.5
s81.166 -41.167 113.499 -72.5s57.833 -69 76.5 -113s28 -92.667 28 -146c0 -54 -9 -103 -27 -147s-43 -81.5 -75 -112.5s-69.667 -54.833 -113 -71.5s-90.333 -25 -141 -25z" />
    <glyph glyph-name="ordfeminine" unicode="&#xaa;" horiz-adv-x="395" 
d="M318 451c0 -14 0.330078 -25.1699 0.99707 -33.5029s2.66699 -14.666 6 -18.999s8.5 -7.33301 15.5 -9s16.833 -2.83398 29.5 -3.50098v-31c-6 -2.66699 -13.833 -4.83398 -23.5 -6.50098s-19.5 -2.5 -29.5 -2.5c-13.333 0 -24.333 1.33301 -33 4s-15.5 6.5 -20.5 11.5
s-8.66699 10.833 -11 17.5s-3.83301 14 -4.5 22c-8.66699 -15.333 -21.167 -29.5 -37.5 -42.5s-38.833 -19.5 -67.5 -19.5c-37.333 0 -67.166 9.5 -89.499 28.5s-33.5 46.167 -33.5 81.5c0 22.667 4.83301 42 14.5 58s23.167 29 40.5 39s38.333 17.333 63 22s52 7 82 7h13
c4 0 8.66699 -0.333008 14 -1v26c0 33.333 -4.83301 57.333 -14.5 72s-28.167 22 -55.5 22c-15.333 0 -27.666 -1.66699 -36.999 -5s-17 -7.66602 -23 -12.999s-10.333 -12 -13 -20s-5 -16.333 -7 -25h-57v68c8 4.66699 17.5 9.33398 28.5 14.001
s22.833 8.83398 35.5 12.501s25.834 6.66699 39.501 9s26.834 3.5 39.501 3.5c43.333 0 77.166 -10.167 101.499 -30.5s36.5 -52.833 36.5 -97.5c0 -12 -0.5 -32.667 -1.5 -62s-1.5 -61.666 -1.5 -96.999zM245.997 535.997c-6 0.666992 -10.668 1.16797 -14.001 1.50098
s-7.66602 0.5 -12.999 0.5c-40 0 -69.167 -6.16699 -87.5 -18.5s-27.5 -32.5 -27.5 -60.5c0 -26 5 -44 15 -54s25.667 -15 47 -15c16.667 0 31.667 5.16699 45 15.5s24 23.166 32 38.499z" />
    <glyph glyph-name="guillemotleft" unicode="&#xab;" horiz-adv-x="505" 
d="M264 67l-39 -36l-170 213l170 213l39 -36l-113 -177zM460 67l-39 -36l-170 213l170 213l39 -36l-113 -177z" />
    <glyph glyph-name="logicalnot" unicode="&#xac;" horiz-adv-x="501" 
d="M55 293h391v-221h-59v165h-332v56z" />
    <glyph glyph-name="uni00AD" unicode="&#xad;" horiz-adv-x="313" 
d="M55 235v71h203v-71h-203z" />
    <glyph glyph-name="registered" unicode="&#xae;" horiz-adv-x="800" 
d="M403 136l-190.001 0.00390625v29c12.667 0 22.5 1 29.5 3s12.333 5.33301 16 10s6 10.667 7 18s1.5 16.666 1.5 27.999v241c0 11.333 -0.5 20.666 -1.5 27.999s-3.33301 13.333 -7 18s-9 8 -16 10s-16.833 3 -29.5 3v31h172c24 0 46 -1.66699 66 -5
s37.167 -9.33301 51.5 -18s25.333 -20.334 33 -35.001s11.5 -33.334 11.5 -56.001c0 -21.333 -2.83301 -39 -8.5 -53s-14 -25.167 -25 -33.5s-24.333 -14.166 -40 -17.499s-33.5 -5.33301 -53.5 -6v-3c33.333 -8.66699 60.666 -29.667 81.999 -63
c4.66699 -7.33301 9.66699 -16 15 -26l19 -37c4 -7.33301 7.83301 -13.333 11.5 -18s7.66699 -8.33398 12 -11.001s9.5 -4.5 15.5 -5.5s13.667 -1.5 23 -1.5v-30h-115c-8.66699 19.333 -17.834 38.333 -27.501 57l-25.5 49l-22 39.5c-6 10.333 -12.167 18.833 -18.5 25.5
s-13.166 11.5 -20.499 14.5s-16.666 4.5 -27.999 4.5v-102c0 -12 0.833008 -21.833 2.5 -29.5s4.83398 -13.667 9.50098 -18s11 -7.33301 19 -9s18.333 -2.5 31 -2.5v-29zM467.999 441.004c0 26.667 -7 46 -21 58s-40.667 18 -80 18h-26v-156h39
c33.333 0 56.333 5.5 69 16.5s19 32.167 19 63.5zM399.999 31.0039c42 0 81.333 7.33301 118 22s68.5 35.5 95.5 62.5s48.333 59.833 64 98.5s23.5 81.667 23.5 129c0 48.667 -7.83301 92.334 -23.5 131.001s-37 71.5 -64 98.5s-58.833 47.833 -95.5 62.5s-76 22 -118 22
s-81.333 -7.33301 -118 -22s-68.5 -35.5 -95.5 -62.5s-48.333 -59.833 -64 -98.5s-23.5 -82.334 -23.5 -131.001c0 -47.333 7.83301 -90.333 23.5 -129s37 -71.5 64 -98.5s58.833 -47.833 95.5 -62.5s76 -22 118 -22zM399.999 -11.9961
c-50.667 0 -97.666 8.33301 -140.999 25s-81 40.5 -113 71.5s-57 68.5 -75 112.5s-27 93 -27 147c0 53.333 9.33301 102 28 146s44.167 81.667 76.5 113s70 55.5 113 72.5s89.167 25.5 138.5 25.5c48.667 0 94.667 -8.5 138 -25.5s81.166 -41.167 113.499 -72.5
s57.833 -69 76.5 -113s28 -92.667 28 -146c0 -54 -9 -103 -27 -147s-43 -81.5 -75 -112.5s-69.667 -54.833 -113 -71.5s-90.333 -25 -141 -25z" />
    <glyph glyph-name="macron" unicode="&#xaf;" horiz-adv-x="441" 
d="M80 590v57h281v-57h-281z" />
    <glyph glyph-name="degree" unicode="&#xb0;" horiz-adv-x="418" 
d="M373 525c0 -26 -4.00195 -49.334 -12.002 -70.001s-19.167 -38.167 -33.5 -52.5s-31.666 -25.5 -51.999 -33.5s-42.5 -12 -66.5 -12c-52 0 -92.333 15.167 -121 45.5s-43 71.833 -43 124.5c0 52 14.833 93.167 44.5 123.5s68.834 45.5 117.501 45.5
c52.667 0 93.5 -15.167 122.5 -45.5s43.5 -72.166 43.5 -125.499zM295.998 520.999c0 44 -7.33301 74.666 -22 91.999s-36.667 26 -66 26c-57.333 0 -86 -36 -86 -108c0 -43.333 7.33301 -73.666 22 -90.999s36.667 -26 66 -26c57.333 0 86 35.667 86 107z" />
    <glyph glyph-name="plusminus" unicode="&#xb1;" horiz-adv-x="501" 
d="M282 507v-155h164v-56h-164v-164h-59v164h-168v56h168v155h59zM55 81h391v-56h-391v56z" />
    <glyph glyph-name="twosuperior" unicode="&#xb2;" horiz-adv-x="333" 
d="M153 651c37.333 0 68.334 -9.33594 93.001 -28.0029s37 -46 37 -82c0 -19.333 -4.16699 -37.166 -12.5 -53.499s-19.833 -32.333 -34.5 -48s-31.5 -31.5 -50.5 -47.5l-59.5 -51l-38 -33h214l-10 -58h-271v41l78 80l42 44.5c12 13 22.167 25.833 30.5 38.5
s14.666 25.334 18.999 38.001s6.5 27 6.5 43c0 23.333 -6.16699 40.666 -18.5 51.999s-29.166 17 -50.499 17c-16 0 -30.833 -2.66699 -44.5 -8s-26.834 -12.666 -39.501 -21.999l-18 26c15.333 14.667 33 26.834 53 36.501s44.667 14.5 74 14.5z" />
    <glyph glyph-name="threesuperior" unicode="&#xb3;" horiz-adv-x="321" 
d="M138 605c-19.333 0 -35.833 -2.83203 -49.5 -8.49902s-25.834 -12.167 -36.501 -19.5l-19 30c17.333 13.333 36.166 24 56.499 32s43.833 12 70.5 12c34.667 0 63.5 -7.83301 86.5 -23.5s34.5 -39.167 34.5 -70.5c0 -26 -8.66699 -46.667 -26 -62
s-39.333 -26.333 -66 -33c32 -3.33301 56.833 -14 74.5 -32s26.5 -40 26.5 -66c0 -22 -5.16699 -41.333 -15.5 -58s-24.166 -30.667 -41.499 -42s-37.333 -19.833 -60 -25.5s-46.334 -8.5 -71.001 -8.5c-30.667 0 -56 3 -76 9l-10 33c8.66699 -2 18.834 -3.5 30.501 -4.5
s21.5 -1.5 29.5 -1.5c37.333 0 68.5 8.83301 93.5 26.5s37.5 42.5 37.5 74.5c0 27.333 -6.66699 46 -20 56s-32 15 -56 15c-8 0 -14.167 -0.166992 -18.5 -0.5s-9.16602 -0.833008 -14.499 -1.5v43c5.33301 -0.666992 10.333 -1 15 -1h16c22.667 0 40.667 5.16699 54 15.5
s20 27.166 20 50.499c0 20 -5.83301 35.167 -17.5 45.5s-27.5 15.5 -47.5 15.5z" />
    <glyph glyph-name="acute" unicode="&#xb4;" horiz-adv-x="392" 
d="M80 600l179 153l53 -91l-212 -96z" />
    <glyph glyph-name="mu" unicode="&#xb5;" horiz-adv-x="541" 
d="M44 -176c5.33301 28 8.83203 56.167 10.499 84.5s2.5 60.5 2.5 96.5v157c-0.666992 63.333 -1.33398 123.166 -2.00098 179.499s-2 104.833 -4 145.5l76 14h22v-46c0 -24 -0.166992 -52.333 -0.5 -85s-0.5 -67 -0.5 -103v-98c0 -25.333 2.16699 -45.333 6.5 -60
s10 -25.834 17 -33.501s15 -12.667 24 -15s18.5 -3.5 28.5 -3.5c23.333 0 46.833 6.16699 70.5 18.5s43.834 27.5 60.501 45.5v368l68 12h23v-379c0 -22.667 2.83301 -40.667 8.5 -54s19.5 -20 41.5 -20c5.33301 0 10 0.166992 14 0.5s9.66699 1.16602 17 2.49902v-38
c-11.333 -6.66699 -23.833 -12 -37.5 -16s-28.834 -6 -45.501 -6c-24 0 -42.667 7.33301 -56 22s-22.666 34.334 -27.999 59.001c-17.333 -22.667 -38.666 -42.5 -63.999 -59.5s-53.333 -25.5 -84 -25.5c-12 0 -25 2.16699 -39 6.5s-24.667 11.166 -32 20.499l-4 -2
c2 -7.33301 3.5 -16.166 4.5 -26.499s1.83301 -21.166 2.5 -32.499s1.16699 -22.166 1.5 -32.499s0.5 -18.5 0.5 -24.5l1 -81l-99 -14z" />
    <glyph glyph-name="paragraph" unicode="&#xb6;" horiz-adv-x="617" 
d="M507 -125l-54.9971 0.00292969v767h-85v-767h-55v432h-77c-33.333 0 -63.333 2.83301 -90 8.5s-49.334 15.667 -68.001 30s-32.834 34 -42.501 59s-14.5 56.833 -14.5 95.5c0 36 4 66 12 90s20.667 43.333 38 58s39.666 25.167 66.999 31.5s60.333 9.5 99 9.5h351v-31
c-16.667 -0.666992 -30.167 -2.33398 -40.5 -5.00098s-18.5 -6.83398 -24.5 -12.501s-10 -13.334 -12 -23.001s-3 -21.5 -3 -35.5v-707zM195.003 500.003c0 -26 1.16699 -48.167 3.5 -66.5s6.5 -33.333 12.5 -45s14.167 -20.167 24.5 -25.5s23.833 -8 40.5 -8h36v287h-36
c-16.667 0 -30.167 -1.83301 -40.5 -5.5s-18.5 -10.834 -24.5 -21.501s-10.167 -25.167 -12.5 -43.5s-3.5 -42.166 -3.5 -71.499z" />
    <glyph glyph-name="periodcentered" unicode="&#xb7;" horiz-adv-x="291" 
d="M216 278c0 -20.667 -7 -38.334 -21 -53.001s-30.667 -22 -50 -22s-35.833 7.33301 -49.5 22s-20.5 32.334 -20.5 53.001c0 21.333 6.83301 39 20.5 53s30.167 21 49.5 21s36 -7 50 -21s21 -31.667 21 -53z" />
    <glyph glyph-name="cedilla" unicode="&#xb8;" horiz-adv-x="288" 
d="M233 -113c0 -56.667 -32.998 -85 -98.998 -85c-19.333 0 -35.333 2.5 -48 7.5s-23.667 10.833 -33 17.5l16 32c11.333 -7.33301 21.666 -12.166 30.999 -14.499s19.666 -3.5 30.999 -3.5s20.833 2.16699 28.5 6.5s11.5 14.166 11.5 29.499c0 6.66699 -2 12 -6 16
s-9.33301 7.33301 -16 10s-14.167 4.5 -22.5 5.5s-16.833 1.5 -25.5 1.5v21l23 80l37 -6l-13 -44c31.333 -2 53.333 -10.333 66 -25s19 -31 19 -49z" />
    <glyph glyph-name="onesuperior" unicode="&#xb9;" horiz-adv-x="314" 
d="M208 321c0 -9.33301 1.16895 -16.499 3.50195 -21.499s6.66602 -9 12.999 -12s15 -5 26 -6s25.167 -1.83301 42.5 -2.5v-29h-248v29c17.333 0.666992 31.5 1.5 42.5 2.5s19.667 2.83301 26 5.5s10.666 6.66699 12.999 12s3.5 12.666 3.5 21.999v257
c-13.333 -6.66699 -28.333 -13.167 -45 -19.5s-31.667 -11.5 -45 -15.5l-9 28l120 73h57v-323z" />
    <glyph glyph-name="ordmasculine" unicode="&#xba;" horiz-adv-x="397" 
d="M377 532c0 -30 -4.49902 -56.999 -13.499 -80.999s-21.5 -44.333 -37.5 -61s-34.833 -29.334 -56.5 -38.001s-45.5 -13 -71.5 -13s-49.833 4.5 -71.5 13.5s-40.334 21.833 -56.001 38.5s-28 37.167 -37 61.5s-13.5 51.833 -13.5 82.5s4.5 58.334 13.5 83.001
s21.333 45.5 37 62.5s34.334 30 56.001 39s45.167 13.5 70.5 13.5c28.667 0 54.167 -5 76.5 -15s41.166 -24 56.499 -42s27 -39.333 35 -64s12 -51.334 12 -80.001zM296.001 529.001c0 57.333 -8.16699 98.833 -24.5 124.5s-40.5 38.5 -72.5 38.5
c-36 0 -60.833 -13.167 -74.5 -39.5s-20.5 -62.5 -20.5 -108.5c0 -56.667 7.33301 -98.167 22 -124.5s39.667 -39.5 75 -39.5c32 0 55.833 12.833 71.5 38.5s23.5 62.5 23.5 110.5z" />
    <glyph glyph-name="guillemotright" unicode="&#xbb;" horiz-adv-x="505" 
d="M354 244l-113 177l39 36l170 -213l-170 -213l-39 36zM158 244l-113 177l39 36l170 -213l-170 -213l-39 36z" />
    <glyph glyph-name="onequarter" unicode="&#xbc;" horiz-adv-x="908" 
d="M208 321c0 -9.33301 1.16895 -16.499 3.50195 -21.499s6.66602 -9 12.999 -12s15 -5 26 -6s25.167 -1.83301 42.5 -2.5v-29h-248v29c17.333 0.666992 31.5 1.5 42.5 2.5s19.667 2.83301 26 5.5s10.666 6.66699 12.999 12s3.5 12.666 3.5 21.999v257
c-13.333 -6.66699 -28.333 -13.167 -45 -19.5s-31.667 -11.5 -45 -15.5l-9 28l120 73h57v-323zM227.002 -122.999h-54l487 853h54zM761.002 91.001h-192v25l142 278h76l-154 -267h128c0 34.667 2 64 6 88s10 48 18 72l54 10v-170h52v-36h-52v-101l-78 -11v112z" />
    <glyph glyph-name="onehalf" unicode="&#xbd;" horiz-adv-x="909" 
d="M208 321c0 -9.33301 1.16895 -16.499 3.50195 -21.499s6.66602 -9 12.999 -12s15 -5 26 -6s25.167 -1.83301 42.5 -2.5v-29h-248v29c17.333 0.666992 31.5 1.5 42.5 2.5s19.667 2.83301 26 5.5s10.666 6.66699 12.999 12s3.5 12.666 3.5 21.999v257
c-13.333 -6.66699 -28.333 -13.167 -45 -19.5s-31.667 -11.5 -45 -15.5l-9 28l120 73h57v-323zM227.002 -122.999h-54l487 853h54zM742.002 401.001c37.333 0 68.334 -9.33594 93.001 -28.0029s37 -46 37 -82c0 -19.333 -4.16699 -37.166 -12.5 -53.499
s-19.833 -32.333 -34.5 -48s-31.5 -31.5 -50.5 -47.5l-59.5 -51l-38 -33h214l-10 -58h-271v41l78 80l42 44.5c12 13 22.167 25.833 30.5 38.5s14.666 25.334 18.999 38.001s6.5 27 6.5 43c0 23.333 -6.16699 40.666 -18.5 51.999s-29.166 17 -50.499 17
c-16 0 -30.833 -2.66699 -44.5 -8s-26.834 -12.666 -39.501 -21.999l-18 26c15.333 14.667 33 26.834 53 36.501s44.667 14.5 74 14.5z" />
    <glyph glyph-name="threequarters" unicode="&#xbe;" horiz-adv-x="915" 
d="M768 91h-192v25l142 278h76l-154 -267h128c0 34.667 2 64 6 88s10 48 18 72l54 10v-170h52v-36h-52v-101l-78 -11v112zM234 -123h-54l487 853h54zM138 605c-19.333 0 -35.833 -2.83203 -49.5 -8.49902s-25.834 -12.167 -36.501 -19.5l-19 30
c17.333 13.333 36.166 24 56.499 32s43.833 12 70.5 12c34.667 0 63.5 -7.83301 86.5 -23.5s34.5 -39.167 34.5 -70.5c0 -26 -8.66699 -46.667 -26 -62s-39.333 -26.333 -66 -33c32 -3.33301 56.833 -14 74.5 -32s26.5 -40 26.5 -66c0 -22 -5.16699 -41.333 -15.5 -58
s-24.166 -30.667 -41.499 -42s-37.333 -19.833 -60 -25.5s-46.334 -8.5 -71.001 -8.5c-30.667 0 -56 3 -76 9l-10 33c8.66699 -2 18.834 -3.5 30.501 -4.5s21.5 -1.5 29.5 -1.5c37.333 0 68.5 8.83301 93.5 26.5s37.5 42.5 37.5 74.5c0 27.333 -6.66699 46 -20 56
s-32 15 -56 15c-8 0 -14.167 -0.166992 -18.5 -0.5s-9.16602 -0.833008 -14.499 -1.5v43c5.33301 -0.666992 10.333 -1 15 -1h16c22.667 0 40.667 5.16699 54 15.5s20 27.166 20 50.499c0 20 -5.83301 35.167 -17.5 45.5s-27.5 15.5 -47.5 15.5z" />
    <glyph glyph-name="questiondown" unicode="&#xbf;" horiz-adv-x="446" 
d="M183 450c0 20 7 37.167 21 51.5s30.667 21.5 50 21.5s35.5 -7.16699 48.5 -21.5s19.5 -31.5 19.5 -51.5c0 -19.333 -6.5 -35.5 -19.5 -48.5s-29.167 -19.5 -48.5 -19.5s-36 6.5 -50 19.5s-21 29.167 -21 48.5zM402 -143c-6 -4 -13.832 -8.83105 -23.499 -14.498
s-21.5 -10.834 -35.5 -15.501s-29.667 -8.66699 -47 -12s-36.333 -5 -57 -5c-24 0 -46.333 2.66699 -67 8s-38.834 14.166 -54.501 26.499s-27.834 28.166 -36.501 47.499s-13 43 -13 71c0 23.333 4 44 12 62s17.5 33.333 28.5 46s22 22.834 33 30.501l25.5 17.5
c14 8.66699 25.833 17 35.5 25s17.667 16.5 24 25.5s10.833 19 13.5 30s4 24.167 4 39.5c0 8 -0.666992 17 -2 27s-3.33301 19.667 -6 29h41c5.33301 -9.33301 10.666 -20.166 15.999 -32.499s8 -28.166 8 -47.499c0 -17.333 -3.66699 -36.333 -11 -57
s-22.666 -41.667 -45.999 -63l-28.5 -25c-9.66699 -8.66699 -18.667 -18.334 -27 -29.001s-15.166 -23.167 -20.499 -37.5s-8 -31.5 -8 -51.5c0 -30.667 8.5 -54.334 25.5 -71.001s38.167 -25 63.5 -25c28 0 49 8.16699 63 24.5s22.667 38.5 26 66.5h64v-90z" />
    <glyph glyph-name="Agrave" unicode="&#xc0;" horiz-adv-x="657" 
d="M426 215l-229.997 -0.00195312l-33 -108c-4 -14 -6 -25.667 -6 -35c0 -14.667 5.83301 -24.167 17.5 -28.5s30.167 -7.16602 55.5 -8.49902v-35h-214v35c12 0.666992 22.167 2.5 30.5 5.5s15.666 7.66699 21.999 14s12.166 14.833 17.499 25.5
s10.666 24.334 15.999 41.001l184 568h89l182 -566c4.66699 -14 9.16699 -26.333 13.5 -37s9.5 -19.5 15.5 -26.5s13.333 -12.667 22 -17s19.667 -6.83301 33 -7.5v-35h-245v35c24 1.33301 41.333 5 52 11s16 16.333 16 31c0 5.33301 -0.5 10.833 -1.5 16.5
s-2.16699 10.167 -3.5 13.5zM211.003 262.998h201l-45 148c-13.333 44 -24.5 83 -33.5 117s-15.167 58.667 -18.5 74h-4l-20.5 -76c-8.33301 -30.667 -19.5 -69 -33.5 -115zM424.003 726.998l-214 70l43 92l191 -128z" />
    <glyph glyph-name="Aacute" unicode="&#xc1;" horiz-adv-x="657" 
d="M426 215l-229.997 -0.00195312l-33 -108c-4 -14 -6 -25.667 -6 -35c0 -14.667 5.83301 -24.167 17.5 -28.5s30.167 -7.16602 55.5 -8.49902v-35h-214v35c12 0.666992 22.167 2.5 30.5 5.5s15.666 7.66699 21.999 14s12.166 14.833 17.499 25.5
s10.666 24.334 15.999 41.001l184 568h89l182 -566c4.66699 -14 9.16699 -26.333 13.5 -37s9.5 -19.5 15.5 -26.5s13.333 -12.667 22 -17s19.667 -6.83301 33 -7.5v-35h-245v35c24 1.33301 41.333 5 52 11s16 16.333 16 31c0 5.33301 -0.5 10.833 -1.5 16.5
s-2.16699 10.167 -3.5 13.5zM211.003 262.998h201l-45 148c-13.333 44 -24.5 83 -33.5 117s-15.167 58.667 -18.5 74h-4l-20.5 -76c-8.33301 -30.667 -19.5 -69 -33.5 -115zM212.003 760.998l191 128l43 -92l-214 -70z" />
    <glyph glyph-name="Acircumflex" unicode="&#xc2;" horiz-adv-x="657" 
d="M426 215l-229.997 -0.00195312l-33 -108c-4 -14 -6 -25.667 -6 -35c0 -14.667 5.83301 -24.167 17.5 -28.5s30.167 -7.16602 55.5 -8.49902v-35h-214v35c12 0.666992 22.167 2.5 30.5 5.5s15.666 7.66699 21.999 14s12.166 14.833 17.499 25.5
s10.666 24.334 15.999 41.001l184 568h89l182 -566c4.66699 -14 9.16699 -26.333 13.5 -37s9.5 -19.5 15.5 -26.5s13.333 -12.667 22 -17s19.667 -6.83301 33 -7.5v-35h-245v35c24 1.33301 41.333 5 52 11s16 16.333 16 31c0 5.33301 -0.5 10.833 -1.5 16.5
s-2.16699 10.167 -3.5 13.5zM211.003 262.998h201l-45 148c-13.333 44 -24.5 83 -33.5 117s-15.167 58.667 -18.5 74h-4l-20.5 -76c-8.33301 -30.667 -19.5 -69 -33.5 -115zM329.003 808.998l-137 -81l-25 30l162 149l162 -149l-25 -30z" />
    <glyph glyph-name="Atilde" unicode="&#xc3;" horiz-adv-x="657" 
d="M426 215l-229.997 -0.00195312l-33 -108c-4 -14 -6 -25.667 -6 -35c0 -14.667 5.83301 -24.167 17.5 -28.5s30.167 -7.16602 55.5 -8.49902v-35h-214v35c12 0.666992 22.167 2.5 30.5 5.5s15.666 7.66699 21.999 14s12.166 14.833 17.499 25.5
s10.666 24.334 15.999 41.001l184 568h89l182 -566c4.66699 -14 9.16699 -26.333 13.5 -37s9.5 -19.5 15.5 -26.5s13.333 -12.667 22 -17s19.667 -6.83301 33 -7.5v-35h-245v35c24 1.33301 41.333 5 52 11s16 16.333 16 31c0 5.33301 -0.5 10.833 -1.5 16.5
s-2.16699 10.167 -3.5 13.5zM211.003 262.998h201l-45 148c-13.333 44 -24.5 83 -33.5 117s-15.167 58.667 -18.5 74h-4l-20.5 -76c-8.33301 -30.667 -19.5 -69 -33.5 -115zM397.003 817.998c17.333 0 31.666 4.16797 42.999 12.501s21.333 19.166 30 32.499l36 -14
c-8.66699 -25.333 -21.5 -47.5 -38.5 -66.5s-40.5 -28.5 -70.5 -28.5c-17.333 0 -32.166 2.33301 -44.499 7s-23.666 9.66699 -33.999 15l-29.5 15c-9.33301 4.66699 -19.333 7 -30 7c-19.333 0 -33.833 -4.5 -43.5 -13.5s-18.834 -20.167 -27.501 -33.5l-34 13
c7.33301 28 19.166 51.667 35.499 71s39.5 29 69.5 29c16.667 0 30.834 -2.33301 42.501 -7s22.5 -10 32.5 -16s20 -11.333 30 -16s21 -7 33 -7z" />
    <glyph glyph-name="Adieresis" unicode="&#xc4;" horiz-adv-x="657" 
d="M426 215l-229.997 -0.00195312l-33 -108c-4 -14 -6 -25.667 -6 -35c0 -14.667 5.83301 -24.167 17.5 -28.5s30.167 -7.16602 55.5 -8.49902v-35h-214v35c12 0.666992 22.167 2.5 30.5 5.5s15.666 7.66699 21.999 14s12.166 14.833 17.499 25.5
s10.666 24.334 15.999 41.001l184 568h89l182 -566c4.66699 -14 9.16699 -26.333 13.5 -37s9.5 -19.5 15.5 -26.5s13.333 -12.667 22 -17s19.667 -6.83301 33 -7.5v-35h-245v35c24 1.33301 41.333 5 52 11s16 16.333 16 31c0 5.33301 -0.5 10.833 -1.5 16.5
s-2.16699 10.167 -3.5 13.5zM211.003 262.998h201l-45 148c-13.333 44 -24.5 83 -33.5 117s-15.167 58.667 -18.5 74h-4l-20.5 -76c-8.33301 -30.667 -19.5 -69 -33.5 -115zM285.003 786.998c0 -17.333 -5.66699 -31.666 -17 -42.999s-25.666 -17 -42.999 -17
s-31.666 5.66699 -42.999 17s-17 25.666 -17 42.999s5.66699 31.666 17 42.999s25.666 17 42.999 17s31.666 -5.66699 42.999 -17s17 -25.666 17 -42.999zM494.003 786.998c0 -17.333 -5.66699 -31.666 -17 -42.999s-25.666 -17 -42.999 -17s-31.666 5.66699 -42.999 17
s-17 25.666 -17 42.999s5.66699 31.666 17 42.999s25.666 17 42.999 17s31.666 -5.66699 42.999 -17s17 -25.666 17 -42.999z" />
    <glyph glyph-name="Aring" unicode="&#xc5;" horiz-adv-x="657" 
d="M426 215l-229.997 -0.00195312l-33 -108c-4 -14 -6 -25.667 -6 -35c0 -14.667 5.83301 -24.167 17.5 -28.5s30.167 -7.16602 55.5 -8.49902v-35h-214v35c12 0.666992 22.167 2.5 30.5 5.5s15.666 7.66699 21.999 14s12.166 14.833 17.499 25.5
s10.666 24.334 15.999 41.001l184 568h89l182 -566c4.66699 -14 9.16699 -26.333 13.5 -37s9.5 -19.5 15.5 -26.5s13.333 -12.667 22 -17s19.667 -6.83301 33 -7.5v-35h-245v35c24 1.33301 41.333 5 52 11s16 16.333 16 31c0 5.33301 -0.5 10.833 -1.5 16.5
s-2.16699 10.167 -3.5 13.5zM211.003 262.998h201l-45 148c-13.333 44 -24.5 83 -33.5 117s-15.167 58.667 -18.5 74h-4l-20.5 -76c-8.33301 -30.667 -19.5 -69 -33.5 -115zM328.003 718.998c-30 0 -54.333 9.66699 -73 29s-28 43.666 -28 72.999s9.33301 53.666 28 72.999
s43 29 73 29s54.5 -9.66699 73.5 -29s28.5 -43.666 28.5 -72.999s-9.5 -53.666 -28.5 -72.999s-43.5 -29 -73.5 -29zM328.003 887.998c-18.667 0 -33.5 -6.5 -44.5 -19.5s-16.5 -29.167 -16.5 -48.5c0 -18 5.5 -33.333 16.5 -46s25.833 -19 44.5 -19
c19.333 0 34.5 6.33301 45.5 19s16.5 28 16.5 46c0 19.333 -5.5 35.5 -16.5 48.5s-26.167 19.5 -45.5 19.5z" />
    <glyph glyph-name="AE" unicode="&#xc6;" horiz-adv-x="904" 
d="M362 581c7.33301 13.333 11.001 25 11.001 35c0 11.333 -5.83301 20.166 -17.5 26.499s-30.167 10.166 -55.5 11.499v35h546l10 -150h-42c-5.33301 18.667 -10.666 34.5 -15.999 47.5s-11.5 23.5 -18.5 31.5s-15.333 13.667 -25 17s-21.834 5 -36.501 5h-167v-256h93
c15.333 0 28.333 1 39 3s19.334 5.66699 26.001 11s11.5 12.666 14.5 21.999s5.16699 21 6.5 35h41v-190h-41c-2 27.333 -8.83301 46 -20.5 56s-33.167 15 -64.5 15h-94v-287h168c19.333 0 35.166 1.66699 47.499 5s22.333 9.33301 30 18s13.5 20.5 17.5 35.5
s7 34.167 9 57.5h45v-165h-492v35c16.667 0.666992 30.167 2.33398 40.5 5.00098s18.5 6.83398 24.5 12.501s10 13.334 12 23.001s3 21.5 3 35.5v134h-207l-77 -145c-8.66699 -16 -13 -28 -13 -36c0 -17.333 19 -27 57 -29v-35h-200v35c12 0.666992 22.167 2.16699 30.5 4.5
s15.833 6 22.5 11s13.167 11.833 19.5 20.5s13.166 20 20.499 34zM273.001 293l183 0.000976562v164c0 42 0.5 77.667 1.5 107s2.16699 55.666 3.5 78.999h-4z" />
    <glyph glyph-name="Ccedilla" unicode="&#xc7;" horiz-adv-x="577" 
d="M425 -113c0 -56.667 -33.002 -84.999 -99.002 -84.999c-19.333 0 -35.333 2.5 -48 7.5s-23.667 10.833 -33 17.5l16 32c11.333 -7.33301 21.666 -12.166 30.999 -14.499s19.666 -3.5 30.999 -3.5s20.833 2.16699 28.5 6.5s11.5 14.166 11.5 29.499c0 6.66699 -2 12 -6 16
s-9.33301 7.33301 -16 10s-14.167 4.5 -22.5 5.5s-16.833 1.5 -25.5 1.5v21l17 60c-46 4 -85.667 14.833 -119 32.5s-60.833 41.5 -82.5 71.5s-37.834 65.5 -48.501 106.5s-16 86.833 -16 137.5c0 57.333 7.16699 108.5 21.5 153.5s34.5 83 60.5 114s57.167 54.5 93.5 70.5
s76.5 24 120.5 24c27.333 0 51.333 -1.16699 72 -3.5s38.667 -5.66602 54 -9.99902s28.833 -9.33301 40.5 -15s22.167 -11.834 31.5 -18.501v-112h-70c-9.33301 38.667 -23.166 67 -41.499 85s-48.166 27 -89.499 27c-28.667 0 -54.667 -5.5 -78 -16.5
s-43.166 -28.667 -59.499 -53s-28.833 -56.5 -37.5 -96.5s-13 -89 -13 -147c0 -60 4.66699 -109.667 14 -149s22.5 -70.5 39.5 -93.5s37.833 -39.167 62.5 -48.5s52.334 -14 83.001 -14c40 0 69.833 8.16699 89.5 24.5s33.167 44.166 40.5 83.499h65v-105
c-17.333 -12.667 -41.666 -24.167 -72.999 -34.5s-72 -15.5 -122 -15.5l-8 -28c31.333 -2 53.333 -10.333 66 -25s19 -31 19 -49z" />
    <glyph glyph-name="Egrave" unicode="&#xc8;" horiz-adv-x="565" 
d="M37 35c16.667 0.666992 30.167 2.3291 40.5 4.99609s18.5 6.83398 24.5 12.501s10 13.334 12 23.001s3 21.5 3 35.5v467c0 14 -1 25.833 -3 35.5s-6 17.334 -12 23.001s-14.167 9.83398 -24.5 12.501s-23.833 4.33398 -40.5 5.00098v35h470l10 -150h-42
c-5.33301 18.667 -10.666 34.5 -15.999 47.5s-11.5 23.5 -18.5 31.5s-15.333 13.667 -25 17s-21.834 5 -36.501 5h-167v-256h93c15.333 0 28.333 1 39 3s19.334 5.66699 26.001 11s11.5 12.666 14.5 21.999s5.16699 21 6.5 35h41v-190h-41c-2 27.333 -8.83301 46 -20.5 56
s-33.167 15 -64.5 15h-94v-287h168c19.333 0 35.166 1.66699 47.499 5s22.333 9.33301 30 18s13.5 20.5 17.5 35.5s7 34.167 9 57.5h45v-165h-492v35zM393 726.995l-214 70l43 92l191 -128z" />
    <glyph glyph-name="Eacute" unicode="&#xc9;" horiz-adv-x="565" 
d="M37 35c16.667 0.666992 30.167 2.3291 40.5 4.99609s18.5 6.83398 24.5 12.501s10 13.334 12 23.001s3 21.5 3 35.5v467c0 14 -1 25.833 -3 35.5s-6 17.334 -12 23.001s-14.167 9.83398 -24.5 12.501s-23.833 4.33398 -40.5 5.00098v35h470l10 -150h-42
c-5.33301 18.667 -10.666 34.5 -15.999 47.5s-11.5 23.5 -18.5 31.5s-15.333 13.667 -25 17s-21.834 5 -36.501 5h-167v-256h93c15.333 0 28.333 1 39 3s19.334 5.66699 26.001 11s11.5 12.666 14.5 21.999s5.16699 21 6.5 35h41v-190h-41c-2 27.333 -8.83301 46 -20.5 56
s-33.167 15 -64.5 15h-94v-287h168c19.333 0 35.166 1.66699 47.499 5s22.333 9.33301 30 18s13.5 20.5 17.5 35.5s7 34.167 9 57.5h45v-165h-492v35zM181 760.995l191 128l43 -92l-214 -70z" />
    <glyph glyph-name="Ecircumflex" unicode="&#xca;" horiz-adv-x="565" 
d="M37 35c16.667 0.666992 30.167 2.3291 40.5 4.99609s18.5 6.83398 24.5 12.501s10 13.334 12 23.001s3 21.5 3 35.5v467c0 14 -1 25.833 -3 35.5s-6 17.334 -12 23.001s-14.167 9.83398 -24.5 12.501s-23.833 4.33398 -40.5 5.00098v35h470l10 -150h-42
c-5.33301 18.667 -10.666 34.5 -15.999 47.5s-11.5 23.5 -18.5 31.5s-15.333 13.667 -25 17s-21.834 5 -36.501 5h-167v-256h93c15.333 0 28.333 1 39 3s19.334 5.66699 26.001 11s11.5 12.666 14.5 21.999s5.16699 21 6.5 35h41v-190h-41c-2 27.333 -8.83301 46 -20.5 56
s-33.167 15 -64.5 15h-94v-287h168c19.333 0 35.166 1.66699 47.499 5s22.333 9.33301 30 18s13.5 20.5 17.5 35.5s7 34.167 9 57.5h45v-165h-492v35zM298 808.995l-137 -81l-25 30l162 149l162 -149l-25 -30z" />
    <glyph glyph-name="Edieresis" unicode="&#xcb;" horiz-adv-x="565" 
d="M37 35c16.667 0.666992 30.167 2.3291 40.5 4.99609s18.5 6.83398 24.5 12.501s10 13.334 12 23.001s3 21.5 3 35.5v467c0 14 -1 25.833 -3 35.5s-6 17.334 -12 23.001s-14.167 9.83398 -24.5 12.501s-23.833 4.33398 -40.5 5.00098v35h470l10 -150h-42
c-5.33301 18.667 -10.666 34.5 -15.999 47.5s-11.5 23.5 -18.5 31.5s-15.333 13.667 -25 17s-21.834 5 -36.501 5h-167v-256h93c15.333 0 28.333 1 39 3s19.334 5.66699 26.001 11s11.5 12.666 14.5 21.999s5.16699 21 6.5 35h41v-190h-41c-2 27.333 -8.83301 46 -20.5 56
s-33.167 15 -64.5 15h-94v-287h168c19.333 0 35.166 1.66699 47.499 5s22.333 9.33301 30 18s13.5 20.5 17.5 35.5s7 34.167 9 57.5h45v-165h-492v35zM254 786.995c0 -17.333 -5.66699 -31.666 -17 -42.999s-25.666 -17 -42.999 -17s-31.666 5.66699 -42.999 17
s-17 25.666 -17 42.999s5.66699 31.666 17 42.999s25.666 17 42.999 17s31.666 -5.66699 42.999 -17s17 -25.666 17 -42.999zM463 786.995c0 -17.333 -5.66699 -31.666 -17 -42.999s-25.666 -17 -42.999 -17s-31.666 5.66699 -42.999 17s-17 25.666 -17 42.999
s5.66699 31.666 17 42.999s25.666 17 42.999 17s31.666 -5.66699 42.999 -17s17 -25.666 17 -42.999z" />
    <glyph glyph-name="Igrave" unicode="&#xcc;" horiz-adv-x="329" 
d="M117 578c0 14 -1 25.833 -3 35.5s-6 17.334 -12 23.001s-14.167 9.83398 -24.5 12.501s-23.833 4.33398 -40.5 5.00098v35h255v-35c-16.667 -0.666992 -30.167 -2.33398 -40.5 -5.00098s-18.5 -6.83398 -24.5 -12.501s-10 -13.334 -12 -23.001s-3 -21.5 -3 -35.5v-467
c0 -14 1 -25.833 3 -35.5s6 -17.334 12 -23.001s14.167 -9.83398 24.5 -12.501s23.833 -4.33398 40.5 -5.00098v-35h-255v35c16.667 0.666992 30.167 2.33398 40.5 5.00098s18.5 6.83398 24.5 12.501s10 13.334 12 23.001s3 21.5 3 35.5v467zM260 727l-214 70l43 92
l191 -128z" />
    <glyph glyph-name="Iacute" unicode="&#xcd;" horiz-adv-x="329" 
d="M117 578c0 14 -1 25.833 -3 35.5s-6 17.334 -12 23.001s-14.167 9.83398 -24.5 12.501s-23.833 4.33398 -40.5 5.00098v35h255v-35c-16.667 -0.666992 -30.167 -2.33398 -40.5 -5.00098s-18.5 -6.83398 -24.5 -12.501s-10 -13.334 -12 -23.001s-3 -21.5 -3 -35.5v-467
c0 -14 1 -25.833 3 -35.5s6 -17.334 12 -23.001s14.167 -9.83398 24.5 -12.501s23.833 -4.33398 40.5 -5.00098v-35h-255v35c16.667 0.666992 30.167 2.33398 40.5 5.00098s18.5 6.83398 24.5 12.501s10 13.334 12 23.001s3 21.5 3 35.5v467zM48 761l191 128l43 -92
l-214 -70z" />
    <glyph glyph-name="Icircumflex" unicode="&#xce;" horiz-adv-x="329" 
d="M117 578c0 14 -1 25.833 -3 35.5s-6 17.334 -12 23.001s-14.167 9.83398 -24.5 12.501s-23.833 4.33398 -40.5 5.00098v35h255v-35c-16.667 -0.666992 -30.167 -2.33398 -40.5 -5.00098s-18.5 -6.83398 -24.5 -12.501s-10 -13.334 -12 -23.001s-3 -21.5 -3 -35.5v-467
c0 -14 1 -25.833 3 -35.5s6 -17.334 12 -23.001s14.167 -9.83398 24.5 -12.501s23.833 -4.33398 40.5 -5.00098v-35h-255v35c16.667 0.666992 30.167 2.33398 40.5 5.00098s18.5 6.83398 24.5 12.501s10 13.334 12 23.001s3 21.5 3 35.5v467zM165 809l-137 -81l-25 30
l162 149l162 -149l-25 -30z" />
    <glyph glyph-name="Idieresis" unicode="&#xcf;" horiz-adv-x="329" 
d="M117 578c0 14 -1 25.833 -3 35.5s-6 17.334 -12 23.001s-14.167 9.83398 -24.5 12.501s-23.833 4.33398 -40.5 5.00098v35h255v-35c-16.667 -0.666992 -30.167 -2.33398 -40.5 -5.00098s-18.5 -6.83398 -24.5 -12.501s-10 -13.334 -12 -23.001s-3 -21.5 -3 -35.5v-467
c0 -14 1 -25.833 3 -35.5s6 -17.334 12 -23.001s14.167 -9.83398 24.5 -12.501s23.833 -4.33398 40.5 -5.00098v-35h-255v35c16.667 0.666992 30.167 2.33398 40.5 5.00098s18.5 6.83398 24.5 12.501s10 13.334 12 23.001s3 21.5 3 35.5v467zM121 787
c0 -17.333 -5.66699 -31.666 -17 -42.999s-25.666 -17 -42.999 -17s-31.666 5.66699 -42.999 17s-17 25.666 -17 42.999s5.66699 31.666 17 42.999s25.666 17 42.999 17s31.666 -5.66699 42.999 -17s17 -25.666 17 -42.999zM330 787c0 -17.333 -5.66699 -31.666 -17 -42.999
s-25.666 -17 -42.999 -17s-31.666 5.66699 -42.999 17s-17 25.666 -17 42.999s5.66699 31.666 17 42.999s25.666 17 42.999 17s31.666 -5.66699 42.999 -17s17 -25.666 17 -42.999z" />
    <glyph glyph-name="Eth" unicode="&#xd0;" horiz-adv-x="670" 
d="M33 388l84.001 -0.00878906v190c0 14 -1 25.833 -3 35.5s-6 17.334 -12 23.001s-14.167 9.83398 -24.5 12.501s-23.833 4.33398 -40.5 5.00098v35h253c50.667 0 96.834 -6.66699 138.501 -20s77 -34.166 106 -62.499s51.5 -64.166 67.5 -107.499s24 -95 24 -155
c0 -50 -5.83301 -96 -17.5 -138s-30.834 -78.167 -57.501 -108.5s-61.334 -54.166 -104.001 -71.499s-95 -26 -157 -26h-253v35c16.667 0.666992 30.167 2.33398 40.5 5.00098s18.5 6.83398 24.5 12.501s10 13.334 12 23.001s3 21.5 3 35.5v231h-84v46zM522.001 331.991
c0 57.333 -4.66797 105.833 -14.001 145.5s-23.333 71.667 -42 96s-41.667 41.833 -69 52.5s-59 16 -95 16h-87v-254h129v-46h-129v-291h85c37.333 0 69.833 4.16699 97.5 12.5s50.834 23 69.501 44s32.5 49.667 41.5 86s13.5 82.5 13.5 138.5z" />
    <glyph glyph-name="Ntilde" unicode="&#xd1;" horiz-adv-x="685" 
d="M516 578c0 14 -1.00391 25.8281 -3.00391 35.4951s-6 17.334 -12 23.001s-14.167 9.83398 -24.5 12.501s-23.833 4.33398 -40.5 5.00098v35h219v-35c-15.333 -0.666992 -27.666 -2.33398 -36.999 -5.00098s-16.666 -6.83398 -21.999 -12.501
s-8.83301 -13.334 -10.5 -23.001s-2.5 -21.5 -2.5 -35.5v-578h-71l-250 408c-28 44.667 -47.833 80.834 -59.5 108.501s-19.834 48.167 -24.501 61.5h-6c2 -13.333 4.5 -35.166 7.5 -65.499s4.5 -69.833 4.5 -118.5v-283c0 -14 1 -25.833 3 -35.5s6 -17.334 12 -23.001
s14.167 -9.83398 24.5 -12.501s23.833 -4.33398 40.5 -5.00098v-35h-227v35c16.667 0.666992 30.167 2.33398 40.5 5.00098s18.5 6.83398 24.5 12.501s10 13.334 12 23.001s3 21.5 3 35.5v467c0 14 -1 25.833 -3 35.5s-6 17.334 -12 23.001s-14.167 9.83398 -24.5 12.501
s-23.833 4.33398 -40.5 5.00098v35h162l255 -418c7.33301 -12 14.5 -24.833 21.5 -38.5s13.5 -27 19.5 -40s11.333 -25.333 16 -37s8.33398 -21.5 11.001 -29.5h6c-1.33301 7.33301 -2.66602 18 -3.99902 32s-2.66602 30.333 -3.99902 49s-2.33301 38.667 -3 60
s-1 43.333 -1 66v245zM413.996 817.995c17.333 0 31.666 4.16797 42.999 12.501s21.333 19.166 30 32.499l36 -14c-8.66699 -25.333 -21.5 -47.5 -38.5 -66.5s-40.5 -28.5 -70.5 -28.5c-17.333 0 -32.166 2.33301 -44.499 7s-23.666 9.66699 -33.999 15l-29.5 15
c-9.33301 4.66699 -19.333 7 -30 7c-19.333 0 -33.833 -4.5 -43.5 -13.5s-18.834 -20.167 -27.501 -33.5l-34 13c7.33301 28 19.166 51.667 35.499 71s39.5 29 69.5 29c16.667 0 30.834 -2.33301 42.501 -7s22.5 -10 32.5 -16s20 -11.333 30 -16s21 -7 33 -7z" />
    <glyph glyph-name="Ograve" unicode="&#xd2;" horiz-adv-x="674" 
d="M340 -11c-49.333 0 -92.502 9 -129.502 27s-67.833 42.833 -92.5 74.5s-43.167 69.334 -55.5 113.001s-18.5 91.5 -18.5 143.5c0 56.667 6.83301 107 20.5 151s33.334 81 59.001 111s56.334 52.833 92.001 68.5s75.5 23.5 119.5 23.5c52.667 0 97.667 -9.83301 135 -29.5
s67.833 -46 91.5 -79s41 -71.333 52 -115s16.5 -89.5 16.5 -137.5c0 -52.667 -6.5 -100.667 -19.5 -144s-32 -80.333 -57 -111s-55.5 -54.334 -91.5 -71.001s-76.667 -25 -122 -25zM334.998 654c-66.667 0 -114.834 -24.833 -144.501 -74.5s-44.5 -123.5 -44.5 -221.5
c0 -48.667 3.33301 -92.834 10 -132.501s17.5 -73.667 32.5 -102s35 -50.333 60 -66s55.5 -23.5 91.5 -23.5c28.667 0 54.5 5.5 77.5 16.5s42.5 28.5 58.5 52.5s28.333 54.833 37 92.5s13 82.834 13 135.501c0 51.333 -3.33301 97 -10 137s-17.667 73.833 -33 101.5
s-35.166 48.667 -59.499 63s-53.833 21.5 -88.5 21.5zM432.998 727l-214 70l43 92l191 -128z" />
    <glyph glyph-name="Oacute" unicode="&#xd3;" horiz-adv-x="674" 
d="M340 -11c-49.333 0 -92.502 9 -129.502 27s-67.833 42.833 -92.5 74.5s-43.167 69.334 -55.5 113.001s-18.5 91.5 -18.5 143.5c0 56.667 6.83301 107 20.5 151s33.334 81 59.001 111s56.334 52.833 92.001 68.5s75.5 23.5 119.5 23.5c52.667 0 97.667 -9.83301 135 -29.5
s67.833 -46 91.5 -79s41 -71.333 52 -115s16.5 -89.5 16.5 -137.5c0 -52.667 -6.5 -100.667 -19.5 -144s-32 -80.333 -57 -111s-55.5 -54.334 -91.5 -71.001s-76.667 -25 -122 -25zM334.998 654c-66.667 0 -114.834 -24.833 -144.501 -74.5s-44.5 -123.5 -44.5 -221.5
c0 -48.667 3.33301 -92.834 10 -132.501s17.5 -73.667 32.5 -102s35 -50.333 60 -66s55.5 -23.5 91.5 -23.5c28.667 0 54.5 5.5 77.5 16.5s42.5 28.5 58.5 52.5s28.333 54.833 37 92.5s13 82.834 13 135.501c0 51.333 -3.33301 97 -10 137s-17.667 73.833 -33 101.5
s-35.166 48.667 -59.499 63s-53.833 21.5 -88.5 21.5zM220.998 761l191 128l43 -92l-214 -70z" />
    <glyph glyph-name="Ocircumflex" unicode="&#xd4;" horiz-adv-x="674" 
d="M340 -11c-49.333 0 -92.502 9 -129.502 27s-67.833 42.833 -92.5 74.5s-43.167 69.334 -55.5 113.001s-18.5 91.5 -18.5 143.5c0 56.667 6.83301 107 20.5 151s33.334 81 59.001 111s56.334 52.833 92.001 68.5s75.5 23.5 119.5 23.5c52.667 0 97.667 -9.83301 135 -29.5
s67.833 -46 91.5 -79s41 -71.333 52 -115s16.5 -89.5 16.5 -137.5c0 -52.667 -6.5 -100.667 -19.5 -144s-32 -80.333 -57 -111s-55.5 -54.334 -91.5 -71.001s-76.667 -25 -122 -25zM334.998 654c-66.667 0 -114.834 -24.833 -144.501 -74.5s-44.5 -123.5 -44.5 -221.5
c0 -48.667 3.33301 -92.834 10 -132.501s17.5 -73.667 32.5 -102s35 -50.333 60 -66s55.5 -23.5 91.5 -23.5c28.667 0 54.5 5.5 77.5 16.5s42.5 28.5 58.5 52.5s28.333 54.833 37 92.5s13 82.834 13 135.501c0 51.333 -3.33301 97 -10 137s-17.667 73.833 -33 101.5
s-35.166 48.667 -59.499 63s-53.833 21.5 -88.5 21.5zM337.998 809l-137 -81l-25 30l162 149l162 -149l-25 -30z" />
    <glyph glyph-name="Otilde" unicode="&#xd5;" horiz-adv-x="674" 
d="M340 -11c-49.333 0 -92.502 9 -129.502 27s-67.833 42.833 -92.5 74.5s-43.167 69.334 -55.5 113.001s-18.5 91.5 -18.5 143.5c0 56.667 6.83301 107 20.5 151s33.334 81 59.001 111s56.334 52.833 92.001 68.5s75.5 23.5 119.5 23.5c52.667 0 97.667 -9.83301 135 -29.5
s67.833 -46 91.5 -79s41 -71.333 52 -115s16.5 -89.5 16.5 -137.5c0 -52.667 -6.5 -100.667 -19.5 -144s-32 -80.333 -57 -111s-55.5 -54.334 -91.5 -71.001s-76.667 -25 -122 -25zM334.998 654c-66.667 0 -114.834 -24.833 -144.501 -74.5s-44.5 -123.5 -44.5 -221.5
c0 -48.667 3.33301 -92.834 10 -132.501s17.5 -73.667 32.5 -102s35 -50.333 60 -66s55.5 -23.5 91.5 -23.5c28.667 0 54.5 5.5 77.5 16.5s42.5 28.5 58.5 52.5s28.333 54.833 37 92.5s13 82.834 13 135.501c0 51.333 -3.33301 97 -10 137s-17.667 73.833 -33 101.5
s-35.166 48.667 -59.499 63s-53.833 21.5 -88.5 21.5zM404.998 818c17.333 0 31.666 4.16797 42.999 12.501s21.333 19.166 30 32.499l36 -14c-8.66699 -25.333 -21.5 -47.5 -38.5 -66.5s-40.5 -28.5 -70.5 -28.5c-17.333 0 -32.166 2.33301 -44.499 7
s-23.666 9.66699 -33.999 15l-29.5 15c-9.33301 4.66699 -19.333 7 -30 7c-19.333 0 -33.833 -4.5 -43.5 -13.5s-18.834 -20.167 -27.501 -33.5l-34 13c7.33301 28 19.166 51.667 35.499 71s39.5 29 69.5 29c16.667 0 30.834 -2.33301 42.501 -7s22.5 -10 32.5 -16
s20 -11.333 30 -16s21 -7 33 -7z" />
    <glyph glyph-name="Odieresis" unicode="&#xd6;" horiz-adv-x="674" 
d="M340 -11c-49.333 0 -92.502 9 -129.502 27s-67.833 42.833 -92.5 74.5s-43.167 69.334 -55.5 113.001s-18.5 91.5 -18.5 143.5c0 56.667 6.83301 107 20.5 151s33.334 81 59.001 111s56.334 52.833 92.001 68.5s75.5 23.5 119.5 23.5c52.667 0 97.667 -9.83301 135 -29.5
s67.833 -46 91.5 -79s41 -71.333 52 -115s16.5 -89.5 16.5 -137.5c0 -52.667 -6.5 -100.667 -19.5 -144s-32 -80.333 -57 -111s-55.5 -54.334 -91.5 -71.001s-76.667 -25 -122 -25zM334.998 654c-66.667 0 -114.834 -24.833 -144.501 -74.5s-44.5 -123.5 -44.5 -221.5
c0 -48.667 3.33301 -92.834 10 -132.501s17.5 -73.667 32.5 -102s35 -50.333 60 -66s55.5 -23.5 91.5 -23.5c28.667 0 54.5 5.5 77.5 16.5s42.5 28.5 58.5 52.5s28.333 54.833 37 92.5s13 82.834 13 135.501c0 51.333 -3.33301 97 -10 137s-17.667 73.833 -33 101.5
s-35.166 48.667 -59.499 63s-53.833 21.5 -88.5 21.5zM293.998 787c0 -17.333 -5.66699 -31.666 -17 -42.999s-25.666 -17 -42.999 -17s-31.666 5.66699 -42.999 17s-17 25.666 -17 42.999s5.66699 31.666 17 42.999s25.666 17 42.999 17s31.666 -5.66699 42.999 -17
s17 -25.666 17 -42.999zM502.998 787c0 -17.333 -5.66699 -31.666 -17 -42.999s-25.666 -17 -42.999 -17s-31.666 5.66699 -42.999 17s-17 25.666 -17 42.999s5.66699 31.666 17 42.999s25.666 17 42.999 17s31.666 -5.66699 42.999 -17s17 -25.666 17 -42.999z" />
    <glyph glyph-name="multiply" unicode="&#xd7;" horiz-adv-x="505" 
d="M92 469l160 -160l160 160l38 -38l-160 -160l160 -159l-38 -38l-160 160l-160 -160l-37 38l159 159l-159 160z" />
    <glyph glyph-name="Oslash" unicode="&#xd8;" horiz-adv-x="674" 
d="M528 631c36 -34 61.998 -76.3311 77.998 -126.998s24 -105.334 24 -164.001c0 -52.667 -6.5 -100.667 -19.5 -144s-32 -80.333 -57 -111s-55.5 -54.334 -91.5 -71.001s-76.667 -25 -122 -25c-65.333 0 -120.666 16 -165.999 48l-58 -98l-40 22l62 106
c-32 32 -55.667 72 -71 120s-23 101.333 -23 160c0 56.667 6.83301 107 20.5 151s33.334 81 59.001 111s56.334 52.833 92.001 68.5s75.5 23.5 119.5 23.5c31.333 0 59.666 -3.5 84.999 -10.5s48.333 -16.833 69 -29.5l53 88l43 -23zM525.998 331.002
c0 49.333 -3.16699 93.166 -9.5 131.499s-16.166 71.5 -29.499 99.5l-279 -469c15.333 -19.333 33.666 -34 54.999 -44s47 -15 77 -15c28.667 0 54.5 5.5 77.5 16.5s42.5 28.5 58.5 52.5s28.333 54.833 37 92.5s13 82.834 13 135.501zM334.998 654.002
c-66.667 0 -114.832 -24.832 -144.499 -74.499s-44.5 -123.5 -44.5 -221.5c0 -44.667 2.66699 -85.334 8 -122.001s14.333 -69 27 -97l276 467c-30.667 32 -71.334 48 -122.001 48z" />
    <glyph glyph-name="Ugrave" unicode="&#xd9;" horiz-adv-x="684" 
d="M517 578c0 14 -1.00098 25.8311 -3.00098 35.498s-6.16699 17.334 -12.5 23.001s-15 9.83398 -26 12.501s-25.5 4.33398 -43.5 5.00098v35h224v-35c-15.333 -0.666992 -27.666 -2.33398 -36.999 -5.00098s-16.666 -6.83398 -21.999 -12.501
s-8.83301 -13.334 -10.5 -23.001s-2.5 -21.5 -2.5 -35.5v-354c0 -82.667 -20.167 -142.5 -60.5 -179.5s-98.166 -55.5 -173.499 -55.5c-83.333 0 -145.333 19.333 -186 58s-61 95.334 -61 170.001v361c0 14 -1 25.833 -3 35.5s-5.83301 17.334 -11.5 23.001
s-13.334 9.83398 -23.001 12.501s-22.167 4.33398 -37.5 5.00098v35h255v-35c-18 -0.666992 -32.5 -2.33398 -43.5 -5.00098s-19.667 -6.83398 -26 -12.501s-10.5 -13.334 -12.5 -23.001s-3 -21.5 -3 -35.5v-339c0 -33.333 2.66699 -62 8 -86s14.333 -43.667 27 -59
s29.667 -26.666 51 -33.999s48 -11 80 -11c55.333 0 94.666 13.667 117.999 41s35 72 35 134v354zM450.999 726.998l-214 70l43 92l191 -128z" />
    <glyph glyph-name="Uacute" unicode="&#xda;" horiz-adv-x="684" 
d="M517 578c0 14 -1.00098 25.8311 -3.00098 35.498s-6.16699 17.334 -12.5 23.001s-15 9.83398 -26 12.501s-25.5 4.33398 -43.5 5.00098v35h224v-35c-15.333 -0.666992 -27.666 -2.33398 -36.999 -5.00098s-16.666 -6.83398 -21.999 -12.501
s-8.83301 -13.334 -10.5 -23.001s-2.5 -21.5 -2.5 -35.5v-354c0 -82.667 -20.167 -142.5 -60.5 -179.5s-98.166 -55.5 -173.499 -55.5c-83.333 0 -145.333 19.333 -186 58s-61 95.334 -61 170.001v361c0 14 -1 25.833 -3 35.5s-5.83301 17.334 -11.5 23.001
s-13.334 9.83398 -23.001 12.501s-22.167 4.33398 -37.5 5.00098v35h255v-35c-18 -0.666992 -32.5 -2.33398 -43.5 -5.00098s-19.667 -6.83398 -26 -12.501s-10.5 -13.334 -12.5 -23.001s-3 -21.5 -3 -35.5v-339c0 -33.333 2.66699 -62 8 -86s14.333 -43.667 27 -59
s29.667 -26.666 51 -33.999s48 -11 80 -11c55.333 0 94.666 13.667 117.999 41s35 72 35 134v354zM238.999 760.998l191 128l43 -92l-214 -70z" />
    <glyph glyph-name="Ucircumflex" unicode="&#xdb;" horiz-adv-x="684" 
d="M517 578c0 14 -1.00098 25.8311 -3.00098 35.498s-6.16699 17.334 -12.5 23.001s-15 9.83398 -26 12.501s-25.5 4.33398 -43.5 5.00098v35h224v-35c-15.333 -0.666992 -27.666 -2.33398 -36.999 -5.00098s-16.666 -6.83398 -21.999 -12.501
s-8.83301 -13.334 -10.5 -23.001s-2.5 -21.5 -2.5 -35.5v-354c0 -82.667 -20.167 -142.5 -60.5 -179.5s-98.166 -55.5 -173.499 -55.5c-83.333 0 -145.333 19.333 -186 58s-61 95.334 -61 170.001v361c0 14 -1 25.833 -3 35.5s-5.83301 17.334 -11.5 23.001
s-13.334 9.83398 -23.001 12.501s-22.167 4.33398 -37.5 5.00098v35h255v-35c-18 -0.666992 -32.5 -2.33398 -43.5 -5.00098s-19.667 -6.83398 -26 -12.501s-10.5 -13.334 -12.5 -23.001s-3 -21.5 -3 -35.5v-339c0 -33.333 2.66699 -62 8 -86s14.333 -43.667 27 -59
s29.667 -26.666 51 -33.999s48 -11 80 -11c55.333 0 94.666 13.667 117.999 41s35 72 35 134v354zM355.999 808.998l-137 -81l-25 30l162 149l162 -149l-25 -30z" />
    <glyph glyph-name="Udieresis" unicode="&#xdc;" horiz-adv-x="684" 
d="M517 578c0 14 -1.00098 25.8311 -3.00098 35.498s-6.16699 17.334 -12.5 23.001s-15 9.83398 -26 12.501s-25.5 4.33398 -43.5 5.00098v35h224v-35c-15.333 -0.666992 -27.666 -2.33398 -36.999 -5.00098s-16.666 -6.83398 -21.999 -12.501
s-8.83301 -13.334 -10.5 -23.001s-2.5 -21.5 -2.5 -35.5v-354c0 -82.667 -20.167 -142.5 -60.5 -179.5s-98.166 -55.5 -173.499 -55.5c-83.333 0 -145.333 19.333 -186 58s-61 95.334 -61 170.001v361c0 14 -1 25.833 -3 35.5s-5.83301 17.334 -11.5 23.001
s-13.334 9.83398 -23.001 12.501s-22.167 4.33398 -37.5 5.00098v35h255v-35c-18 -0.666992 -32.5 -2.33398 -43.5 -5.00098s-19.667 -6.83398 -26 -12.501s-10.5 -13.334 -12.5 -23.001s-3 -21.5 -3 -35.5v-339c0 -33.333 2.66699 -62 8 -86s14.333 -43.667 27 -59
s29.667 -26.666 51 -33.999s48 -11 80 -11c55.333 0 94.666 13.667 117.999 41s35 72 35 134v354zM311.999 786.998c0 -17.333 -5.66699 -31.666 -17 -42.999s-25.666 -17 -42.999 -17s-31.666 5.66699 -42.999 17s-17 25.666 -17 42.999s5.66699 31.666 17 42.999
s25.666 17 42.999 17s31.666 -5.66699 42.999 -17s17 -25.666 17 -42.999zM520.999 786.998c0 -17.333 -5.66699 -31.666 -17 -42.999s-25.666 -17 -42.999 -17s-31.666 5.66699 -42.999 17s-17 25.666 -17 42.999s5.66699 31.666 17 42.999s25.666 17 42.999 17
s31.666 -5.66699 42.999 -17s17 -25.666 17 -42.999z" />
    <glyph glyph-name="Yacute" unicode="&#xdd;" horiz-adv-x="594" 
d="M323 345l108 234.003c8 18 12 32.333 12 43c0 11.333 -5 19.166 -15 23.499s-24.667 7.16602 -44 8.49902v35h199v-35c-10 -1.33301 -19 -3.5 -27 -6.5s-15.667 -7.83301 -23 -14.5s-14.666 -15.667 -21.999 -27s-15.666 -26.333 -24.999 -45l-137 -279v-171
c0 -14 1.16699 -25.833 3.5 -35.5s6.66602 -17.334 12.999 -23.001s15 -9.83398 26 -12.501s25.167 -4.33398 42.5 -5.00098v-35h-265v35c17.333 0.666992 31.5 2.33398 42.5 5.00098s19.667 6.83398 26 12.501s10.666 13.334 12.999 23.001s3.5 21.5 3.5 35.5v165l-149 296
c-8 16 -15.5 29 -22.5 39s-14.167 18 -21.5 24s-15 10.333 -23 13s-17 4.66699 -27 6v35h238v-35c-19.333 -0.666992 -33 -3.33398 -41 -8.00098s-12 -12 -12 -22c0 -6.66699 1.16699 -13.667 3.5 -21s5.83301 -16 10.5 -26l109 -232h4zM195 761.003l191 128l43 -92
l-214 -70z" />
    <glyph glyph-name="Thorn" unicode="&#xde;" horiz-adv-x="577" 
d="M447 357c0 28 -2.33398 51.667 -7.00098 71s-12.667 35 -24 47s-27.166 20.667 -47.499 26s-45.833 8 -76.5 8h-80v-290h98c50 0 85.333 10.5 106 31.5s31 56.5 31 106.5zM211.999 557l87.001 -0.00195312c47.333 0 87 -4.5 119 -13.5s57.667 -21.833 77 -38.5
s33.166 -36.667 41.499 -60s12.5 -49.333 12.5 -78c0 -66 -19.667 -115 -59 -147s-97.333 -48 -174 -48h-104v-58c0 -14.667 1.16699 -27 3.5 -37s6.83301 -18 13.5 -24s15.667 -10.333 27 -13s26 -4.33398 44 -5.00098v-35h-263v35
c16.667 0.666992 30.167 2.33398 40.5 5.00098s18.5 6.83398 24.5 12.501s10 13.334 12 23.001s3 21.5 3 35.5v467c0 14 -1 25.833 -3 35.5s-6 17.334 -12 23.001s-14.167 9.83398 -24.5 12.501s-23.833 4.33398 -40.5 5.00098v35h255v-35
c-16.667 -0.666992 -30.167 -2.33398 -40.5 -5.00098s-18.5 -6.83398 -24.5 -12.501s-10 -13.334 -12 -23.001s-3 -21.5 -3 -35.5v-21z" />
    <glyph glyph-name="germandbls" unicode="&#xdf;" horiz-adv-x="585" 
d="M98 537c0 32 5.49414 59.999 16.4941 83.999s25.833 43.833 44.5 59.5s40.667 27.5 66 35.5s52.666 12 81.999 12c26.667 0 51.5 -3.16699 74.5 -9.5s43 -15.5 60 -27.5s30.167 -26.5 39.5 -43.5s14 -36.167 14 -57.5c0 -19.333 -3.16699 -36 -9.5 -50
s-15 -26.5 -26 -37.5s-24.167 -21.167 -39.5 -30.5l-49 -29c-9.33301 -5.33301 -16.666 -10.166 -21.999 -14.499s-8 -9.16602 -8 -14.499s2.33301 -10.166 7 -14.499s10.334 -8.16602 17.001 -11.499c26.667 -14 51.667 -28.833 75 -44.5s43.833 -32.834 61.5 -51.501
s31.667 -39.167 42 -61.5s15.5 -47.166 15.5 -74.499c0 -24 -4.16699 -46 -12.5 -66s-20.166 -37.333 -35.499 -52s-34.166 -26.167 -56.499 -34.5s-47.5 -12.5 -75.5 -12.5c-34 0 -62.333 4.33301 -85 13s-41.667 18.667 -57 30l23 44
c18.667 -11.333 36.834 -20.333 54.501 -27s38.5 -10 62.5 -10c28.667 0 49.834 9 63.501 27s20.5 43.667 20.5 77c0 23.333 -3 43.666 -9 60.999s-14.333 33.166 -25 47.499s-23.5 27.666 -38.5 39.999s-31.5 25.166 -49.5 38.499l-29 21c-8 6 -14.667 11.833 -20 17.5
s-9.16602 11.5 -11.499 17.5s-3.5 12.667 -3.5 20c0 6.66699 1 12.834 3 18.501s5.33301 11 10 16s10.834 10.333 18.501 16s17.5 12.167 29.5 19.5c23.333 14.667 40.166 30 50.499 46s15.5 36.333 15.5 61c0 36 -8.5 61 -25.5 75s-41.5 21 -73.5 21
c-42 0 -71.333 -13 -88 -39s-25 -64.333 -25 -115v-527h-161v34c14 0.666992 25.667 2.16699 35 4.5s16.5 6 21.5 11s8.5 11.833 10.5 20.5s3 20 3 34v332h-63v32l62 23v46z" />
    <glyph glyph-name="agrave" unicode="&#xe0;" horiz-adv-x="512" 
d="M420 131c0 -18.667 0.833008 -33.8301 2.5 -45.4971s5 -20.834 10 -27.501s12.5 -11.334 22.5 -14.001s23 -4.66699 39 -6v-33c-7.33301 -3.33301 -17.333 -6 -30 -8s-25.667 -3 -39 -3c-18 0 -32.5 1.66699 -43.5 5s-19.833 8.16602 -26.5 14.499
s-11.5 13.833 -14.5 22.5s-5.16699 18.334 -6.5 29.001c-4 -7.33301 -10 -15.666 -18 -24.999s-17.667 -18 -29 -26s-24.5 -14.833 -39.5 -20.5s-31.833 -8.5 -50.5 -8.5c-48 0 -86.833 12.333 -116.5 37s-44.5 60 -44.5 106c0 30 6.33301 55.333 19 76
s30.5 37.167 53.5 49.5s50.5 21.333 82.5 27s67.667 8.5 107 8.5h17c5.33301 0 11.333 -0.333008 18 -1v44c0 42.667 -6.33301 74 -19 94s-36.667 30 -72 30c-21.333 0 -38.833 -2.5 -52.5 -7.5s-25 -11.667 -34 -20s-15.667 -18 -20 -29s-7.5 -22.167 -9.5 -33.5h-63v89
c10.667 6 23.167 12 37.5 18s29.666 11.5 45.999 16.5s33.333 9 51 12s35.167 4.5 52.5 4.5c56.667 0 99.834 -13.333 129.501 -40s44.5 -69.334 44.5 -128.001c0 -7.33301 -0.166992 -18 -0.5 -32s-0.833008 -30.167 -1.5 -48.5s-1.16699 -38.333 -1.5 -60
s-0.5 -43.834 -0.5 -66.501zM331 240.004c-7.33301 0.666992 -13.332 1.16699 -17.999 1.5s-10.334 0.5 -17.001 0.5c-57.333 0 -98.833 -8.33301 -124.5 -25s-38.5 -44 -38.5 -82c0 -36 7 -60.5 21 -73.5s35.667 -19.5 65 -19.5c23.333 0 44.5 7.16699 63.5 21.5
s34.167 31.5 45.5 51.5zM324.001 566.004l-212 96l53 91l179 -153z" />
    <glyph glyph-name="aacute" unicode="&#xe1;" horiz-adv-x="512" 
d="M420 131c0 -18.667 0.833008 -33.8301 2.5 -45.4971s5 -20.834 10 -27.501s12.5 -11.334 22.5 -14.001s23 -4.66699 39 -6v-33c-7.33301 -3.33301 -17.333 -6 -30 -8s-25.667 -3 -39 -3c-18 0 -32.5 1.66699 -43.5 5s-19.833 8.16602 -26.5 14.499
s-11.5 13.833 -14.5 22.5s-5.16699 18.334 -6.5 29.001c-4 -7.33301 -10 -15.666 -18 -24.999s-17.667 -18 -29 -26s-24.5 -14.833 -39.5 -20.5s-31.833 -8.5 -50.5 -8.5c-48 0 -86.833 12.333 -116.5 37s-44.5 60 -44.5 106c0 30 6.33301 55.333 19 76
s30.5 37.167 53.5 49.5s50.5 21.333 82.5 27s67.667 8.5 107 8.5h17c5.33301 0 11.333 -0.333008 18 -1v44c0 42.667 -6.33301 74 -19 94s-36.667 30 -72 30c-21.333 0 -38.833 -2.5 -52.5 -7.5s-25 -11.667 -34 -20s-15.667 -18 -20 -29s-7.5 -22.167 -9.5 -33.5h-63v89
c10.667 6 23.167 12 37.5 18s29.666 11.5 45.999 16.5s33.333 9 51 12s35.167 4.5 52.5 4.5c56.667 0 99.834 -13.333 129.501 -40s44.5 -69.334 44.5 -128.001c0 -7.33301 -0.166992 -18 -0.5 -32s-0.833008 -30.167 -1.5 -48.5s-1.16699 -38.333 -1.5 -60
s-0.5 -43.834 -0.5 -66.501zM331 240.004c-7.33301 0.666992 -13.332 1.16699 -17.999 1.5s-10.334 0.5 -17.001 0.5c-57.333 0 -98.833 -8.33301 -124.5 -25s-38.5 -44 -38.5 -82c0 -36 7 -60.5 21 -73.5s35.667 -19.5 65 -19.5c23.333 0 44.5 7.16699 63.5 21.5
s34.167 31.5 45.5 51.5zM128.001 600.004l179 153l53 -91l-212 -96z" />
    <glyph glyph-name="acircumflex" unicode="&#xe2;" horiz-adv-x="512" 
d="M420 131c0 -18.667 0.833008 -33.8301 2.5 -45.4971s5 -20.834 10 -27.501s12.5 -11.334 22.5 -14.001s23 -4.66699 39 -6v-33c-7.33301 -3.33301 -17.333 -6 -30 -8s-25.667 -3 -39 -3c-18 0 -32.5 1.66699 -43.5 5s-19.833 8.16602 -26.5 14.499
s-11.5 13.833 -14.5 22.5s-5.16699 18.334 -6.5 29.001c-4 -7.33301 -10 -15.666 -18 -24.999s-17.667 -18 -29 -26s-24.5 -14.833 -39.5 -20.5s-31.833 -8.5 -50.5 -8.5c-48 0 -86.833 12.333 -116.5 37s-44.5 60 -44.5 106c0 30 6.33301 55.333 19 76
s30.5 37.167 53.5 49.5s50.5 21.333 82.5 27s67.667 8.5 107 8.5h17c5.33301 0 11.333 -0.333008 18 -1v44c0 42.667 -6.33301 74 -19 94s-36.667 30 -72 30c-21.333 0 -38.833 -2.5 -52.5 -7.5s-25 -11.667 -34 -20s-15.667 -18 -20 -29s-7.5 -22.167 -9.5 -33.5h-63v89
c10.667 6 23.167 12 37.5 18s29.666 11.5 45.999 16.5s33.333 9 51 12s35.167 4.5 52.5 4.5c56.667 0 99.834 -13.333 129.501 -40s44.5 -69.334 44.5 -128.001c0 -7.33301 -0.166992 -18 -0.5 -32s-0.833008 -30.167 -1.5 -48.5s-1.16699 -38.333 -1.5 -60
s-0.5 -43.834 -0.5 -66.501zM331 240.004c-7.33301 0.666992 -13.332 1.16699 -17.999 1.5s-10.334 0.5 -17.001 0.5c-57.333 0 -98.833 -8.33301 -124.5 -25s-38.5 -44 -38.5 -82c0 -36 7 -60.5 21 -73.5s35.667 -19.5 65 -19.5c23.333 0 44.5 7.16699 63.5 21.5
s34.167 31.5 45.5 51.5zM244.001 649.004l-137 -85l-25 30l162 153l162 -153l-25 -30z" />
    <glyph glyph-name="atilde" unicode="&#xe3;" horiz-adv-x="512" 
d="M420 131c0 -18.667 0.833008 -33.8301 2.5 -45.4971s5 -20.834 10 -27.501s12.5 -11.334 22.5 -14.001s23 -4.66699 39 -6v-33c-7.33301 -3.33301 -17.333 -6 -30 -8s-25.667 -3 -39 -3c-18 0 -32.5 1.66699 -43.5 5s-19.833 8.16602 -26.5 14.499
s-11.5 13.833 -14.5 22.5s-5.16699 18.334 -6.5 29.001c-4 -7.33301 -10 -15.666 -18 -24.999s-17.667 -18 -29 -26s-24.5 -14.833 -39.5 -20.5s-31.833 -8.5 -50.5 -8.5c-48 0 -86.833 12.333 -116.5 37s-44.5 60 -44.5 106c0 30 6.33301 55.333 19 76
s30.5 37.167 53.5 49.5s50.5 21.333 82.5 27s67.667 8.5 107 8.5h17c5.33301 0 11.333 -0.333008 18 -1v44c0 42.667 -6.33301 74 -19 94s-36.667 30 -72 30c-21.333 0 -38.833 -2.5 -52.5 -7.5s-25 -11.667 -34 -20s-15.667 -18 -20 -29s-7.5 -22.167 -9.5 -33.5h-63v89
c10.667 6 23.167 12 37.5 18s29.666 11.5 45.999 16.5s33.333 9 51 12s35.167 4.5 52.5 4.5c56.667 0 99.834 -13.333 129.501 -40s44.5 -69.334 44.5 -128.001c0 -7.33301 -0.166992 -18 -0.5 -32s-0.833008 -30.167 -1.5 -48.5s-1.16699 -38.333 -1.5 -60
s-0.5 -43.834 -0.5 -66.501zM331 240.004c-7.33301 0.666992 -13.332 1.16699 -17.999 1.5s-10.334 0.5 -17.001 0.5c-57.333 0 -98.833 -8.33301 -124.5 -25s-38.5 -44 -38.5 -82c0 -36 7 -60.5 21 -73.5s35.667 -19.5 65 -19.5c23.333 0 44.5 7.16699 63.5 21.5
s34.167 31.5 45.5 51.5zM300.001 669.004c16 0 29.166 3.66797 39.499 11.001s19.166 17.666 26.499 30.999l35 -15c-4 -12.667 -9 -25 -15 -37s-13.167 -22.833 -21.5 -32.5s-17.833 -17.334 -28.5 -23.001s-22.667 -8.5 -36 -8.5s-25.666 1.5 -36.999 4.5
s-22 6.33301 -32 10l-28.5 10c-9 3 -17.833 4.5 -26.5 4.5c-17.333 0 -30.5 -4 -39.5 -12s-17.167 -18.667 -24.5 -32l-33 14c2.66699 14 6.83398 27.333 12.501 40s12.5 23.834 20.5 33.501s17.333 17.5 28 23.5s22.667 9 36 9s25.5 -1.66699 36.5 -5
s21.167 -6.83301 30.5 -10.5l28 -10.5c9.33301 -3.33301 19 -5 29 -5z" />
    <glyph glyph-name="adieresis" unicode="&#xe4;" horiz-adv-x="512" 
d="M420 131c0 -18.667 0.833008 -33.8301 2.5 -45.4971s5 -20.834 10 -27.501s12.5 -11.334 22.5 -14.001s23 -4.66699 39 -6v-33c-7.33301 -3.33301 -17.333 -6 -30 -8s-25.667 -3 -39 -3c-18 0 -32.5 1.66699 -43.5 5s-19.833 8.16602 -26.5 14.499
s-11.5 13.833 -14.5 22.5s-5.16699 18.334 -6.5 29.001c-4 -7.33301 -10 -15.666 -18 -24.999s-17.667 -18 -29 -26s-24.5 -14.833 -39.5 -20.5s-31.833 -8.5 -50.5 -8.5c-48 0 -86.833 12.333 -116.5 37s-44.5 60 -44.5 106c0 30 6.33301 55.333 19 76
s30.5 37.167 53.5 49.5s50.5 21.333 82.5 27s67.667 8.5 107 8.5h17c5.33301 0 11.333 -0.333008 18 -1v44c0 42.667 -6.33301 74 -19 94s-36.667 30 -72 30c-21.333 0 -38.833 -2.5 -52.5 -7.5s-25 -11.667 -34 -20s-15.667 -18 -20 -29s-7.5 -22.167 -9.5 -33.5h-63v89
c10.667 6 23.167 12 37.5 18s29.666 11.5 45.999 16.5s33.333 9 51 12s35.167 4.5 52.5 4.5c56.667 0 99.834 -13.333 129.501 -40s44.5 -69.334 44.5 -128.001c0 -7.33301 -0.166992 -18 -0.5 -32s-0.833008 -30.167 -1.5 -48.5s-1.16699 -38.333 -1.5 -60
s-0.5 -43.834 -0.5 -66.501zM331 240.004c-7.33301 0.666992 -13.332 1.16699 -17.999 1.5s-10.334 0.5 -17.001 0.5c-57.333 0 -98.833 -8.33301 -124.5 -25s-38.5 -44 -38.5 -82c0 -36 7 -60.5 21 -73.5s35.667 -19.5 65 -19.5c23.333 0 44.5 7.16699 63.5 21.5
s34.167 31.5 45.5 51.5zM200.001 638.004c0 -17.333 -5.66699 -31.666 -17 -42.999s-25.666 -17 -42.999 -17s-31.666 5.66699 -42.999 17s-17 25.666 -17 42.999s5.66699 31.666 17 42.999s25.666 17 42.999 17s31.666 -5.66699 42.999 -17s17 -25.666 17 -42.999z
M409.001 638.004c0 -17.333 -5.66699 -31.666 -17 -42.999s-25.666 -17 -42.999 -17s-31.666 5.66699 -42.999 17s-17 25.666 -17 42.999s5.66699 31.666 17 42.999s25.666 17 42.999 17s31.666 -5.66699 42.999 -17s17 -25.666 17 -42.999z" />
    <glyph glyph-name="aring" unicode="&#xe5;" horiz-adv-x="512" 
d="M420 131c0 -18.667 0.833008 -33.8301 2.5 -45.4971s5 -20.834 10 -27.501s12.5 -11.334 22.5 -14.001s23 -4.66699 39 -6v-33c-7.33301 -3.33301 -17.333 -6 -30 -8s-25.667 -3 -39 -3c-18 0 -32.5 1.66699 -43.5 5s-19.833 8.16602 -26.5 14.499
s-11.5 13.833 -14.5 22.5s-5.16699 18.334 -6.5 29.001c-4 -7.33301 -10 -15.666 -18 -24.999s-17.667 -18 -29 -26s-24.5 -14.833 -39.5 -20.5s-31.833 -8.5 -50.5 -8.5c-48 0 -86.833 12.333 -116.5 37s-44.5 60 -44.5 106c0 30 6.33301 55.333 19 76
s30.5 37.167 53.5 49.5s50.5 21.333 82.5 27s67.667 8.5 107 8.5h17c5.33301 0 11.333 -0.333008 18 -1v44c0 42.667 -6.33301 74 -19 94s-36.667 30 -72 30c-21.333 0 -38.833 -2.5 -52.5 -7.5s-25 -11.667 -34 -20s-15.667 -18 -20 -29s-7.5 -22.167 -9.5 -33.5h-63v89
c10.667 6 23.167 12 37.5 18s29.666 11.5 45.999 16.5s33.333 9 51 12s35.167 4.5 52.5 4.5c56.667 0 99.834 -13.333 129.501 -40s44.5 -69.334 44.5 -128.001c0 -7.33301 -0.166992 -18 -0.5 -32s-0.833008 -30.167 -1.5 -48.5s-1.16699 -38.333 -1.5 -60
s-0.5 -43.834 -0.5 -66.501zM331 240.004c-7.33301 0.666992 -13.332 1.16699 -17.999 1.5s-10.334 0.5 -17.001 0.5c-57.333 0 -98.833 -8.33301 -124.5 -25s-38.5 -44 -38.5 -82c0 -36 7 -60.5 21 -73.5s35.667 -19.5 65 -19.5c23.333 0 44.5 7.16699 63.5 21.5
s34.167 31.5 45.5 51.5zM243.001 560.004c-30 0 -54.333 9.66699 -73 29s-28 43.666 -28 72.999s9.33301 53.666 28 72.999s43 29 73 29s54.5 -9.66699 73.5 -29s28.5 -43.666 28.5 -72.999s-9.5 -53.666 -28.5 -72.999s-43.5 -29 -73.5 -29zM243.001 729.004
c-18.667 0 -33.5 -6.5 -44.5 -19.5s-16.5 -29.167 -16.5 -48.5c0 -18 5.5 -33.333 16.5 -46s25.833 -19 44.5 -19c19.333 0 34.5 6.33301 45.5 19s16.5 28 16.5 46c0 19.333 -5.5 35.5 -16.5 48.5s-26.167 19.5 -45.5 19.5z" />
    <glyph glyph-name="ae" unicode="&#xe6;" horiz-adv-x="770" 
d="M390 446c19.333 19.333 41.501 34.332 66.501 44.999s52.167 16 81.5 16c63.333 0 112.5 -20.667 147.5 -62s52.5 -100.333 52.5 -177v-27h-319c0.666992 -36 4.16699 -66.333 10.5 -91s16 -44.5 29 -59.5s29.333 -25.667 49 -32s42.5 -9.5 68.5 -9.5
c21.333 0 44.5 4.16699 69.5 12.5s46.167 18.166 63.5 29.499l21 -34c-24 -18.667 -50.667 -34.667 -80 -48s-62 -20 -98 -20c-80 0 -140 27.667 -180 83c-16.667 -24.667 -39 -44.667 -67 -60s-64 -23 -108 -23c-48 0 -86.833 11.667 -116.5 35s-44.5 58 -44.5 104
c0 30 6.33301 55.333 19 76s30.5 37.334 53.5 50.001s50.5 21.834 82.5 27.501s67.667 8.5 107 8.5h29v46c0 20.667 -1.33301 38.5 -4 53.5s-7 27.5 -13 37.5s-14.5 17.333 -25.5 22s-25.167 7 -42.5 7c-21.333 0 -38.833 -2.5 -52.5 -7.5s-25 -11.667 -34 -20
s-15.667 -18 -20 -29s-7.5 -22.167 -9.5 -33.5h-63v89c10.667 6 23.167 12 37.5 18s29.666 11.5 45.999 16.5s33.333 9 51 12s35.167 4.5 52.5 4.5c68 0 114.667 -20 140 -60zM536.001 458.999c-17.333 0 -32.667 -2.83301 -46 -8.5s-25 -15 -35 -28
s-17.833 -30.333 -23.5 -52s-9.5 -48.5 -11.5 -80.5h223c0 61.333 -8.33301 104.833 -25 130.5s-44 38.5 -82 38.5zM219 48.999c50.667 0 92.667 23.999 126 71.999c-7.33301 17.333 -12.166 35.833 -14.499 55.5s-3.83301 41.167 -4.5 64.5h-30
c-57.333 0 -98.833 -8.16699 -124.5 -24.5s-38.5 -43.5 -38.5 -81.5c0 -18 2.33301 -32.5 7 -43.5s11 -19.667 19 -26s17.167 -10.666 27.5 -12.999s21.166 -3.5 32.499 -3.5z" />
    <glyph glyph-name="ccedilla" unicode="&#xe7;" horiz-adv-x="463" 
d="M229 -198c-19.333 0 -35.3311 2.50293 -47.998 7.50293s-23.667 10.833 -33 17.5l16 32c11.333 -7.33301 21.666 -12.166 30.999 -14.499s19.666 -3.5 30.999 -3.5s20.833 2.16699 28.5 6.5s11.5 14.166 11.5 29.499c0 6.66699 -2 12 -6 16s-9.33301 7.33301 -16 10
s-14.167 4.5 -22.5 5.5s-16.833 1.5 -25.5 1.5v21l18 62c-25.333 4.66699 -48.833 13.167 -70.5 25.5s-40.5 28.666 -56.5 48.999s-28.5 44.666 -37.5 72.999s-13.5 60.833 -13.5 97.5c0 43.333 5.83301 81.5 17.5 114.5s27.667 60.667 48 83s44.5 39.166 72.5 50.499
s58.333 17 91 17c38.667 0 70.167 -4.33301 94.5 -13s42.833 -17.334 55.5 -26.001v-92h-68c-5.33301 30 -13.666 51.667 -24.999 65s-31 20 -59 20c-19.333 0 -36.833 -3.33301 -52.5 -10s-29 -17.834 -40 -33.501s-19.667 -36.167 -26 -61.5s-9.5 -56.666 -9.5 -93.999
c0 -40 2.83301 -73.667 8.5 -101s14.334 -49.333 26.001 -66s26.167 -28.667 43.5 -36s37.666 -11 60.999 -11c14.667 0 27.834 1.16699 39.501 3.5s22.667 5.83301 33 10.5s20.166 10.334 29.499 17.001s19.666 14.667 30.999 24l26 -28
c-22 -25.333 -47.167 -45.333 -75.5 -60s-60.833 -22 -97.5 -22h-9l-8 -28c31.333 -2 53.333 -10.333 66 -25s19 -31 19 -49c0 -56.667 -33 -85 -99 -85z" />
    <glyph glyph-name="egrave" unicode="&#xe8;" horiz-adv-x="483" 
d="M289 49c21.333 0 44.5 4.16797 69.5 12.501s46.167 18.166 63.5 29.499l21 -34c-24 -18.667 -50.667 -34.667 -80 -48s-62 -20 -98 -20c-72 0 -128.167 22.667 -168.5 68s-60.5 109.333 -60.5 192c0 40.667 5.5 77 16.5 109s26 59 45 81s41.667 38.833 68 50.5
s54.833 17.5 85.5 17.5c63.333 0 112.5 -20.667 147.5 -62s52.5 -100.333 52.5 -177v-27h-319c0.666992 -36 4.16699 -66.333 10.5 -91s16 -44.5 29 -59.5s29.333 -25.667 49 -32s42.5 -9.5 68.5 -9.5zM249 459.001c-17.333 0 -32.667 -2.83301 -46 -8.5s-25 -15 -35 -28
s-17.833 -30.333 -23.5 -52s-9.5 -48.5 -11.5 -80.5h223c0 61.333 -8.33301 104.833 -25 130.5s-44 38.5 -82 38.5zM335.999 566.001l-212 96l53 91l179 -153z" />
    <glyph glyph-name="eacute" unicode="&#xe9;" horiz-adv-x="483" 
d="M289 49c21.333 0 44.5 4.16797 69.5 12.501s46.167 18.166 63.5 29.499l21 -34c-24 -18.667 -50.667 -34.667 -80 -48s-62 -20 -98 -20c-72 0 -128.167 22.667 -168.5 68s-60.5 109.333 -60.5 192c0 40.667 5.5 77 16.5 109s26 59 45 81s41.667 38.833 68 50.5
s54.833 17.5 85.5 17.5c63.333 0 112.5 -20.667 147.5 -62s52.5 -100.333 52.5 -177v-27h-319c0.666992 -36 4.16699 -66.333 10.5 -91s16 -44.5 29 -59.5s29.333 -25.667 49 -32s42.5 -9.5 68.5 -9.5zM249 459.001c-17.333 0 -32.667 -2.83301 -46 -8.5s-25 -15 -35 -28
s-17.833 -30.333 -23.5 -52s-9.5 -48.5 -11.5 -80.5h223c0 61.333 -8.33301 104.833 -25 130.5s-44 38.5 -82 38.5zM138.999 600.001l179 153l53 -91l-212 -96z" />
    <glyph glyph-name="ecircumflex" unicode="&#xea;" horiz-adv-x="483" 
d="M289 49c21.333 0 44.5 4.16797 69.5 12.501s46.167 18.166 63.5 29.499l21 -34c-24 -18.667 -50.667 -34.667 -80 -48s-62 -20 -98 -20c-72 0 -128.167 22.667 -168.5 68s-60.5 109.333 -60.5 192c0 40.667 5.5 77 16.5 109s26 59 45 81s41.667 38.833 68 50.5
s54.833 17.5 85.5 17.5c63.333 0 112.5 -20.667 147.5 -62s52.5 -100.333 52.5 -177v-27h-319c0.666992 -36 4.16699 -66.333 10.5 -91s16 -44.5 29 -59.5s29.333 -25.667 49 -32s42.5 -9.5 68.5 -9.5zM249 459.001c-17.333 0 -32.667 -2.83301 -46 -8.5s-25 -15 -35 -28
s-17.833 -30.333 -23.5 -52s-9.5 -48.5 -11.5 -80.5h223c0 61.333 -8.33301 104.833 -25 130.5s-44 38.5 -82 38.5zM248.999 649.001l-137 -85l-25 30l162 153l162 -153l-25 -30z" />
    <glyph glyph-name="edieresis" unicode="&#xeb;" horiz-adv-x="483" 
d="M289 49c21.333 0 44.5 4.16797 69.5 12.501s46.167 18.166 63.5 29.499l21 -34c-24 -18.667 -50.667 -34.667 -80 -48s-62 -20 -98 -20c-72 0 -128.167 22.667 -168.5 68s-60.5 109.333 -60.5 192c0 40.667 5.5 77 16.5 109s26 59 45 81s41.667 38.833 68 50.5
s54.833 17.5 85.5 17.5c63.333 0 112.5 -20.667 147.5 -62s52.5 -100.333 52.5 -177v-27h-319c0.666992 -36 4.16699 -66.333 10.5 -91s16 -44.5 29 -59.5s29.333 -25.667 49 -32s42.5 -9.5 68.5 -9.5zM249 459.001c-17.333 0 -32.667 -2.83301 -46 -8.5s-25 -15 -35 -28
s-17.833 -30.333 -23.5 -52s-9.5 -48.5 -11.5 -80.5h223c0 61.333 -8.33301 104.833 -25 130.5s-44 38.5 -82 38.5zM204.999 638.001c0 -17.333 -5.66699 -31.666 -17 -42.999s-25.666 -17 -42.999 -17s-31.666 5.66699 -42.999 17s-17 25.666 -17 42.999
s5.66699 31.666 17 42.999s25.666 17 42.999 17s31.666 -5.66699 42.999 -17s17 -25.666 17 -42.999zM413.999 638.001c0 -17.333 -5.66699 -31.666 -17 -42.999s-25.666 -17 -42.999 -17s-31.666 5.66699 -42.999 17s-17 25.666 -17 42.999s5.66699 31.666 17 42.999
s25.666 17 42.999 17s31.666 -5.66699 42.999 -17s17 -25.666 17 -42.999z" />
    <glyph glyph-name="igrave" unicode="&#xec;" horiz-adv-x="286" 
d="M29 0v34c14 0.666992 25.667 2.16699 35 4.5s16.5 6 21.5 11s8.5 11.833 10.5 20.5s3 20 3 34v245c0 18 -1 32.5 -3 43.5s-5.83301 19.5 -11.5 25.5s-13.167 10 -22.5 12s-21.333 3.33301 -36 4v30l149 40h15v-400c0 -14 0.666992 -25.5 2 -34.5s4.5 -16 9.5 -21
s12 -8.5 21 -10.5s21.5 -3.33301 37.5 -4v-34h-231zM227 566l-212 96l53 91l179 -153z" />
    <glyph glyph-name="iacute" unicode="&#xed;" horiz-adv-x="286" 
d="M29 0v34c14 0.666992 25.667 2.16699 35 4.5s16.5 6 21.5 11s8.5 11.833 10.5 20.5s3 20 3 34v245c0 18 -1 32.5 -3 43.5s-5.83301 19.5 -11.5 25.5s-13.167 10 -22.5 12s-21.333 3.33301 -36 4v30l149 40h15v-400c0 -14 0.666992 -25.5 2 -34.5s4.5 -16 9.5 -21
s12 -8.5 21 -10.5s21.5 -3.33301 37.5 -4v-34h-231zM28 600l179 153l53 -91l-212 -96z" />
    <glyph glyph-name="icircumflex" unicode="&#xee;" horiz-adv-x="286" 
d="M29 0v34c14 0.666992 25.667 2.16699 35 4.5s16.5 6 21.5 11s8.5 11.833 10.5 20.5s3 20 3 34v245c0 18 -1 32.5 -3 43.5s-5.83301 19.5 -11.5 25.5s-13.167 10 -22.5 12s-21.333 3.33301 -36 4v30l149 40h15v-400c0 -14 0.666992 -25.5 2 -34.5s4.5 -16 9.5 -21
s12 -8.5 21 -10.5s21.5 -3.33301 37.5 -4v-34h-231zM143 649l-137 -85l-25 30l162 153l162 -153l-25 -30z" />
    <glyph glyph-name="idieresis" unicode="&#xef;" horiz-adv-x="286" 
d="M29 0v34c14 0.666992 25.667 2.16699 35 4.5s16.5 6 21.5 11s8.5 11.833 10.5 20.5s3 20 3 34v245c0 18 -1 32.5 -3 43.5s-5.83301 19.5 -11.5 25.5s-13.167 10 -22.5 12s-21.333 3.33301 -36 4v30l149 40h15v-400c0 -14 0.666992 -25.5 2 -34.5s4.5 -16 9.5 -21
s12 -8.5 21 -10.5s21.5 -3.33301 37.5 -4v-34h-231zM100 638c0 -17.333 -5.66699 -31.666 -17 -42.999s-25.666 -17 -42.999 -17s-31.666 5.66699 -42.999 17s-17 25.666 -17 42.999s5.66699 31.666 17 42.999s25.666 17 42.999 17s31.666 -5.66699 42.999 -17
s17 -25.666 17 -42.999zM309 638c0 -17.333 -5.66699 -31.666 -17 -42.999s-25.666 -17 -42.999 -17s-31.666 5.66699 -42.999 17s-17 25.666 -17 42.999s5.66699 31.666 17 42.999s25.666 17 42.999 17s31.666 -5.66699 42.999 -17s17 -25.666 17 -42.999z" />
    <glyph glyph-name="eth" unicode="&#xf0;" horiz-adv-x="535" 
d="M108 573l121.997 49.998c-35.333 22.667 -79.666 42 -132.999 58l15 37c34 -8 66.5 -17.5 97.5 -28.5s59.833 -24.167 86.5 -39.5l127 51l17 -38l-100 -41c48.667 -35.333 86.834 -81.833 114.501 -139.5s41.5 -130.834 41.5 -219.501c0 -45.333 -5.66699 -85 -17 -119
s-27.333 -62.667 -48 -86s-45 -40.833 -73 -52.5s-58.667 -17.5 -92 -17.5s-64.166 6.16699 -92.499 18.5s-52.666 29.833 -72.999 52.5s-36.166 49.834 -47.499 81.501s-17 66.834 -17 105.501c0 40.667 6.16699 77.167 18.5 109.5s29.166 59.5 50.499 81.5
s46.166 38.833 74.499 50.5s58.5 17.5 90.5 17.5c14.667 0 29.5 -2.16699 44.5 -6.5s29.167 -10.166 42.5 -17.499c-10 21.333 -22 41.333 -36 60s-30.667 36 -50 52l-146 -59zM397.997 252.998c0 30 -1.33398 59.166 -4.00098 87.499s-7.66699 55.5 -15 81.5
c-17.333 10.667 -34.333 19 -51 25s-34 9 -52 9c-50 0 -86.167 -18.167 -108.5 -54.5s-33.5 -87.5 -33.5 -153.5c0 -33.333 2.33301 -63 7 -89s12.334 -48 23.001 -66s24.5 -31.833 41.5 -41.5s37.833 -14.5 62.5 -14.5c43.333 0 75.833 18.333 97.5 55
s32.5 90.334 32.5 161.001z" />
    <glyph glyph-name="ntilde" unicode="&#xf1;" horiz-adv-x="583" 
d="M492 104c0 -14 0.833008 -25.3359 2.5 -34.0029s5 -15.5 10 -20.5s11.667 -8.66699 20 -11s19.166 -3.83301 32.499 -4.5v-34h-226v34c16 0.666992 28.5 2 37.5 4s16 5.33301 21 10s8.16699 11 9.5 19s2 18 2 30v254c0 30 -6.16699 51.167 -18.5 63.5
s-30.5 18.5 -54.5 18.5c-30 0 -55.5 -5.66699 -76.5 -17s-41.5 -26.666 -61.5 -45.999v-273c0 -12 0.666992 -22 2 -30s4.5 -14.333 9.5 -19s12 -8 21 -10s21.5 -3.33301 37.5 -4v-34h-231v34c14 0.666992 25.667 2.16699 35 4.5s16.5 6 21.5 11s8.5 11.833 10.5 20.5
s3 20 3 34v245c0 18 -1 32.5 -3 43.5s-5.83301 19.5 -11.5 25.5s-13.167 10 -22.5 12s-21.333 3.33301 -36 4v30l128 40h15c3.33301 -8 6.83301 -20.167 10.5 -36.5s5.83398 -33.166 6.50098 -50.499c11.333 12 23 23.167 35 33.5s25 19.333 39 27
s28.833 13.834 44.5 18.501s33.167 7 52.5 7c40 0 72.5 -11.333 97.5 -34s37.5 -56 37.5 -100v-265zM352 668.997c16 0 29.166 3.66797 39.499 11.001s19.166 17.666 26.499 30.999l35 -15c-4 -12.667 -9 -25 -15 -37s-13.167 -22.833 -21.5 -32.5
s-17.833 -17.334 -28.5 -23.001s-22.667 -8.5 -36 -8.5s-25.666 1.5 -36.999 4.5s-22 6.33301 -32 10l-28.5 10c-9 3 -17.833 4.5 -26.5 4.5c-17.333 0 -30.5 -4 -39.5 -12s-17.167 -18.667 -24.5 -32l-33 14c2.66699 14 6.83398 27.333 12.501 40s12.5 23.834 20.5 33.501
s17.333 17.5 28 23.5s22.667 9 36 9s25.5 -1.66699 36.5 -5s21.167 -6.83301 30.5 -10.5l28 -10.5c9.33301 -3.33301 19 -5 29 -5z" />
    <glyph glyph-name="ograve" unicode="&#xf2;" horiz-adv-x="532" 
d="M496 242c0 -40 -5.66895 -75.666 -17.002 -106.999s-27.333 -57.833 -48 -79.5s-45 -38.334 -73 -50.001s-58.667 -17.5 -92 -17.5s-64.166 5.83301 -92.499 17.5s-52.666 28.667 -72.999 51s-36.166 49.5 -47.499 81.5s-17 68.333 -17 109s5.66699 77 17 109
s27.166 59.167 47.499 81.5s44.333 39.333 72 51s58.167 17.5 91.5 17.5c36.667 0 69.5 -6.66699 98.5 -20s53.333 -31.833 73 -55.5s34.667 -51.5 45 -83.5s15.5 -67 15.5 -105zM397.998 238.001c0 76.667 -11.333 132.332 -34 166.999s-56 52 -100 52
c-25.333 0 -46.333 -4.66699 -63 -14s-30 -22.5 -40 -39.5s-17 -38 -21 -63s-6 -52.833 -6 -83.5c0 -76 10 -131.667 30 -167s54.667 -53 104 -53c43.333 0 75.833 17.333 97.5 52s32.5 84.334 32.5 149.001zM347.998 565.999l-212 96l53 91l179 -153z" />
    <glyph glyph-name="oacute" unicode="&#xf3;" horiz-adv-x="532" 
d="M496 242c0 -40 -5.66895 -75.666 -17.002 -106.999s-27.333 -57.833 -48 -79.5s-45 -38.334 -73 -50.001s-58.667 -17.5 -92 -17.5s-64.166 5.83301 -92.499 17.5s-52.666 28.667 -72.999 51s-36.166 49.5 -47.499 81.5s-17 68.333 -17 109s5.66699 77 17 109
s27.166 59.167 47.499 81.5s44.333 39.333 72 51s58.167 17.5 91.5 17.5c36.667 0 69.5 -6.66699 98.5 -20s53.333 -31.833 73 -55.5s34.667 -51.5 45 -83.5s15.5 -67 15.5 -105zM397.998 238.001c0 76.667 -11.333 132.332 -34 166.999s-56 52 -100 52
c-25.333 0 -46.333 -4.66699 -63 -14s-30 -22.5 -40 -39.5s-17 -38 -21 -63s-6 -52.833 -6 -83.5c0 -76 10 -131.667 30 -167s54.667 -53 104 -53c43.333 0 75.833 17.333 97.5 52s32.5 84.334 32.5 149.001zM149.998 599.999l179 153l53 -91l-212 -96z" />
    <glyph glyph-name="ocircumflex" unicode="&#xf4;" horiz-adv-x="532" 
d="M496 242c0 -40 -5.66895 -75.666 -17.002 -106.999s-27.333 -57.833 -48 -79.5s-45 -38.334 -73 -50.001s-58.667 -17.5 -92 -17.5s-64.166 5.83301 -92.499 17.5s-52.666 28.667 -72.999 51s-36.166 49.5 -47.499 81.5s-17 68.333 -17 109s5.66699 77 17 109
s27.166 59.167 47.499 81.5s44.333 39.333 72 51s58.167 17.5 91.5 17.5c36.667 0 69.5 -6.66699 98.5 -20s53.333 -31.833 73 -55.5s34.667 -51.5 45 -83.5s15.5 -67 15.5 -105zM397.998 238.001c0 76.667 -11.333 132.332 -34 166.999s-56 52 -100 52
c-25.333 0 -46.333 -4.66699 -63 -14s-30 -22.5 -40 -39.5s-17 -38 -21 -63s-6 -52.833 -6 -83.5c0 -76 10 -131.667 30 -167s54.667 -53 104 -53c43.333 0 75.833 17.333 97.5 52s32.5 84.334 32.5 149.001zM264.998 648.999l-137 -85l-25 30l162 153l162 -153l-25 -30z
" />
    <glyph glyph-name="otilde" unicode="&#xf5;" horiz-adv-x="532" 
d="M496 242c0 -40 -5.66895 -75.666 -17.002 -106.999s-27.333 -57.833 -48 -79.5s-45 -38.334 -73 -50.001s-58.667 -17.5 -92 -17.5s-64.166 5.83301 -92.499 17.5s-52.666 28.667 -72.999 51s-36.166 49.5 -47.499 81.5s-17 68.333 -17 109s5.66699 77 17 109
s27.166 59.167 47.499 81.5s44.333 39.333 72 51s58.167 17.5 91.5 17.5c36.667 0 69.5 -6.66699 98.5 -20s53.333 -31.833 73 -55.5s34.667 -51.5 45 -83.5s15.5 -67 15.5 -105zM397.998 238.001c0 76.667 -11.333 132.332 -34 166.999s-56 52 -100 52
c-25.333 0 -46.333 -4.66699 -63 -14s-30 -22.5 -40 -39.5s-17 -38 -21 -63s-6 -52.833 -6 -83.5c0 -76 10 -131.667 30 -167s54.667 -53 104 -53c43.333 0 75.833 17.333 97.5 52s32.5 84.334 32.5 149.001zM328.998 668.999c16 0 29.166 3.66797 39.499 11.001
s19.166 17.666 26.499 30.999l35 -15c-4 -12.667 -9 -25 -15 -37s-13.167 -22.833 -21.5 -32.5s-17.833 -17.334 -28.5 -23.001s-22.667 -8.5 -36 -8.5s-25.666 1.5 -36.999 4.5s-22 6.33301 -32 10l-28.5 10c-9 3 -17.833 4.5 -26.5 4.5c-17.333 0 -30.5 -4 -39.5 -12
s-17.167 -18.667 -24.5 -32l-33 14c2.66699 14 6.83398 27.333 12.501 40s12.5 23.834 20.5 33.501s17.333 17.5 28 23.5s22.667 9 36 9s25.5 -1.66699 36.5 -5s21.167 -6.83301 30.5 -10.5l28 -10.5c9.33301 -3.33301 19 -5 29 -5z" />
    <glyph glyph-name="odieresis" unicode="&#xf6;" horiz-adv-x="532" 
d="M496 242c0 -40 -5.66895 -75.666 -17.002 -106.999s-27.333 -57.833 -48 -79.5s-45 -38.334 -73 -50.001s-58.667 -17.5 -92 -17.5s-64.166 5.83301 -92.499 17.5s-52.666 28.667 -72.999 51s-36.166 49.5 -47.499 81.5s-17 68.333 -17 109s5.66699 77 17 109
s27.166 59.167 47.499 81.5s44.333 39.333 72 51s58.167 17.5 91.5 17.5c36.667 0 69.5 -6.66699 98.5 -20s53.333 -31.833 73 -55.5s34.667 -51.5 45 -83.5s15.5 -67 15.5 -105zM397.998 238.001c0 76.667 -11.333 132.332 -34 166.999s-56 52 -100 52
c-25.333 0 -46.333 -4.66699 -63 -14s-30 -22.5 -40 -39.5s-17 -38 -21 -63s-6 -52.833 -6 -83.5c0 -76 10 -131.667 30 -167s54.667 -53 104 -53c43.333 0 75.833 17.333 97.5 52s32.5 84.334 32.5 149.001zM221.998 637.999c0 -17.333 -5.66699 -31.666 -17 -42.999
s-25.666 -17 -42.999 -17s-31.666 5.66699 -42.999 17s-17 25.666 -17 42.999s5.66699 31.666 17 42.999s25.666 17 42.999 17s31.666 -5.66699 42.999 -17s17 -25.666 17 -42.999zM430.998 637.999c0 -17.333 -5.66699 -31.666 -17 -42.999s-25.666 -17 -42.999 -17
s-31.666 5.66699 -42.999 17s-17 25.666 -17 42.999s5.66699 31.666 17 42.999s25.666 17 42.999 17s31.666 -5.66699 42.999 -17s17 -25.666 17 -42.999z" />
    <glyph glyph-name="divide" unicode="&#xf7;" horiz-adv-x="615" 
d="M372 482c0 -19.333 -6.33301 -35.333 -19 -48s-27.667 -19 -45 -19c-18 0 -33.167 6.16699 -45.5 18.5s-18.5 27.833 -18.5 46.5c0 18 6.16699 33.5 18.5 46.5s27.5 19.5 45.5 19.5c17.333 0 32.333 -6.33301 45 -19s19 -27.667 19 -45zM55 298h505v-53h-505v53zM372 56
c0 -19.333 -6.33301 -35.333 -19 -48s-27.667 -19 -45 -19c-18 0 -33.167 6.16699 -45.5 18.5s-18.5 27.833 -18.5 46.5c0 18 6.16699 33.5 18.5 46.5s27.5 19.5 45.5 19.5c17.333 0 32.333 -6.33301 45 -19s19 -27.667 19 -45z" />
    <glyph glyph-name="oslash" unicode="&#xf8;" horiz-adv-x="532" 
d="M415 451c26.667 -23.333 46.833 -53 60.5 -89s20.5 -76 20.5 -120c0 -40 -5.66699 -75.667 -17 -107s-27.333 -57.833 -48 -79.5s-45 -38.334 -73 -50.001s-58.667 -17.5 -92 -17.5c-21.333 0 -41.5 2.33301 -60.5 7s-36.833 11.334 -53.5 20.001l-52 -87l-37 22l54 90
c-25.333 22 -45.166 50.5 -59.499 85.5s-21.5 75.5 -21.5 121.5c0 40.667 5.66699 77 17 109s27.166 59.167 47.499 81.5s44.333 39.333 72 51s58.167 17.5 91.5 17.5c42.667 0 80.667 -9.33301 114 -28l50 84l40 -23zM133.999 257c0 -32.667 1.66699 -61.5 5 -86.5
s9 -46.5 17 -64.5l191 320c-21.333 20.667 -49 31 -83 31c-25.333 0 -46.333 -4.66699 -63 -14s-30 -22.5 -40 -39.5s-17 -38 -21 -63s-6 -52.833 -6 -83.5zM397.999 238c0 62 -7.99902 110.666 -23.999 145.999l-191 -318c19.333 -19.333 47.666 -29 84.999 -29
c43.333 0 75.833 17.333 97.5 52s32.5 84.334 32.5 149.001z" />
    <glyph glyph-name="ugrave" unicode="&#xf9;" horiz-adv-x="580" 
d="M481 138c0 -18 1.00098 -32.502 3.00098 -43.502s5.83301 -19.5 11.5 -25.5s13.167 -10 22.5 -12s21.333 -3.33301 36 -4v-30l-121 -36h-15c-5.33301 13.333 -10 27.333 -14 42s-6.66699 30.334 -8 47.001c-11.333 -12 -22.833 -23.333 -34.5 -34s-24.167 -20 -37.5 -28
s-27.833 -14.333 -43.5 -19s-32.834 -7 -51.501 -7c-40 0 -73 10.667 -99 32s-39 55 -39 101v228c0 18 -1 32.5 -3 43.5s-5.66699 19.5 -11 25.5s-12.5 10 -21.5 12s-20.5 3.33301 -34.5 4v30l139 40h22v-366c0 -31.333 6.5 -52.666 19.5 -63.999s31.5 -17 55.5 -17
c30 0 54.667 5.83301 74 17.5s39 27.167 59 46.5v228c0 18 -1 32.5 -3 43.5s-5.66699 19.5 -11 25.5s-12.5 10 -21.5 12s-20.5 3.33301 -34.5 4v30l139 40h22v-366zM370.001 565.998l-212 96l53 91l179 -153z" />
    <glyph glyph-name="uacute" unicode="&#xfa;" horiz-adv-x="580" 
d="M481 138c0 -18 1.00098 -32.502 3.00098 -43.502s5.83301 -19.5 11.5 -25.5s13.167 -10 22.5 -12s21.333 -3.33301 36 -4v-30l-121 -36h-15c-5.33301 13.333 -10 27.333 -14 42s-6.66699 30.334 -8 47.001c-11.333 -12 -22.833 -23.333 -34.5 -34s-24.167 -20 -37.5 -28
s-27.833 -14.333 -43.5 -19s-32.834 -7 -51.501 -7c-40 0 -73 10.667 -99 32s-39 55 -39 101v228c0 18 -1 32.5 -3 43.5s-5.66699 19.5 -11 25.5s-12.5 10 -21.5 12s-20.5 3.33301 -34.5 4v30l139 40h22v-366c0 -31.333 6.5 -52.666 19.5 -63.999s31.5 -17 55.5 -17
c30 0 54.667 5.83301 74 17.5s39 27.167 59 46.5v228c0 18 -1 32.5 -3 43.5s-5.66699 19.5 -11 25.5s-12.5 10 -21.5 12s-20.5 3.33301 -34.5 4v30l139 40h22v-366zM171.001 599.998l179 153l53 -91l-212 -96z" />
    <glyph glyph-name="ucircumflex" unicode="&#xfb;" horiz-adv-x="580" 
d="M481 138c0 -18 1.00098 -32.502 3.00098 -43.502s5.83301 -19.5 11.5 -25.5s13.167 -10 22.5 -12s21.333 -3.33301 36 -4v-30l-121 -36h-15c-5.33301 13.333 -10 27.333 -14 42s-6.66699 30.334 -8 47.001c-11.333 -12 -22.833 -23.333 -34.5 -34s-24.167 -20 -37.5 -28
s-27.833 -14.333 -43.5 -19s-32.834 -7 -51.501 -7c-40 0 -73 10.667 -99 32s-39 55 -39 101v228c0 18 -1 32.5 -3 43.5s-5.66699 19.5 -11 25.5s-12.5 10 -21.5 12s-20.5 3.33301 -34.5 4v30l139 40h22v-366c0 -31.333 6.5 -52.666 19.5 -63.999s31.5 -17 55.5 -17
c30 0 54.667 5.83301 74 17.5s39 27.167 59 46.5v228c0 18 -1 32.5 -3 43.5s-5.66699 19.5 -11 25.5s-12.5 10 -21.5 12s-20.5 3.33301 -34.5 4v30l139 40h22v-366zM286.001 648.998l-137 -85l-25 30l162 153l162 -153l-25 -30z" />
    <glyph glyph-name="udieresis" unicode="&#xfc;" horiz-adv-x="580" 
d="M481 138c0 -18 1.00098 -32.502 3.00098 -43.502s5.83301 -19.5 11.5 -25.5s13.167 -10 22.5 -12s21.333 -3.33301 36 -4v-30l-121 -36h-15c-5.33301 13.333 -10 27.333 -14 42s-6.66699 30.334 -8 47.001c-11.333 -12 -22.833 -23.333 -34.5 -34s-24.167 -20 -37.5 -28
s-27.833 -14.333 -43.5 -19s-32.834 -7 -51.501 -7c-40 0 -73 10.667 -99 32s-39 55 -39 101v228c0 18 -1 32.5 -3 43.5s-5.66699 19.5 -11 25.5s-12.5 10 -21.5 12s-20.5 3.33301 -34.5 4v30l139 40h22v-366c0 -31.333 6.5 -52.666 19.5 -63.999s31.5 -17 55.5 -17
c30 0 54.667 5.83301 74 17.5s39 27.167 59 46.5v228c0 18 -1 32.5 -3 43.5s-5.66699 19.5 -11 25.5s-12.5 10 -21.5 12s-20.5 3.33301 -34.5 4v30l139 40h22v-366zM243.001 637.998c0 -17.333 -5.66699 -31.666 -17 -42.999s-25.666 -17 -42.999 -17
s-31.666 5.66699 -42.999 17s-17 25.666 -17 42.999s5.66699 31.666 17 42.999s25.666 17 42.999 17s31.666 -5.66699 42.999 -17s17 -25.666 17 -42.999zM452.001 637.998c0 -17.333 -5.66699 -31.666 -17 -42.999s-25.666 -17 -42.999 -17s-31.666 5.66699 -42.999 17
s-17 25.666 -17 42.999s5.66699 31.666 17 42.999s25.666 17 42.999 17s31.666 -5.66699 42.999 -17s17 -25.666 17 -42.999z" />
    <glyph glyph-name="yacute" unicode="&#xfd;" horiz-adv-x="505" 
d="M81 -144c18.667 4.66699 36.1729 9.99902 52.5059 15.999s31 14.167 44 24.5s24.667 23.833 35 40.5s19.5 38.334 27.5 65.001l-36 -5c-6.66699 26 -14 52.667 -22 80s-18 58 -30 92l-80 218c-9.33301 25.333 -19 42.666 -29 51.999s-24.667 15.333 -44 18v34h222v-34
c-24.667 -1.33301 -41.5 -4.33301 -50.5 -9s-13.5 -12 -13.5 -22c0 -3.33301 0.666992 -7.33301 2 -12s3 -10 5 -16l72 -202c10.667 -30 18.667 -56.667 24 -80s9 -40.666 11 -51.999h3c1.33301 8 4.16602 21.5 8.49902 40.5s11.166 42.5 20.499 70.5l72 223
c2.66699 8.66699 4.66699 16.334 6 23.001c1.33301 12 -2 20.667 -10 26s-25.667 8.66602 -53 9.99902v34h188v-34c-10 -1.33301 -18.5 -3.16602 -25.5 -5.49902s-13.333 -6 -19 -11s-10.667 -11.833 -15 -20.5s-8.83301 -19.667 -13.5 -33l-140 -403
c-10.667 -30 -21.834 -56.333 -33.501 -79s-24.834 -41.834 -39.501 -57.501s-31.334 -28.5 -50.001 -38.5s-40.334 -17.333 -65.001 -22zM155.006 599.999l179 153l53 -91l-212 -96z" />
    <glyph glyph-name="thorn" unicode="&#xfe;" horiz-adv-x="556" 
d="M422 236c0 38.667 -2.16699 70.9961 -6.5 96.9961s-11 46.833 -20 62.5s-20.833 26.834 -35.5 33.501s-32 10 -52 10c-23.333 0 -45.833 -5.16699 -67.5 -15.5s-42.5 -26.5 -62.5 -48.5v-271c15.333 -19.333 33.833 -34.166 55.5 -44.499s42.167 -15.5 61.5 -15.5
c20.667 0 39 2.83301 55 8.5s29.333 15.834 40 30.501s18.667 34.334 24 59.001s8 56 8 94zM151 729.996l15.001 -0.00195312c3.33301 -10 6.16602 -24.167 8.49902 -42.5s3.5 -37.166 3.5 -56.499v-206c18.667 24 40.5 43 65.5 57s53.833 21 86.5 21
c26.667 0 51.5 -4.83301 74.5 -14.5s43 -24.667 60 -45s30.5 -46.166 40.5 -77.499s15 -68.333 15 -111c0 -39.333 -4.5 -74.833 -13.5 -106.5s-22 -59 -39 -82s-38.333 -40.667 -64 -53s-54.834 -18.5 -87.501 -18.5c-25.333 0 -49.833 4.5 -73.5 13.5
s-45.167 23.5 -64.5 43.5v-145c0 -13.333 0.833008 -24.333 2.5 -33s5.33398 -15.5 11.001 -20.5s13.5 -8.66699 23.5 -11s23.667 -3.83301 41 -4.5v-34h-239v34c14 0.666992 25.667 2.16699 35 4.5s16.5 6 21.5 11s8.5 11.833 10.5 20.5s3 20 3 34v676
c0 18 -1.16699 32.5 -3.5 43.5s-6.5 19.5 -12.5 25.5s-14.167 10 -24.5 12s-23.5 3.33301 -39.5 4v32z" />
    <glyph glyph-name="ydieresis" unicode="&#xff;" horiz-adv-x="505" 
d="M81 -144c18.667 4.66699 36.1729 9.99902 52.5059 15.999s31 14.167 44 24.5s24.667 23.833 35 40.5s19.5 38.334 27.5 65.001l-36 -5c-6.66699 26 -14 52.667 -22 80s-18 58 -30 92l-80 218c-9.33301 25.333 -19 42.666 -29 51.999s-24.667 15.333 -44 18v34h222v-34
c-24.667 -1.33301 -41.5 -4.33301 -50.5 -9s-13.5 -12 -13.5 -22c0 -3.33301 0.666992 -7.33301 2 -12s3 -10 5 -16l72 -202c10.667 -30 18.667 -56.667 24 -80s9 -40.666 11 -51.999h3c1.33301 8 4.16602 21.5 8.49902 40.5s11.166 42.5 20.499 70.5l72 223
c2.66699 8.66699 4.66699 16.334 6 23.001c1.33301 12 -2 20.667 -10 26s-25.667 8.66602 -53 9.99902v34h188v-34c-10 -1.33301 -18.5 -3.16602 -25.5 -5.49902s-13.333 -6 -19 -11s-10.667 -11.833 -15 -20.5s-8.83301 -19.667 -13.5 -33l-140 -403
c-10.667 -30 -21.834 -56.333 -33.501 -79s-24.834 -41.834 -39.501 -57.501s-31.334 -28.5 -50.001 -38.5s-40.334 -17.333 -65.001 -22zM226.006 637.999c0 -17.333 -5.66699 -31.666 -17 -42.999s-25.666 -17 -42.999 -17s-31.666 5.66699 -42.999 17
s-17 25.666 -17 42.999s5.66699 31.666 17 42.999s25.666 17 42.999 17s31.666 -5.66699 42.999 -17s17 -25.666 17 -42.999zM435.006 637.999c0 -17.333 -5.66699 -31.666 -17 -42.999s-25.666 -17 -42.999 -17s-31.666 5.66699 -42.999 17s-17 25.666 -17 42.999
s5.66699 31.666 17 42.999s25.666 17 42.999 17s31.666 -5.66699 42.999 -17s17 -25.666 17 -42.999z" />
    <glyph glyph-name="Amacron" unicode="&#x100;" horiz-adv-x="657" 
d="M426 215l-229.997 -0.00195312l-33 -108c-4 -14 -6 -25.667 -6 -35c0 -14.667 5.83301 -24.167 17.5 -28.5s30.167 -7.16602 55.5 -8.49902v-35h-214v35c12 0.666992 22.167 2.5 30.5 5.5s15.666 7.66699 21.999 14s12.166 14.833 17.499 25.5
s10.666 24.334 15.999 41.001l184 568h89l182 -566c4.66699 -14 9.16699 -26.333 13.5 -37s9.5 -19.5 15.5 -26.5s13.333 -12.667 22 -17s19.667 -6.83301 33 -7.5v-35h-245v35c24 1.33301 41.333 5 52 11s16 16.333 16 31c0 5.33301 -0.5 10.833 -1.5 16.5
s-2.16699 10.167 -3.5 13.5zM211.003 262.998h201l-45 148c-13.333 44 -24.5 83 -33.5 117s-15.167 58.667 -18.5 74h-4l-20.5 -76c-8.33301 -30.667 -19.5 -69 -33.5 -115zM188.003 768.998v57h281v-57h-281z" />
    <glyph glyph-name="amacron" unicode="&#x101;" horiz-adv-x="512" 
d="M420 131c0 -18.667 0.833008 -33.8301 2.5 -45.4971s5 -20.834 10 -27.501s12.5 -11.334 22.5 -14.001s23 -4.66699 39 -6v-33c-7.33301 -3.33301 -17.333 -6 -30 -8s-25.667 -3 -39 -3c-18 0 -32.5 1.66699 -43.5 5s-19.833 8.16602 -26.5 14.499
s-11.5 13.833 -14.5 22.5s-5.16699 18.334 -6.5 29.001c-4 -7.33301 -10 -15.666 -18 -24.999s-17.667 -18 -29 -26s-24.5 -14.833 -39.5 -20.5s-31.833 -8.5 -50.5 -8.5c-48 0 -86.833 12.333 -116.5 37s-44.5 60 -44.5 106c0 30 6.33301 55.333 19 76
s30.5 37.167 53.5 49.5s50.5 21.333 82.5 27s67.667 8.5 107 8.5h17c5.33301 0 11.333 -0.333008 18 -1v44c0 42.667 -6.33301 74 -19 94s-36.667 30 -72 30c-21.333 0 -38.833 -2.5 -52.5 -7.5s-25 -11.667 -34 -20s-15.667 -18 -20 -29s-7.5 -22.167 -9.5 -33.5h-63v89
c10.667 6 23.167 12 37.5 18s29.666 11.5 45.999 16.5s33.333 9 51 12s35.167 4.5 52.5 4.5c56.667 0 99.834 -13.333 129.501 -40s44.5 -69.334 44.5 -128.001c0 -7.33301 -0.166992 -18 -0.5 -32s-0.833008 -30.167 -1.5 -48.5s-1.16699 -38.333 -1.5 -60
s-0.5 -43.834 -0.5 -66.501zM331 240.004c-7.33301 0.666992 -13.332 1.16699 -17.999 1.5s-10.334 0.5 -17.001 0.5c-57.333 0 -98.833 -8.33301 -124.5 -25s-38.5 -44 -38.5 -82c0 -36 7 -60.5 21 -73.5s35.667 -19.5 65 -19.5c23.333 0 44.5 7.16699 63.5 21.5
s34.167 31.5 45.5 51.5zM102.001 590.004v57h281v-57h-281z" />
    <glyph glyph-name="Abreve" unicode="&#x102;" horiz-adv-x="657" 
d="M426 215l-229.997 -0.00195312l-33 -108c-4 -14 -6 -25.667 -6 -35c0 -14.667 5.83301 -24.167 17.5 -28.5s30.167 -7.16602 55.5 -8.49902v-35h-214v35c12 0.666992 22.167 2.5 30.5 5.5s15.666 7.66699 21.999 14s12.166 14.833 17.499 25.5
s10.666 24.334 15.999 41.001l184 568h89l182 -566c4.66699 -14 9.16699 -26.333 13.5 -37s9.5 -19.5 15.5 -26.5s13.333 -12.667 22 -17s19.667 -6.83301 33 -7.5v-35h-245v35c24 1.33301 41.333 5 52 11s16 16.333 16 31c0 5.33301 -0.5 10.833 -1.5 16.5
s-2.16699 10.167 -3.5 13.5zM211.003 262.998h201l-45 148c-13.333 44 -24.5 83 -33.5 117s-15.167 58.667 -18.5 74h-4l-20.5 -76c-8.33301 -30.667 -19.5 -69 -33.5 -115zM328.003 740.998c-18.667 0 -36.6689 4 -54.002 12s-33.333 18.333 -48 31s-27.5 27 -38.5 43
s-19.5 31.667 -25.5 47l31 26c20 -24 40.333 -43.5 61 -58.5s45.334 -22.5 74.001 -22.5s53.334 7.5 74.001 22.5s41 34.5 61 58.5l31 -26c-6 -15.333 -14.5 -31 -25.5 -47s-23.833 -30.333 -38.5 -43s-30.667 -23 -48 -31s-35.333 -12 -54 -12z" />
    <glyph glyph-name="abreve" unicode="&#x103;" horiz-adv-x="512" 
d="M420 131c0 -18.667 0.833008 -33.8301 2.5 -45.4971s5 -20.834 10 -27.501s12.5 -11.334 22.5 -14.001s23 -4.66699 39 -6v-33c-7.33301 -3.33301 -17.333 -6 -30 -8s-25.667 -3 -39 -3c-18 0 -32.5 1.66699 -43.5 5s-19.833 8.16602 -26.5 14.499
s-11.5 13.833 -14.5 22.5s-5.16699 18.334 -6.5 29.001c-4 -7.33301 -10 -15.666 -18 -24.999s-17.667 -18 -29 -26s-24.5 -14.833 -39.5 -20.5s-31.833 -8.5 -50.5 -8.5c-48 0 -86.833 12.333 -116.5 37s-44.5 60 -44.5 106c0 30 6.33301 55.333 19 76
s30.5 37.167 53.5 49.5s50.5 21.333 82.5 27s67.667 8.5 107 8.5h17c5.33301 0 11.333 -0.333008 18 -1v44c0 42.667 -6.33301 74 -19 94s-36.667 30 -72 30c-21.333 0 -38.833 -2.5 -52.5 -7.5s-25 -11.667 -34 -20s-15.667 -18 -20 -29s-7.5 -22.167 -9.5 -33.5h-63v89
c10.667 6 23.167 12 37.5 18s29.666 11.5 45.999 16.5s33.333 9 51 12s35.167 4.5 52.5 4.5c56.667 0 99.834 -13.333 129.501 -40s44.5 -69.334 44.5 -128.001c0 -7.33301 -0.166992 -18 -0.5 -32s-0.833008 -30.167 -1.5 -48.5s-1.16699 -38.333 -1.5 -60
s-0.5 -43.834 -0.5 -66.501zM331 240.004c-7.33301 0.666992 -13.332 1.16699 -17.999 1.5s-10.334 0.5 -17.001 0.5c-57.333 0 -98.833 -8.33301 -124.5 -25s-38.5 -44 -38.5 -82c0 -36 7 -60.5 21 -73.5s35.667 -19.5 65 -19.5c23.333 0 44.5 7.16699 63.5 21.5
s34.167 31.5 45.5 51.5zM246.001 567.004c-18 0 -35.002 4.16699 -51.002 12.5s-30.667 19 -44 32s-24.833 27.5 -34.5 43.5s-17.167 31.667 -22.5 47l31 22c16 -24 33.5 -43.167 52.5 -57.5s41.167 -21.5 66.5 -21.5s47.333 7.16699 66 21.5s36.334 33.5 53.001 57.5
l32 -22c-5.33301 -15.333 -12.666 -31 -21.999 -47s-20.5 -30.5 -33.5 -43.5s-27.333 -23.667 -43 -32s-32.5 -12.5 -50.5 -12.5z" />
    <glyph glyph-name="Aogonek" unicode="&#x104;" horiz-adv-x="657" 
d="M483 -168c-12 -11.333 -25.4941 -20.333 -40.4941 -27s-33.167 -10 -54.5 -10c-32 0 -56.333 8 -73 24s-25 36.667 -25 62c0 18.667 4.33301 35.5 13 50.5s19.667 28.5 33 40.5s28 22.667 44 32s31.667 18 47 26c14 7.33301 23.667 14.833 29 22.5s8 16.167 8 25.5
c0 7.33301 -1.66699 17 -5 29l-33 108h-230l-33 -108c-4 -14 -6 -25.667 -6 -35c0 -14.667 5.83301 -24.167 17.5 -28.5s30.167 -7.16602 55.5 -8.49902v-35h-214v35c12 0.666992 22.167 2.5 30.5 5.5s15.666 7.66699 21.999 14s12.166 14.833 17.499 25.5
s10.666 24.334 15.999 41.001l184 568h89l182 -566c4.66699 -14 9.16699 -26.333 13.5 -37s9.5 -19.5 15.5 -26.5s13.333 -12.667 22 -17s19.667 -6.83301 33 -7.5v-35h-160c-17.333 0 -32.833 -2.83301 -46.5 -8.5s-25.334 -13.334 -35.001 -23.001
s-17 -20.834 -22 -33.501s-7.5 -26 -7.5 -40c0 -15.333 4 -27.833 12 -37.5s18.667 -14.5 32 -14.5c9.33301 0 17.666 0.833008 24.999 2.5s16.666 5.16699 27.999 10.5zM211.006 263h201l-45 148c-13.333 44 -24.5 83 -33.5 117s-15.167 58.667 -18.5 74h-4l-20.5 -76
c-8.33301 -30.667 -19.5 -69 -33.5 -115z" />
    <glyph glyph-name="aogonek" unicode="&#x105;" horiz-adv-x="512" 
d="M504 -168c-12 -11.333 -25.498 -20.3242 -40.498 -26.9912s-33.167 -10 -54.5 -10c-32 0 -56.333 8 -73 24s-25 36.667 -25 62c0 23.333 7 44.666 21 63.999s34 36.666 60 51.999c-21.333 3.33301 -35.833 11.166 -43.5 23.499s-12.5 27.166 -14.5 44.499
c-4 -7.33301 -10 -15.666 -18 -24.999s-17.667 -18 -29 -26s-24.5 -14.833 -39.5 -20.5s-31.833 -8.5 -50.5 -8.5c-48 0 -86.833 12.333 -116.5 37s-44.5 60 -44.5 106c0 30 6.33301 55.333 19 76s30.5 37.167 53.5 49.5s50.5 21.333 82.5 27s67.667 8.5 107 8.5h17
c5.33301 0 11.333 -0.333008 18 -1v44c0 42.667 -6.33301 74 -19 94s-36.667 30 -72 30c-21.333 0 -38.833 -2.5 -52.5 -7.5s-25 -11.667 -34 -20s-15.667 -18 -20 -29s-7.5 -22.167 -9.5 -33.5h-63v89c10.667 6 23.167 12 37.5 18s29.666 11.5 45.999 16.5s33.333 9 51 12
s35.167 4.5 52.5 4.5c56.667 0 99.834 -13.333 129.501 -40s44.5 -69.334 44.5 -128.001c0 -7.33301 -0.166992 -18 -0.5 -32s-0.833008 -30.167 -1.5 -48.5s-1.16699 -38.333 -1.5 -60s-0.5 -43.834 -0.5 -66.501c0 -18.667 0.833008 -33.834 2.5 -45.501
s5 -20.834 10 -27.501s12.5 -11.334 22.5 -14.001s23 -4.66699 39 -6v-33c-20 -4 -36.667 -9.83301 -50 -17.5s-24 -16.334 -32 -26.001s-13.5 -20.167 -16.5 -31.5s-4.5 -23 -4.5 -35c0 -15.333 4 -27.833 12 -37.5s18.667 -14.5 32 -14.5
c9.33301 0 17.666 0.833008 24.999 2.5s16.666 5.16699 27.999 10.5zM331.002 240.009c-7.33301 0.666992 -13.332 1.16699 -17.999 1.5s-10.334 0.5 -17.001 0.5c-57.333 0 -98.833 -8.33301 -124.5 -25s-38.5 -44 -38.5 -82c0 -36 7 -60.5 21 -73.5s35.667 -19.5 65 -19.5
c23.333 0 44.5 7.16699 63.5 21.5s34.167 31.5 45.5 51.5z" />
    <glyph glyph-name="Cacute" unicode="&#x106;" horiz-adv-x="577" 
d="M348 -11c-52 0 -97.1719 8.16895 -135.505 24.502s-70 39.666 -95 69.999s-43.5 67 -55.5 110s-18 91.5 -18 145.5c0 57.333 7.16699 108.5 21.5 153.5s34.5 83 60.5 114s57.167 54.5 93.5 70.5s76.5 24 120.5 24c27.333 0 51.333 -1.16699 72 -3.5
s38.667 -5.66602 54 -9.99902s28.833 -9.33301 40.5 -15s22.167 -11.834 31.5 -18.501v-112h-70c-9.33301 38.667 -23.166 67 -41.499 85s-48.166 27 -89.499 27c-28.667 0 -54.667 -5.5 -78 -16.5s-43.166 -28.667 -59.499 -53s-28.833 -56.5 -37.5 -96.5s-13 -89 -13 -147
c0 -60 4.66699 -109.667 14 -149s22.5 -70.5 39.5 -93.5s37.833 -39.167 62.5 -48.5s52.334 -14 83.001 -14c40 0 69.833 8.16699 89.5 24.5s33.167 44.166 40.5 83.499h65v-105c-17.333 -12.667 -41.666 -24.167 -72.999 -34.5s-72 -15.5 -122 -15.5zM218.995 761.002
l191 128l43 -92l-214 -70z" />
    <glyph glyph-name="cacute" unicode="&#x107;" horiz-adv-x="463" 
d="M415 372l-68.001 0.00292969c-5.33301 30 -13.666 51.667 -24.999 65s-31 20 -59 20c-19.333 0 -36.833 -3.33301 -52.5 -10s-29 -17.834 -40 -33.501s-19.667 -36.167 -26 -61.5s-9.5 -56.666 -9.5 -93.999c0 -40 2.83301 -73.667 8.5 -101s14.334 -49.333 26.001 -66
s26.167 -28.667 43.5 -36s37.666 -11 60.999 -11c14.667 0 27.834 1.16699 39.501 3.5s22.667 5.83301 33 10.5s20.166 10.334 29.499 17.001s19.666 14.667 30.999 24l26 -28c-22 -25.333 -47.167 -45.333 -75.5 -60s-60.833 -22 -97.5 -22
c-30.667 0 -59.667 5.16699 -87 15.5s-51.166 25.666 -71.499 45.999s-36.333 46.166 -48 77.499s-17.5 68 -17.5 110c0 43.333 5.83301 81.5 17.5 114.5s27.667 60.667 48 83s44.5 39.166 72.5 50.499s58.333 17 91 17c38.667 0 70.167 -4.33301 94.5 -13
s42.833 -17.334 55.5 -26.001v-92zM151.999 600.003l179 153l53 -91l-212 -96z" />
    <glyph glyph-name="Ccircumflex" unicode="&#x108;" horiz-adv-x="577" 
d="M348 -11c-52 0 -97.1719 8.16895 -135.505 24.502s-70 39.666 -95 69.999s-43.5 67 -55.5 110s-18 91.5 -18 145.5c0 57.333 7.16699 108.5 21.5 153.5s34.5 83 60.5 114s57.167 54.5 93.5 70.5s76.5 24 120.5 24c27.333 0 51.333 -1.16699 72 -3.5
s38.667 -5.66602 54 -9.99902s28.833 -9.33301 40.5 -15s22.167 -11.834 31.5 -18.501v-112h-70c-9.33301 38.667 -23.166 67 -41.499 85s-48.166 27 -89.499 27c-28.667 0 -54.667 -5.5 -78 -16.5s-43.166 -28.667 -59.499 -53s-28.833 -56.5 -37.5 -96.5s-13 -89 -13 -147
c0 -60 4.66699 -109.667 14 -149s22.5 -70.5 39.5 -93.5s37.833 -39.167 62.5 -48.5s52.334 -14 83.001 -14c40 0 69.833 8.16699 89.5 24.5s33.167 44.166 40.5 83.499h65v-105c-17.333 -12.667 -41.666 -24.167 -72.999 -34.5s-72 -15.5 -122 -15.5zM335.995 809.002
l-137 -81l-25 30l162 149l162 -149l-25 -30z" />
    <glyph glyph-name="ccircumflex" unicode="&#x109;" horiz-adv-x="463" 
d="M415 372l-68.001 0.00292969c-5.33301 30 -13.666 51.667 -24.999 65s-31 20 -59 20c-19.333 0 -36.833 -3.33301 -52.5 -10s-29 -17.834 -40 -33.501s-19.667 -36.167 -26 -61.5s-9.5 -56.666 -9.5 -93.999c0 -40 2.83301 -73.667 8.5 -101s14.334 -49.333 26.001 -66
s26.167 -28.667 43.5 -36s37.666 -11 60.999 -11c14.667 0 27.834 1.16699 39.501 3.5s22.667 5.83301 33 10.5s20.166 10.334 29.499 17.001s19.666 14.667 30.999 24l26 -28c-22 -25.333 -47.167 -45.333 -75.5 -60s-60.833 -22 -97.5 -22
c-30.667 0 -59.667 5.16699 -87 15.5s-51.166 25.666 -71.499 45.999s-36.333 46.166 -48 77.499s-17.5 68 -17.5 110c0 43.333 5.83301 81.5 17.5 114.5s27.667 60.667 48 83s44.5 39.166 72.5 50.499s58.333 17 91 17c38.667 0 70.167 -4.33301 94.5 -13
s42.833 -17.334 55.5 -26.001v-92zM257.999 649.003l-137 -85l-25 30l162 153l162 -153l-25 -30z" />
    <glyph glyph-name="Cdotaccent" unicode="&#x10a;" horiz-adv-x="577" 
d="M348 -11c-52 0 -97.1719 8.16895 -135.505 24.502s-70 39.666 -95 69.999s-43.5 67 -55.5 110s-18 91.5 -18 145.5c0 57.333 7.16699 108.5 21.5 153.5s34.5 83 60.5 114s57.167 54.5 93.5 70.5s76.5 24 120.5 24c27.333 0 51.333 -1.16699 72 -3.5
s38.667 -5.66602 54 -9.99902s28.833 -9.33301 40.5 -15s22.167 -11.834 31.5 -18.501v-112h-70c-9.33301 38.667 -23.166 67 -41.499 85s-48.166 27 -89.499 27c-28.667 0 -54.667 -5.5 -78 -16.5s-43.166 -28.667 -59.499 -53s-28.833 -56.5 -37.5 -96.5s-13 -89 -13 -147
c0 -60 4.66699 -109.667 14 -149s22.5 -70.5 39.5 -93.5s37.833 -39.167 62.5 -48.5s52.334 -14 83.001 -14c40 0 69.833 8.16699 89.5 24.5s33.167 44.166 40.5 83.499h65v-105c-17.333 -12.667 -41.666 -24.167 -72.999 -34.5s-72 -15.5 -122 -15.5zM395.995 808.002
c0 -17.333 -6 -32.166 -18 -44.499s-26.667 -18.5 -44 -18.5s-32 6.16699 -44 18.5s-18 27.166 -18 44.499s6 32.166 18 44.499s26.667 18.5 44 18.5s32 -6.16699 44 -18.5s18 -27.166 18 -44.499z" />
    <glyph glyph-name="cdotaccent" unicode="&#x10b;" horiz-adv-x="463" 
d="M415 372l-68.001 0.00292969c-5.33301 30 -13.666 51.667 -24.999 65s-31 20 -59 20c-19.333 0 -36.833 -3.33301 -52.5 -10s-29 -17.834 -40 -33.501s-19.667 -36.167 -26 -61.5s-9.5 -56.666 -9.5 -93.999c0 -40 2.83301 -73.667 8.5 -101s14.334 -49.333 26.001 -66
s26.167 -28.667 43.5 -36s37.666 -11 60.999 -11c14.667 0 27.834 1.16699 39.501 3.5s22.667 5.83301 33 10.5s20.166 10.334 29.499 17.001s19.666 14.667 30.999 24l26 -28c-22 -25.333 -47.167 -45.333 -75.5 -60s-60.833 -22 -97.5 -22
c-30.667 0 -59.667 5.16699 -87 15.5s-51.166 25.666 -71.499 45.999s-36.333 46.166 -48 77.499s-17.5 68 -17.5 110c0 43.333 5.83301 81.5 17.5 114.5s27.667 60.667 48 83s44.5 39.166 72.5 50.499s58.333 17 91 17c38.667 0 70.167 -4.33301 94.5 -13
s42.833 -17.334 55.5 -26.001v-92zM318.999 644.003c0 -17.333 -6 -32.166 -18 -44.499s-26.667 -18.5 -44 -18.5s-32 6.16699 -44 18.5s-18 27.166 -18 44.499s6 32.166 18 44.499s26.667 18.5 44 18.5s32 -6.16699 44 -18.5s18 -27.166 18 -44.499z" />
    <glyph glyph-name="Ccaron" unicode="&#x10c;" horiz-adv-x="577" 
d="M348 -11c-52 0 -97.1719 8.16895 -135.505 24.502s-70 39.666 -95 69.999s-43.5 67 -55.5 110s-18 91.5 -18 145.5c0 57.333 7.16699 108.5 21.5 153.5s34.5 83 60.5 114s57.167 54.5 93.5 70.5s76.5 24 120.5 24c27.333 0 51.333 -1.16699 72 -3.5
s38.667 -5.66602 54 -9.99902s28.833 -9.33301 40.5 -15s22.167 -11.834 31.5 -18.501v-112h-70c-9.33301 38.667 -23.166 67 -41.499 85s-48.166 27 -89.499 27c-28.667 0 -54.667 -5.5 -78 -16.5s-43.166 -28.667 -59.499 -53s-28.833 -56.5 -37.5 -96.5s-13 -89 -13 -147
c0 -60 4.66699 -109.667 14 -149s22.5 -70.5 39.5 -93.5s37.833 -39.167 62.5 -48.5s52.334 -14 83.001 -14c40 0 69.833 8.16699 89.5 24.5s33.167 44.166 40.5 83.499h65v-105c-17.333 -12.667 -41.666 -24.167 -72.999 -34.5s-72 -15.5 -122 -15.5zM471.995 907.002
l25 -30l-162 -149l-162 149l25 30l137 -81z" />
    <glyph glyph-name="ccaron" unicode="&#x10d;" horiz-adv-x="463" 
d="M415 372l-68.001 0.00292969c-5.33301 30 -13.666 51.667 -24.999 65s-31 20 -59 20c-19.333 0 -36.833 -3.33301 -52.5 -10s-29 -17.834 -40 -33.501s-19.667 -36.167 -26 -61.5s-9.5 -56.666 -9.5 -93.999c0 -40 2.83301 -73.667 8.5 -101s14.334 -49.333 26.001 -66
s26.167 -28.667 43.5 -36s37.666 -11 60.999 -11c14.667 0 27.834 1.16699 39.501 3.5s22.667 5.83301 33 10.5s20.166 10.334 29.499 17.001s19.666 14.667 30.999 24l26 -28c-22 -25.333 -47.167 -45.333 -75.5 -60s-60.833 -22 -97.5 -22
c-30.667 0 -59.667 5.16699 -87 15.5s-51.166 25.666 -71.499 45.999s-36.333 46.166 -48 77.499s-17.5 68 -17.5 110c0 43.333 5.83301 81.5 17.5 114.5s27.667 60.667 48 83s44.5 39.166 72.5 50.499s58.333 17 91 17c38.667 0 70.167 -4.33301 94.5 -13
s42.833 -17.334 55.5 -26.001v-92zM395.999 730.003l25 -30l-162 -153l-162 153l25 30l137 -85z" />
    <glyph glyph-name="Dcaron" unicode="&#x10e;" horiz-adv-x="670" 
d="M37 35c16.667 0.666992 30.168 2.3252 40.501 4.99219s18.5 6.83398 24.5 12.501s10 13.334 12 23.001s3 21.5 3 35.5v467c0 14 -1 25.833 -3 35.5s-6 17.334 -12 23.001s-14.167 9.83398 -24.5 12.501s-23.833 4.33398 -40.5 5.00098v35h253
c50.667 0 96.834 -6.66699 138.501 -20s77 -34.166 106 -62.499s51.5 -64.166 67.5 -107.499s24 -95 24 -155c0 -50 -5.83301 -96 -17.5 -138s-30.834 -78.167 -57.501 -108.5s-61.334 -54.166 -104.001 -71.499s-95 -26 -157 -26h-253v35zM300.001 50.9912
c37.333 0 69.832 4.16699 97.499 12.5s50.834 23 69.501 44s32.5 49.667 41.5 86s13.5 82.5 13.5 138.5c0 57.333 -4.66699 105.833 -14 145.5s-23.333 71.667 -42 96s-41.667 41.833 -69 52.5s-59 16 -95 16h-87v-591h85zM450 906.991l25 -30l-162 -149l-162 149l25 30
l137 -81z" />
    <glyph glyph-name="dcaron" unicode="&#x10f;" horiz-adv-x="567" 
d="M383 74c-19.333 -24.667 -42.498 -44.833 -69.498 -60.5s-53.833 -23.5 -80.5 -23.5c-25.333 0 -49.833 4.5 -73.5 13.5s-44.667 23.5 -63 43.5s-33 46 -44 78s-16.5 70.667 -16.5 116c0 38.667 4.66699 74.167 14 106.5s22.833 60 40.5 83s39.167 40.833 64.5 53.5
s54 19 86 19c25.333 0 49.666 -5 72.999 -15s44.333 -25 63 -45v141c0 18 -1.16699 32.5 -3.5 43.5s-6.5 19.5 -12.5 25.5s-13.833 10 -23.5 12s-21.834 3.33301 -36.501 4v32l146 29h21v-592c0 -18 1.16699 -32.5 3.5 -43.5s6.33301 -19.5 12 -25.5s13.667 -10 24 -12
s23.5 -3.33301 39.5 -4v-30l-127 -36h-15c-3.33301 6 -7.5 17 -12.5 33s-8.16699 34 -9.5 54zM134.002 253.001c0 -38.667 2.33398 -71.167 7.00098 -97.5s11.667 -47.666 21 -63.999s21.166 -28 35.499 -35s31.5 -10.5 51.5 -10.5c22.667 0 44.667 6.5 66 19.5
s42 30.5 62 52.5v271c-15.333 19.333 -34 33.666 -56 42.999s-43.667 14 -65 14c-19.333 0 -36.5 -2.66699 -51.5 -8s-27.667 -15.333 -38 -30s-18.333 -34.5 -24 -59.5s-8.5 -56.833 -8.5 -95.5zM564.003 527.001l-44 11l15 192l91 -15z" />
    <glyph glyph-name="Dcroat" unicode="&#x110;" horiz-adv-x="670" 
d="M33 388l84.001 -0.00878906v190c0 14 -1 25.833 -3 35.5s-6 17.334 -12 23.001s-14.167 9.83398 -24.5 12.501s-23.833 4.33398 -40.5 5.00098v35h253c50.667 0 96.834 -6.66699 138.501 -20s77 -34.166 106 -62.499s51.5 -64.166 67.5 -107.499s24 -95 24 -155
c0 -50 -5.83301 -96 -17.5 -138s-30.834 -78.167 -57.501 -108.5s-61.334 -54.166 -104.001 -71.499s-95 -26 -157 -26h-253v35c16.667 0.666992 30.167 2.33398 40.5 5.00098s18.5 6.83398 24.5 12.501s10 13.334 12 23.001s3 21.5 3 35.5v231h-84v46zM522.001 331.991
c0 57.333 -4.66797 105.833 -14.001 145.5s-23.333 71.667 -42 96s-41.667 41.833 -69 52.5s-59 16 -95 16h-87v-254h129v-46h-129v-291h85c37.333 0 69.833 4.16699 97.5 12.5s50.834 23 69.501 44s32.5 49.667 41.5 86s13.5 82.5 13.5 138.5z" />
    <glyph glyph-name="dcroat" unicode="&#x111;" horiz-adv-x="567" 
d="M377 605c0 14.667 -0.833008 26.1689 -2.5 34.502s-5.16699 14.666 -10.5 18.999s-13 7 -23 8s-23.333 1.83301 -40 2.5v32l146 29h21v-125h74v-41h-74v-426c0 -18 1.16699 -32.5 3.5 -43.5s6.33301 -19.5 12 -25.5s13.667 -10 24 -12s23.5 -3.33301 39.5 -4v-30
l-127 -36h-15c-4.66699 10 -9.16699 22.5 -13.5 37.5s-7.16602 31.5 -8.49902 49.5c-19.333 -24.667 -42.5 -44.834 -69.5 -60.501s-53.833 -23.5 -80.5 -23.5c-25.333 0 -49.833 4.5 -73.5 13.5s-44.667 23.5 -63 43.5s-33 46 -44 78s-16.5 70.667 -16.5 116
c0 38.667 4.66699 74.167 14 106.5s22.833 60 40.5 83s39.167 40.833 64.5 53.5s54 19 86 19c25.333 0 49.666 -5 72.999 -15s44.333 -25 63 -45v121h-166v41h166zM134 253.002c0 -38.667 2.33398 -71.167 7.00098 -97.5s11.667 -47.666 21 -63.999s21.166 -28 35.499 -35
s31.5 -10.5 51.5 -10.5c22.667 0 44.667 6.5 66 19.5s42 30.5 62 52.5v271c-15.333 19.333 -34 33.666 -56 42.999s-43.667 14 -65 14c-19.333 0 -36.5 -2.66699 -51.5 -8s-27.667 -15.333 -38 -30s-18.333 -34.5 -24 -59.5s-8.5 -56.833 -8.5 -95.5z" />
    <glyph glyph-name="Emacron" unicode="&#x112;" horiz-adv-x="565" 
d="M37 35c16.667 0.666992 30.167 2.3291 40.5 4.99609s18.5 6.83398 24.5 12.501s10 13.334 12 23.001s3 21.5 3 35.5v467c0 14 -1 25.833 -3 35.5s-6 17.334 -12 23.001s-14.167 9.83398 -24.5 12.501s-23.833 4.33398 -40.5 5.00098v35h470l10 -150h-42
c-5.33301 18.667 -10.666 34.5 -15.999 47.5s-11.5 23.5 -18.5 31.5s-15.333 13.667 -25 17s-21.834 5 -36.501 5h-167v-256h93c15.333 0 28.333 1 39 3s19.334 5.66699 26.001 11s11.5 12.666 14.5 21.999s5.16699 21 6.5 35h41v-190h-41c-2 27.333 -8.83301 46 -20.5 56
s-33.167 15 -64.5 15h-94v-287h168c19.333 0 35.166 1.66699 47.499 5s22.333 9.33301 30 18s13.5 20.5 17.5 35.5s7 34.167 9 57.5h45v-165h-492v35zM157 768.995v57h281v-57h-281z" />
    <glyph glyph-name="emacron" unicode="&#x113;" horiz-adv-x="483" 
d="M289 49c21.333 0 44.5 4.16797 69.5 12.501s46.167 18.166 63.5 29.499l21 -34c-24 -18.667 -50.667 -34.667 -80 -48s-62 -20 -98 -20c-72 0 -128.167 22.667 -168.5 68s-60.5 109.333 -60.5 192c0 40.667 5.5 77 16.5 109s26 59 45 81s41.667 38.833 68 50.5
s54.833 17.5 85.5 17.5c63.333 0 112.5 -20.667 147.5 -62s52.5 -100.333 52.5 -177v-27h-319c0.666992 -36 4.16699 -66.333 10.5 -91s16 -44.5 29 -59.5s29.333 -25.667 49 -32s42.5 -9.5 68.5 -9.5zM249 459.001c-17.333 0 -32.667 -2.83301 -46 -8.5s-25 -15 -35 -28
s-17.833 -30.333 -23.5 -52s-9.5 -48.5 -11.5 -80.5h223c0 61.333 -8.33301 104.833 -25 130.5s-44 38.5 -82 38.5zM104.999 590.001v57h281v-57h-281z" />
    <glyph glyph-name="Ebreve" unicode="&#x114;" horiz-adv-x="565" 
d="M37 35c16.667 0.666992 30.167 2.3291 40.5 4.99609s18.5 6.83398 24.5 12.501s10 13.334 12 23.001s3 21.5 3 35.5v467c0 14 -1 25.833 -3 35.5s-6 17.334 -12 23.001s-14.167 9.83398 -24.5 12.501s-23.833 4.33398 -40.5 5.00098v35h470l10 -150h-42
c-5.33301 18.667 -10.666 34.5 -15.999 47.5s-11.5 23.5 -18.5 31.5s-15.333 13.667 -25 17s-21.834 5 -36.501 5h-167v-256h93c15.333 0 28.333 1 39 3s19.334 5.66699 26.001 11s11.5 12.666 14.5 21.999s5.16699 21 6.5 35h41v-190h-41c-2 27.333 -8.83301 46 -20.5 56
s-33.167 15 -64.5 15h-94v-287h168c19.333 0 35.166 1.66699 47.499 5s22.333 9.33301 30 18s13.5 20.5 17.5 35.5s7 34.167 9 57.5h45v-165h-492v35zM287 740.995c-18.667 0 -36.6689 4 -54.002 12s-33.333 18.333 -48 31s-27.5 27 -38.5 43s-19.5 31.667 -25.5 47l31 26
c20 -24 40.333 -43.5 61 -58.5s45.334 -22.5 74.001 -22.5s53.334 7.5 74.001 22.5s41 34.5 61 58.5l31 -26c-6 -15.333 -14.5 -31 -25.5 -47s-23.833 -30.333 -38.5 -43s-30.667 -23 -48 -31s-35.333 -12 -54 -12z" />
    <glyph glyph-name="ebreve" unicode="&#x115;" horiz-adv-x="483" 
d="M289 49c21.333 0 44.5 4.16797 69.5 12.501s46.167 18.166 63.5 29.499l21 -34c-24 -18.667 -50.667 -34.667 -80 -48s-62 -20 -98 -20c-72 0 -128.167 22.667 -168.5 68s-60.5 109.333 -60.5 192c0 40.667 5.5 77 16.5 109s26 59 45 81s41.667 38.833 68 50.5
s54.833 17.5 85.5 17.5c63.333 0 112.5 -20.667 147.5 -62s52.5 -100.333 52.5 -177v-27h-319c0.666992 -36 4.16699 -66.333 10.5 -91s16 -44.5 29 -59.5s29.333 -25.667 49 -32s42.5 -9.5 68.5 -9.5zM249 459.001c-17.333 0 -32.667 -2.83301 -46 -8.5s-25 -15 -35 -28
s-17.833 -30.333 -23.5 -52s-9.5 -48.5 -11.5 -80.5h223c0 61.333 -8.33301 104.833 -25 130.5s-44 38.5 -82 38.5zM245.999 567.001c-18 0 -35.002 4.16699 -51.002 12.5s-30.667 19 -44 32s-24.833 27.5 -34.5 43.5s-17.167 31.667 -22.5 47l31 22
c16 -24 33.5 -43.167 52.5 -57.5s41.167 -21.5 66.5 -21.5s47.333 7.16699 66 21.5s36.334 33.5 53.001 57.5l32 -22c-5.33301 -15.333 -12.666 -31 -21.999 -47s-20.5 -30.5 -33.5 -43.5s-27.333 -23.667 -43 -32s-32.5 -12.5 -50.5 -12.5z" />
    <glyph glyph-name="Edotaccent" unicode="&#x116;" horiz-adv-x="565" 
d="M37 35c16.667 0.666992 30.167 2.3291 40.5 4.99609s18.5 6.83398 24.5 12.501s10 13.334 12 23.001s3 21.5 3 35.5v467c0 14 -1 25.833 -3 35.5s-6 17.334 -12 23.001s-14.167 9.83398 -24.5 12.501s-23.833 4.33398 -40.5 5.00098v35h470l10 -150h-42
c-5.33301 18.667 -10.666 34.5 -15.999 47.5s-11.5 23.5 -18.5 31.5s-15.333 13.667 -25 17s-21.834 5 -36.501 5h-167v-256h93c15.333 0 28.333 1 39 3s19.334 5.66699 26.001 11s11.5 12.666 14.5 21.999s5.16699 21 6.5 35h41v-190h-41c-2 27.333 -8.83301 46 -20.5 56
s-33.167 15 -64.5 15h-94v-287h168c19.333 0 35.166 1.66699 47.499 5s22.333 9.33301 30 18s13.5 20.5 17.5 35.5s7 34.167 9 57.5h45v-165h-492v35zM358 807.995c0 -17.333 -6 -32.166 -18 -44.499s-26.667 -18.5 -44 -18.5s-32 6.16699 -44 18.5s-18 27.166 -18 44.499
s6 32.166 18 44.499s26.667 18.5 44 18.5s32 -6.16699 44 -18.5s18 -27.166 18 -44.499z" />
    <glyph glyph-name="edotaccent" unicode="&#x117;" horiz-adv-x="483" 
d="M289 49c21.333 0 44.5 4.16797 69.5 12.501s46.167 18.166 63.5 29.499l21 -34c-24 -18.667 -50.667 -34.667 -80 -48s-62 -20 -98 -20c-72 0 -128.167 22.667 -168.5 68s-60.5 109.333 -60.5 192c0 40.667 5.5 77 16.5 109s26 59 45 81s41.667 38.833 68 50.5
s54.833 17.5 85.5 17.5c63.333 0 112.5 -20.667 147.5 -62s52.5 -100.333 52.5 -177v-27h-319c0.666992 -36 4.16699 -66.333 10.5 -91s16 -44.5 29 -59.5s29.333 -25.667 49 -32s42.5 -9.5 68.5 -9.5zM249 459.001c-17.333 0 -32.667 -2.83301 -46 -8.5s-25 -15 -35 -28
s-17.833 -30.333 -23.5 -52s-9.5 -48.5 -11.5 -80.5h223c0 61.333 -8.33301 104.833 -25 130.5s-44 38.5 -82 38.5zM309.999 644.001c0 -17.333 -6 -32.166 -18 -44.499s-26.667 -18.5 -44 -18.5s-32 6.16699 -44 18.5s-18 27.166 -18 44.499s6 32.166 18 44.499
s26.667 18.5 44 18.5s32 -6.16699 44 -18.5s18 -27.166 18 -44.499z" />
    <glyph glyph-name="Eogonek" unicode="&#x118;" horiz-adv-x="565" 
d="M428 -205c-32 0 -56.3291 7.99316 -72.9961 23.9932s-25 36.667 -25 62c0 47.333 28.667 87 86 119h-379v35c16.667 0.666992 30.167 2.33398 40.5 5.00098s18.5 6.83398 24.5 12.501s10 13.334 12 23.001s3 21.5 3 35.5v467c0 14 -1 25.833 -3 35.5
s-6 17.334 -12 23.001s-14.167 9.83398 -24.5 12.501s-23.833 4.33398 -40.5 5.00098v35h470l10 -150h-42c-5.33301 18.667 -10.666 34.5 -15.999 47.5s-11.5 23.5 -18.5 31.5s-15.333 13.667 -25 17s-21.834 5 -36.501 5h-167v-256h93c15.333 0 28.333 1 39 3
s19.334 5.66699 26.001 11s11.5 12.666 14.5 21.999s5.16699 21 6.5 35h41v-190h-41c-2 27.333 -8.83301 46 -20.5 56s-33.167 15 -64.5 15h-94v-287h168c19.333 0 35.166 1.66699 47.499 5s22.333 9.33301 30 18s13.5 20.5 17.5 35.5s7 34.167 9 57.5h45v-165l-26 -1
c-16.667 -0.666992 -30.834 -4.16699 -42.501 -10.5s-21.334 -14.166 -29.001 -23.499s-13.167 -20.166 -16.5 -32.499s-5 -24.833 -5 -37.5c0 -15.333 4 -27.833 12 -37.5s18.667 -14.5 32 -14.5c9.33301 0 17.666 0.833008 24.999 2.5s16.666 5.16699 27.999 10.5l16 -24
c-12 -11.333 -25.5 -20.333 -40.5 -27s-33.167 -10 -54.5 -10z" />
    <glyph glyph-name="eogonek" unicode="&#x119;" horiz-adv-x="483" 
d="M411 -168c-12 -11.333 -25.4961 -20.333 -40.4961 -27s-33.167 -10 -54.5 -10c-32 0 -56.333 8 -73 24s-25 36.667 -25 62c0 42.667 23.667 79.334 71 110.001c-4 -0.666992 -8 -1.16699 -12 -1.5s-8 -0.5 -12 -0.5c-72 0 -128.167 22.667 -168.5 68
s-60.5 109.333 -60.5 192c0 40.667 5.5 77 16.5 109s26 59 45 81s41.667 38.833 68 50.5s54.833 17.5 85.5 17.5c63.333 0 112.5 -20.667 147.5 -62s52.5 -100.333 52.5 -177v-27h-319c0.666992 -36 4.16699 -66.333 10.5 -91s16 -44.5 29 -59.5s29.333 -25.667 49 -32
s42.5 -9.5 68.5 -9.5c21.333 0 44.5 4.16699 69.5 12.5s46.167 18.166 63.5 29.499l21 -34c-12.667 -9.33301 -25.834 -18.333 -39.501 -27l-39.5 -25c-24.667 -16 -41.834 -33.5 -51.501 -52.5s-14.5 -38.167 -14.5 -57.5c0 -15.333 4 -27.833 12 -37.5
s18.667 -14.5 32 -14.5c9.33301 0 17.666 0.833008 24.999 2.5s16.666 5.16699 27.999 10.5zM249.004 459c-17.333 0 -32.667 -2.83301 -46 -8.5s-25 -15 -35 -28s-17.833 -30.333 -23.5 -52s-9.5 -48.5 -11.5 -80.5h223c0 61.333 -8.33301 104.833 -25 130.5
s-44 38.5 -82 38.5z" />
    <glyph glyph-name="Ecaron" unicode="&#x11a;" horiz-adv-x="565" 
d="M37 35c16.667 0.666992 30.167 2.3291 40.5 4.99609s18.5 6.83398 24.5 12.501s10 13.334 12 23.001s3 21.5 3 35.5v467c0 14 -1 25.833 -3 35.5s-6 17.334 -12 23.001s-14.167 9.83398 -24.5 12.501s-23.833 4.33398 -40.5 5.00098v35h470l10 -150h-42
c-5.33301 18.667 -10.666 34.5 -15.999 47.5s-11.5 23.5 -18.5 31.5s-15.333 13.667 -25 17s-21.834 5 -36.501 5h-167v-256h93c15.333 0 28.333 1 39 3s19.334 5.66699 26.001 11s11.5 12.666 14.5 21.999s5.16699 21 6.5 35h41v-190h-41c-2 27.333 -8.83301 46 -20.5 56
s-33.167 15 -64.5 15h-94v-287h168c19.333 0 35.166 1.66699 47.499 5s22.333 9.33301 30 18s13.5 20.5 17.5 35.5s7 34.167 9 57.5h45v-165h-492v35zM434 906.995l25 -30l-162 -149l-162 149l25 30l137 -81z" />
    <glyph glyph-name="ecaron" unicode="&#x11b;" horiz-adv-x="483" 
d="M289 49c21.333 0 44.5 4.16797 69.5 12.501s46.167 18.166 63.5 29.499l21 -34c-24 -18.667 -50.667 -34.667 -80 -48s-62 -20 -98 -20c-72 0 -128.167 22.667 -168.5 68s-60.5 109.333 -60.5 192c0 40.667 5.5 77 16.5 109s26 59 45 81s41.667 38.833 68 50.5
s54.833 17.5 85.5 17.5c63.333 0 112.5 -20.667 147.5 -62s52.5 -100.333 52.5 -177v-27h-319c0.666992 -36 4.16699 -66.333 10.5 -91s16 -44.5 29 -59.5s29.333 -25.667 49 -32s42.5 -9.5 68.5 -9.5zM249 459.001c-17.333 0 -32.667 -2.83301 -46 -8.5s-25 -15 -35 -28
s-17.833 -30.333 -23.5 -52s-9.5 -48.5 -11.5 -80.5h223c0 61.333 -8.33301 104.833 -25 130.5s-44 38.5 -82 38.5zM386.999 730.001l25 -30l-162 -153l-162 153l25 30l137 -85z" />
    <glyph glyph-name="Gcircumflex" unicode="&#x11c;" horiz-adv-x="644" 
d="M461 229c0 14 -0.996094 25.8262 -2.99609 35.4932s-6.33301 17.334 -13 23.001s-15.834 9.83398 -27.501 12.501s-27.167 4.33398 -46.5 5.00098v35h250v-35c-26 -1.33301 -43.333 -7.16602 -52 -17.499s-13 -29.833 -13 -58.5v-189
c-14 -8.66699 -29.667 -16.167 -47 -22.5s-35.5 -11.666 -54.5 -15.999s-38.167 -7.5 -57.5 -9.5s-38.333 -3 -57 -3c-46 0 -87.167 8 -123.5 24s-67.333 39 -93 69s-45.334 66.833 -59.001 110.5s-20.5 93.167 -20.5 148.5c0 56 7.33301 106.333 22 151s35 82.5 61 113.5
s57.167 54.667 93.5 71s76.166 24.5 119.499 24.5c54 0 98.167 -5.16699 132.5 -15.5s60.833 -22.166 79.5 -35.499v-111h-70c-4 18.667 -9 35.334 -15 50.001s-14.5 26.667 -25.5 36s-25.333 16.5 -43 21.5s-39.834 7.5 -66.501 7.5c-34.667 0 -63.834 -8 -87.501 -24
s-42.834 -38.167 -57.501 -66.5s-25.167 -61.833 -31.5 -100.5s-9.5 -81 -9.5 -127s3.16699 -87.5 9.5 -124.5s17.333 -68.667 33 -95s36.334 -46.5 62.001 -60.5s57.834 -21 96.501 -21c49.333 0 87.333 10.333 114 31v163zM350.004 808.993l-137 -81l-25 30l162 149
l162 -149l-25 -30z" />
    <glyph glyph-name="gcircumflex" unicode="&#x11d;" horiz-adv-x="523" 
d="M254 -189c-34.667 0 -65.0039 3.17969 -91.0039 9.5127s-47.833 14.666 -65.5 24.999s-31 22.5 -40 36.5s-13.5 28.667 -13.5 44c0 18 5.5 32.333 16.5 43s22.5 19.667 34.5 27l42 2c-2.66699 -4.66699 -5.16699 -11.834 -7.5 -21.501s-3.5 -19.834 -3.5 -30.501
c0 -28 9 -49.5 27 -64.5s51 -22.5 99 -22.5c26 0 48 2.33301 66 7s32.5 11.167 43.5 19.5s18.833 18.166 23.5 29.499s7 23.666 7 36.999c0 15.333 -2 27.833 -6 37.5s-11.667 17.334 -23 23.001s-27.166 9.66699 -47.499 12s-46.833 3.83301 -79.5 4.5
c-17.333 0.666992 -34.166 1.5 -50.499 2.5s-29.166 2.16699 -38.499 3.5c-22 2.66699 -38.333 11.667 -49 27s-16 32.333 -16 51c0 19.333 8.66699 36.166 26 50.499s39.666 26.166 66.999 35.499c-36.667 8.66699 -65.667 26.167 -87 52.5s-32 56.166 -32 89.499
c0 24 4.33301 46.167 13 66.5s21.167 37.666 37.5 51.999s36.166 25.5 59.499 33.5s49.333 12 78 12c13.333 0 25.833 -0.666992 37.5 -2s25.167 -4.33301 40.5 -9c13.333 -4 26.333 -7.66699 39 -11s24.667 -5 36 -5c15.333 0 29.333 2.83301 42 8.5s25.667 13.167 39 22.5
l34 -65c-11.333 -5.33301 -22.5 -9.66602 -33.5 -12.999s-23.167 -5 -36.5 -5c-19.333 0 -42.666 6.33301 -69.999 19c16.667 -12.667 30.834 -27.834 42.501 -45.501s17.5 -37.834 17.5 -60.501c0 -16.667 -3 -33.5 -9 -50.5s-16.167 -32.833 -30.5 -47.5
s-33.5 -26.834 -57.5 -36.501s-54 -15.5 -90 -17.5c-3.33301 -0.666992 -7 -1 -11 -1h-11c-18 -5.33301 -32.667 -12.5 -44 -21.5s-17 -19.167 -17 -30.5c0 -16.667 12 -25 36 -25h92c29.333 0 55.333 -2.16699 78 -6.5s41.834 -11.833 57.501 -22.5
s27.667 -24.834 36 -42.501s12.5 -39.834 12.5 -66.501c0 -24.667 -5.66699 -46.834 -17 -66.501s-26.833 -36.5 -46.5 -50.5s-43 -24.667 -70 -32s-55.833 -11 -86.5 -11zM242.996 232.013c30 0 52.667 8.83301 68 26.5s23 45.5 23 83.5c0 40 -7.33301 69.333 -22 88
s-38 28 -70 28c-30 0 -52.667 -8.83301 -68 -26.5s-23 -46.5 -23 -86.5c0 -38.667 7.83301 -67.167 23.5 -85.5s38.5 -27.5 68.5 -27.5zM262.996 649.013l-137 -85l-25 30l162 153l162 -153l-25 -30z" />
    <glyph glyph-name="Gbreve" unicode="&#x11e;" horiz-adv-x="644" 
d="M461 229c0 14 -0.996094 25.8262 -2.99609 35.4932s-6.33301 17.334 -13 23.001s-15.834 9.83398 -27.501 12.501s-27.167 4.33398 -46.5 5.00098v35h250v-35c-26 -1.33301 -43.333 -7.16602 -52 -17.499s-13 -29.833 -13 -58.5v-189
c-14 -8.66699 -29.667 -16.167 -47 -22.5s-35.5 -11.666 -54.5 -15.999s-38.167 -7.5 -57.5 -9.5s-38.333 -3 -57 -3c-46 0 -87.167 8 -123.5 24s-67.333 39 -93 69s-45.334 66.833 -59.001 110.5s-20.5 93.167 -20.5 148.5c0 56 7.33301 106.333 22 151s35 82.5 61 113.5
s57.167 54.667 93.5 71s76.166 24.5 119.499 24.5c54 0 98.167 -5.16699 132.5 -15.5s60.833 -22.166 79.5 -35.499v-111h-70c-4 18.667 -9 35.334 -15 50.001s-14.5 26.667 -25.5 36s-25.333 16.5 -43 21.5s-39.834 7.5 -66.501 7.5c-34.667 0 -63.834 -8 -87.501 -24
s-42.834 -38.167 -57.501 -66.5s-25.167 -61.833 -31.5 -100.5s-9.5 -81 -9.5 -127s3.16699 -87.5 9.5 -124.5s17.333 -68.667 33 -95s36.334 -46.5 62.001 -60.5s57.834 -21 96.501 -21c49.333 0 87.333 10.333 114 31v163zM350.004 740.993
c-18.667 0 -36.6689 4 -54.002 12s-33.333 18.333 -48 31s-27.5 27 -38.5 43s-19.5 31.667 -25.5 47l31 26c20 -24 40.333 -43.5 61 -58.5s45.334 -22.5 74.001 -22.5s53.334 7.5 74.001 22.5s41 34.5 61 58.5l31 -26c-6 -15.333 -14.5 -31 -25.5 -47
s-23.833 -30.333 -38.5 -43s-30.667 -23 -48 -31s-35.333 -12 -54 -12z" />
    <glyph glyph-name="gbreve" unicode="&#x11f;" horiz-adv-x="523" 
d="M254 -189c-34.667 0 -65.0039 3.17969 -91.0039 9.5127s-47.833 14.666 -65.5 24.999s-31 22.5 -40 36.5s-13.5 28.667 -13.5 44c0 18 5.5 32.333 16.5 43s22.5 19.667 34.5 27l42 2c-2.66699 -4.66699 -5.16699 -11.834 -7.5 -21.501s-3.5 -19.834 -3.5 -30.501
c0 -28 9 -49.5 27 -64.5s51 -22.5 99 -22.5c26 0 48 2.33301 66 7s32.5 11.167 43.5 19.5s18.833 18.166 23.5 29.499s7 23.666 7 36.999c0 15.333 -2 27.833 -6 37.5s-11.667 17.334 -23 23.001s-27.166 9.66699 -47.499 12s-46.833 3.83301 -79.5 4.5
c-17.333 0.666992 -34.166 1.5 -50.499 2.5s-29.166 2.16699 -38.499 3.5c-22 2.66699 -38.333 11.667 -49 27s-16 32.333 -16 51c0 19.333 8.66699 36.166 26 50.499s39.666 26.166 66.999 35.499c-36.667 8.66699 -65.667 26.167 -87 52.5s-32 56.166 -32 89.499
c0 24 4.33301 46.167 13 66.5s21.167 37.666 37.5 51.999s36.166 25.5 59.499 33.5s49.333 12 78 12c13.333 0 25.833 -0.666992 37.5 -2s25.167 -4.33301 40.5 -9c13.333 -4 26.333 -7.66699 39 -11s24.667 -5 36 -5c15.333 0 29.333 2.83301 42 8.5s25.667 13.167 39 22.5
l34 -65c-11.333 -5.33301 -22.5 -9.66602 -33.5 -12.999s-23.167 -5 -36.5 -5c-19.333 0 -42.666 6.33301 -69.999 19c16.667 -12.667 30.834 -27.834 42.501 -45.501s17.5 -37.834 17.5 -60.501c0 -16.667 -3 -33.5 -9 -50.5s-16.167 -32.833 -30.5 -47.5
s-33.5 -26.834 -57.5 -36.501s-54 -15.5 -90 -17.5c-3.33301 -0.666992 -7 -1 -11 -1h-11c-18 -5.33301 -32.667 -12.5 -44 -21.5s-17 -19.167 -17 -30.5c0 -16.667 12 -25 36 -25h92c29.333 0 55.333 -2.16699 78 -6.5s41.834 -11.833 57.501 -22.5
s27.667 -24.834 36 -42.501s12.5 -39.834 12.5 -66.501c0 -24.667 -5.66699 -46.834 -17 -66.501s-26.833 -36.5 -46.5 -50.5s-43 -24.667 -70 -32s-55.833 -11 -86.5 -11zM242.996 232.013c30 0 52.667 8.83301 68 26.5s23 45.5 23 83.5c0 40 -7.33301 69.333 -22 88
s-38 28 -70 28c-30 0 -52.667 -8.83301 -68 -26.5s-23 -46.5 -23 -86.5c0 -38.667 7.83301 -67.167 23.5 -85.5s38.5 -27.5 68.5 -27.5zM264.996 567.013c-18 0 -35.002 4.16699 -51.002 12.5s-30.667 19 -44 32s-24.833 27.5 -34.5 43.5s-17.167 31.667 -22.5 47l31 22
c16 -24 33.5 -43.167 52.5 -57.5s41.167 -21.5 66.5 -21.5s47.333 7.16699 66 21.5s36.334 33.5 53.001 57.5l32 -22c-5.33301 -15.333 -12.666 -31 -21.999 -47s-20.5 -30.5 -33.5 -43.5s-27.333 -23.667 -43 -32s-32.5 -12.5 -50.5 -12.5z" />
    <glyph glyph-name="Gdotaccent" unicode="&#x120;" horiz-adv-x="644" 
d="M461 229c0 14 -0.996094 25.8262 -2.99609 35.4932s-6.33301 17.334 -13 23.001s-15.834 9.83398 -27.501 12.501s-27.167 4.33398 -46.5 5.00098v35h250v-35c-26 -1.33301 -43.333 -7.16602 -52 -17.499s-13 -29.833 -13 -58.5v-189
c-14 -8.66699 -29.667 -16.167 -47 -22.5s-35.5 -11.666 -54.5 -15.999s-38.167 -7.5 -57.5 -9.5s-38.333 -3 -57 -3c-46 0 -87.167 8 -123.5 24s-67.333 39 -93 69s-45.334 66.833 -59.001 110.5s-20.5 93.167 -20.5 148.5c0 56 7.33301 106.333 22 151s35 82.5 61 113.5
s57.167 54.667 93.5 71s76.166 24.5 119.499 24.5c54 0 98.167 -5.16699 132.5 -15.5s60.833 -22.166 79.5 -35.499v-111h-70c-4 18.667 -9 35.334 -15 50.001s-14.5 26.667 -25.5 36s-25.333 16.5 -43 21.5s-39.834 7.5 -66.501 7.5c-34.667 0 -63.834 -8 -87.501 -24
s-42.834 -38.167 -57.501 -66.5s-25.167 -61.833 -31.5 -100.5s-9.5 -81 -9.5 -127s3.16699 -87.5 9.5 -124.5s17.333 -68.667 33 -95s36.334 -46.5 62.001 -60.5s57.834 -21 96.501 -21c49.333 0 87.333 10.333 114 31v163zM411.004 807.993
c0 -17.333 -6 -32.166 -18 -44.499s-26.667 -18.5 -44 -18.5s-32 6.16699 -44 18.5s-18 27.166 -18 44.499s6 32.166 18 44.499s26.667 18.5 44 18.5s32 -6.16699 44 -18.5s18 -27.166 18 -44.499z" />
    <glyph glyph-name="gdotaccent" unicode="&#x121;" horiz-adv-x="523" 
d="M254 -189c-34.667 0 -65.0039 3.17969 -91.0039 9.5127s-47.833 14.666 -65.5 24.999s-31 22.5 -40 36.5s-13.5 28.667 -13.5 44c0 18 5.5 32.333 16.5 43s22.5 19.667 34.5 27l42 2c-2.66699 -4.66699 -5.16699 -11.834 -7.5 -21.501s-3.5 -19.834 -3.5 -30.501
c0 -28 9 -49.5 27 -64.5s51 -22.5 99 -22.5c26 0 48 2.33301 66 7s32.5 11.167 43.5 19.5s18.833 18.166 23.5 29.499s7 23.666 7 36.999c0 15.333 -2 27.833 -6 37.5s-11.667 17.334 -23 23.001s-27.166 9.66699 -47.499 12s-46.833 3.83301 -79.5 4.5
c-17.333 0.666992 -34.166 1.5 -50.499 2.5s-29.166 2.16699 -38.499 3.5c-22 2.66699 -38.333 11.667 -49 27s-16 32.333 -16 51c0 19.333 8.66699 36.166 26 50.499s39.666 26.166 66.999 35.499c-36.667 8.66699 -65.667 26.167 -87 52.5s-32 56.166 -32 89.499
c0 24 4.33301 46.167 13 66.5s21.167 37.666 37.5 51.999s36.166 25.5 59.499 33.5s49.333 12 78 12c13.333 0 25.833 -0.666992 37.5 -2s25.167 -4.33301 40.5 -9c13.333 -4 26.333 -7.66699 39 -11s24.667 -5 36 -5c15.333 0 29.333 2.83301 42 8.5s25.667 13.167 39 22.5
l34 -65c-11.333 -5.33301 -22.5 -9.66602 -33.5 -12.999s-23.167 -5 -36.5 -5c-19.333 0 -42.666 6.33301 -69.999 19c16.667 -12.667 30.834 -27.834 42.501 -45.501s17.5 -37.834 17.5 -60.501c0 -16.667 -3 -33.5 -9 -50.5s-16.167 -32.833 -30.5 -47.5
s-33.5 -26.834 -57.5 -36.501s-54 -15.5 -90 -17.5c-3.33301 -0.666992 -7 -1 -11 -1h-11c-18 -5.33301 -32.667 -12.5 -44 -21.5s-17 -19.167 -17 -30.5c0 -16.667 12 -25 36 -25h92c29.333 0 55.333 -2.16699 78 -6.5s41.834 -11.833 57.501 -22.5
s27.667 -24.834 36 -42.501s12.5 -39.834 12.5 -66.501c0 -24.667 -5.66699 -46.834 -17 -66.501s-26.833 -36.5 -46.5 -50.5s-43 -24.667 -70 -32s-55.833 -11 -86.5 -11zM242.996 232.013c30 0 52.667 8.83301 68 26.5s23 45.5 23 83.5c0 40 -7.33301 69.333 -22 88
s-38 28 -70 28c-30 0 -52.667 -8.83301 -68 -26.5s-23 -46.5 -23 -86.5c0 -38.667 7.83301 -67.167 23.5 -85.5s38.5 -27.5 68.5 -27.5zM325.996 644.013c0 -17.333 -6 -32.166 -18 -44.499s-26.667 -18.5 -44 -18.5s-32 6.16699 -44 18.5s-18 27.166 -18 44.499
s6 32.166 18 44.499s26.667 18.5 44 18.5s32 -6.16699 44 -18.5s18 -27.166 18 -44.499z" />
    <glyph glyph-name="Gcommaaccent" unicode="&#x122;" horiz-adv-x="644" 
d="M461 229c0 14 -0.996094 25.8262 -2.99609 35.4932s-6.33301 17.334 -13 23.001s-15.834 9.83398 -27.501 12.501s-27.167 4.33398 -46.5 5.00098v35h250v-35c-26 -1.33301 -43.333 -7.16602 -52 -17.499s-13 -29.833 -13 -58.5v-189
c-14 -8.66699 -29.667 -16.167 -47 -22.5s-35.5 -11.666 -54.5 -15.999s-38.167 -7.5 -57.5 -9.5s-38.333 -3 -57 -3c-46 0 -87.167 8 -123.5 24s-67.333 39 -93 69s-45.334 66.833 -59.001 110.5s-20.5 93.167 -20.5 148.5c0 56 7.33301 106.333 22 151s35 82.5 61 113.5
s57.167 54.667 93.5 71s76.166 24.5 119.499 24.5c54 0 98.167 -5.16699 132.5 -15.5s60.833 -22.166 79.5 -35.499v-111h-70c-4 18.667 -9 35.334 -15 50.001s-14.5 26.667 -25.5 36s-25.333 16.5 -43 21.5s-39.834 7.5 -66.501 7.5c-34.667 0 -63.834 -8 -87.501 -24
s-42.834 -38.167 -57.501 -66.5s-25.167 -61.833 -31.5 -100.5s-9.5 -81 -9.5 -127s3.16699 -87.5 9.5 -124.5s17.333 -68.667 33 -95s36.334 -46.5 62.001 -60.5s57.834 -21 96.501 -21c49.333 0 87.333 10.333 114 31v163zM423.004 -141.007
c0 -31.333 -10.667 -59.499 -32 -84.499s-53 -41.833 -95 -50.5l-19 27c27.333 8.66699 45.333 17.667 54 27s13 19.666 13 30.999c0 6.66699 -2.16699 11.834 -6.5 15.501s-11.166 7.16699 -20.499 10.5c-8.66699 3.33301 -16 8.66602 -22 15.999s-9 18 -9 32
c0 15.333 6 28.333 18 39s27.667 16 47 16c23.333 0 41.166 -7.33301 53.499 -22s18.5 -33.667 18.5 -57z" />
    <glyph glyph-name="gcommaaccent" unicode="&#x123;" horiz-adv-x="523" 
d="M254 -189c-34.667 0 -65.0039 3.17969 -91.0039 9.5127s-47.833 14.666 -65.5 24.999s-31 22.5 -40 36.5s-13.5 28.667 -13.5 44c0 18 5.5 32.333 16.5 43s22.5 19.667 34.5 27l42 2c-2.66699 -4.66699 -5.16699 -11.834 -7.5 -21.501s-3.5 -19.834 -3.5 -30.501
c0 -28 9 -49.5 27 -64.5s51 -22.5 99 -22.5c26 0 48 2.33301 66 7s32.5 11.167 43.5 19.5s18.833 18.166 23.5 29.499s7 23.666 7 36.999c0 15.333 -2 27.833 -6 37.5s-11.667 17.334 -23 23.001s-27.166 9.66699 -47.499 12s-46.833 3.83301 -79.5 4.5
c-17.333 0.666992 -34.166 1.5 -50.499 2.5s-29.166 2.16699 -38.499 3.5c-22 2.66699 -38.333 11.667 -49 27s-16 32.333 -16 51c0 19.333 8.66699 36.166 26 50.499s39.666 26.166 66.999 35.499c-36.667 8.66699 -65.667 26.167 -87 52.5s-32 56.166 -32 89.499
c0 24 4.33301 46.167 13 66.5s21.167 37.666 37.5 51.999s36.166 25.5 59.499 33.5s49.333 12 78 12c13.333 0 25.833 -0.666992 37.5 -2s25.167 -4.33301 40.5 -9c13.333 -4 26.333 -7.66699 39 -11s24.667 -5 36 -5c15.333 0 29.333 2.83301 42 8.5s25.667 13.167 39 22.5
l34 -65c-11.333 -5.33301 -22.5 -9.66602 -33.5 -12.999s-23.167 -5 -36.5 -5c-19.333 0 -42.666 6.33301 -69.999 19c16.667 -12.667 30.834 -27.834 42.501 -45.501s17.5 -37.834 17.5 -60.501c0 -16.667 -3 -33.5 -9 -50.5s-16.167 -32.833 -30.5 -47.5
s-33.5 -26.834 -57.5 -36.501s-54 -15.5 -90 -17.5c-3.33301 -0.666992 -7 -1 -11 -1h-11c-18 -5.33301 -32.667 -12.5 -44 -21.5s-17 -19.167 -17 -30.5c0 -16.667 12 -25 36 -25h92c29.333 0 55.333 -2.16699 78 -6.5s41.834 -11.833 57.501 -22.5
s27.667 -24.834 36 -42.501s12.5 -39.834 12.5 -66.501c0 -24.667 -5.66699 -46.834 -17 -66.501s-26.833 -36.5 -46.5 -50.5s-43 -24.667 -70 -32s-55.833 -11 -86.5 -11zM242.996 232.013c30 0 52.667 8.83301 68 26.5s23 45.5 23 83.5c0 40 -7.33301 69.333 -22 88
s-38 28 -70 28c-30 0 -52.667 -8.83301 -68 -26.5s-23 -46.5 -23 -86.5c0 -38.667 7.83301 -67.167 23.5 -85.5s38.5 -27.5 68.5 -27.5zM187.996 645.013c0 31.333 10.667 59.499 32 84.499s53 41.833 95 50.5l19 -27c-27.333 -8.66699 -45.333 -17.667 -54 -27
s-13 -19.666 -13 -30.999c0 -6.66699 2.16699 -11.834 6.5 -15.501s11.166 -7.16699 20.499 -10.5c8.66699 -3.33301 16 -8.66602 22 -15.999s9 -18 9 -32c0 -15.333 -6 -28.333 -18 -39s-27.667 -16 -47 -16c-23.333 0 -41.166 7.33301 -53.499 22s-18.5 33.667 -18.5 57z
" />
    <glyph glyph-name="Hcircumflex" unicode="&#x124;" horiz-adv-x="708" 
d="M496 340h-284v-229c0 -14 1 -25.833 3 -35.5s6 -17.334 12 -23.001s14.167 -9.83398 24.5 -12.501s23.833 -4.33398 40.5 -5.00098v-35h-255v35c16.667 0.666992 30.167 2.33398 40.5 5.00098s18.5 6.83398 24.5 12.501s10 13.334 12 23.001s3 21.5 3 35.5v467
c0 14 -1 25.833 -3 35.5s-6 17.334 -12 23.001s-14.167 9.83398 -24.5 12.501s-23.833 4.33398 -40.5 5.00098v35h255v-35c-16.667 -0.666992 -30.167 -2.33398 -40.5 -5.00098s-18.5 -6.83398 -24.5 -12.501s-10 -13.334 -12 -23.001s-3 -21.5 -3 -35.5v-188h284v188
c0 14 -1 25.833 -3 35.5s-6 17.334 -12 23.001s-14.167 9.83398 -24.5 12.501s-23.833 4.33398 -40.5 5.00098v35h255v-35c-16.667 -0.666992 -30.167 -2.33398 -40.5 -5.00098s-18.5 -6.83398 -24.5 -12.501s-10 -13.334 -12 -23.001s-3 -21.5 -3 -35.5v-467
c0 -14 1 -25.833 3 -35.5s6 -17.334 12 -23.001s14.167 -9.83398 24.5 -12.501s23.833 -4.33398 40.5 -5.00098v-35h-255v35c16.667 0.666992 30.167 2.33398 40.5 5.00098s18.5 6.83398 24.5 12.501s10 13.334 12 23.001s3 21.5 3 35.5v229zM354 809l-137 -81l-25 30
l162 149l162 -149l-25 -30z" />
    <glyph glyph-name="hcircumflex" unicode="&#x125;" horiz-adv-x="583" 
d="M190 421c22.667 22.667 46.668 41.998 72.001 57.998s57 24 95 24c40 0 72.5 -11.333 97.5 -34s37.5 -56 37.5 -100v-265c0 -14 0.833008 -25.333 2.5 -34s5 -15.5 10 -20.5s11.667 -8.66699 20 -11s19.166 -3.83301 32.499 -4.5v-34h-226v34c16 0.666992 28.5 2 37.5 4
s16 5.33301 21 10s8.16699 11 9.5 19s2 18 2 30v254c0 30 -6.16699 51.167 -18.5 63.5s-30.5 18.5 -54.5 18.5c-30 0 -55.5 -5.66699 -76.5 -17s-41.5 -26.666 -61.5 -45.999v-273c0 -12 0.666992 -22 2 -30s4.5 -14.333 9.5 -19s12 -8 21 -10s21.5 -3.33301 37.5 -4v-34
h-231v34c14 0.666992 25.667 2.16699 35 4.5s16.5 6 21.5 11s8.5 11.833 10.5 20.5s3 20 3 34v480c0 18 -1.16699 32.5 -3.5 43.5s-6.5 19.5 -12.5 25.5s-13.833 10 -23.5 12s-21.834 3.33301 -36.501 4v32l140 29h15c2.66699 -8 5.33398 -20.667 8.00098 -38
s4 -37.666 4 -60.999v-210zM291.001 836.998l-137 -81l-25 30l162 149l162 -149l-25 -30z" />
    <glyph glyph-name="Hbar" unicode="&#x126;" horiz-adv-x="708" 
d="M47 540h70v38c0 14 -1 25.833 -3 35.5s-6 17.334 -12 23.001s-14.167 9.83398 -24.5 12.501s-23.833 4.33398 -40.5 5.00098v35h255v-35c-16.667 -0.666992 -30.167 -2.33398 -40.5 -5.00098s-18.5 -6.83398 -24.5 -12.501s-10 -13.334 -12 -23.001s-3 -21.5 -3 -35.5
v-38h284v38c0 14 -1 25.833 -3 35.5s-6 17.334 -12 23.001s-14.167 9.83398 -24.5 12.501s-23.833 4.33398 -40.5 5.00098v35h255v-35c-16.667 -0.666992 -30.167 -2.33398 -40.5 -5.00098s-18.5 -6.83398 -24.5 -12.501s-10 -13.334 -12 -23.001s-3 -21.5 -3 -35.5v-38h70
v-46h-70v-383c0 -14 1 -25.833 3 -35.5s6 -17.334 12 -23.001s14.167 -9.83398 24.5 -12.501s23.833 -4.33398 40.5 -5.00098v-35h-255v35c16.667 0.666992 30.167 2.33398 40.5 5.00098s18.5 6.83398 24.5 12.501s10 13.334 12 23.001s3 21.5 3 35.5v229h-284v-229
c0 -14 1 -25.833 3 -35.5s6 -17.334 12 -23.001s14.167 -9.83398 24.5 -12.501s23.833 -4.33398 40.5 -5.00098v-35h-255v35c16.667 0.666992 30.167 2.33398 40.5 5.00098s18.5 6.83398 24.5 12.501s10 13.334 12 23.001s3 21.5 3 35.5v383h-70v46zM496 390v104h-284v-104
h284z" />
    <glyph glyph-name="hbar" unicode="&#x127;" horiz-adv-x="583" 
d="M190 605h163.002v-41h-163v-143c22.667 22.667 46.667 42 72 58s57 24 95 24c40 0 72.5 -11.333 97.5 -34s37.5 -56 37.5 -100v-265c0 -14 0.833008 -25.333 2.5 -34s5 -15.5 10 -20.5s11.667 -8.66699 20 -11s19.166 -3.83301 32.499 -4.5v-34h-226v34
c16 0.666992 28.5 2 37.5 4s16 5.33301 21 10s8.16699 11 9.5 19s2 18 2 30v254c0 30 -6.16699 51.167 -18.5 63.5s-30.5 18.5 -54.5 18.5c-30 0 -55.5 -5.66699 -76.5 -17s-41.5 -26.666 -61.5 -45.999v-273c0 -12 0.666992 -22 2 -30s4.5 -14.333 9.5 -19s12 -8 21 -10
s21.5 -3.33301 37.5 -4v-34h-231v34c14 0.666992 25.667 2.16699 35 4.5s16.5 6 21.5 11s8.5 11.833 10.5 20.5s3 20 3 34v460h-77v41h77c0 14.667 -0.833008 26.167 -2.5 34.5s-5.16699 14.666 -10.5 18.999s-13 7 -23 8s-23.333 1.83301 -40 2.5v32l140 29h15
c3.33301 -8.66699 6.16602 -22.167 8.49902 -40.5s3.5 -37.833 3.5 -58.5v-26z" />
    <glyph glyph-name="Itilde" unicode="&#x128;" horiz-adv-x="329" 
d="M117 578c0 14 -1 25.833 -3 35.5s-6 17.334 -12 23.001s-14.167 9.83398 -24.5 12.501s-23.833 4.33398 -40.5 5.00098v35h255v-35c-16.667 -0.666992 -30.167 -2.33398 -40.5 -5.00098s-18.5 -6.83398 -24.5 -12.501s-10 -13.334 -12 -23.001s-3 -21.5 -3 -35.5v-467
c0 -14 1 -25.833 3 -35.5s6 -17.334 12 -23.001s14.167 -9.83398 24.5 -12.501s23.833 -4.33398 40.5 -5.00098v-35h-255v35c16.667 0.666992 30.167 2.33398 40.5 5.00098s18.5 6.83398 24.5 12.501s10 13.334 12 23.001s3 21.5 3 35.5v467zM233 818
c17.333 0 31.666 4.16797 42.999 12.501s21.333 19.166 30 32.499l36 -14c-8.66699 -25.333 -21.5 -47.5 -38.5 -66.5s-40.5 -28.5 -70.5 -28.5c-17.333 0 -32.166 2.33301 -44.499 7s-23.666 9.66699 -33.999 15l-29.5 15c-9.33301 4.66699 -19.333 7 -30 7
c-19.333 0 -33.833 -4.5 -43.5 -13.5s-18.834 -20.167 -27.501 -33.5l-34 13c7.33301 28 19.166 51.667 35.499 71s39.5 29 69.5 29c16.667 0 30.834 -2.33301 42.501 -7s22.5 -10 32.5 -16s20 -11.333 30 -16s21 -7 33 -7z" />
    <glyph glyph-name="itilde" unicode="&#x129;" horiz-adv-x="286" 
d="M29 0v34c14 0.666992 25.667 2.16699 35 4.5s16.5 6 21.5 11s8.5 11.833 10.5 20.5s3 20 3 34v245c0 18 -1 32.5 -3 43.5s-5.83301 19.5 -11.5 25.5s-13.167 10 -22.5 12s-21.333 3.33301 -36 4v30l149 40h15v-400c0 -14 0.666992 -25.5 2 -34.5s4.5 -16 9.5 -21
s12 -8.5 21 -10.5s21.5 -3.33301 37.5 -4v-34h-231zM187 669c16 0 29.166 3.66797 39.499 11.001s19.166 17.666 26.499 30.999l35 -15c-4 -12.667 -9 -25 -15 -37s-13.167 -22.833 -21.5 -32.5s-17.833 -17.334 -28.5 -23.001s-22.667 -8.5 -36 -8.5
s-25.666 1.5 -36.999 4.5s-22 6.33301 -32 10l-28.5 10c-9 3 -17.833 4.5 -26.5 4.5c-17.333 0 -30.5 -4 -39.5 -12s-17.167 -18.667 -24.5 -32l-33 14c2.66699 14 6.83398 27.333 12.501 40s12.5 23.834 20.5 33.501s17.333 17.5 28 23.5s22.667 9 36 9
s25.5 -1.66699 36.5 -5s21.167 -6.83301 30.5 -10.5l28 -10.5c9.33301 -3.33301 19 -5 29 -5z" />
    <glyph glyph-name="Imacron" unicode="&#x12a;" horiz-adv-x="329" 
d="M117 578c0 14 -1 25.833 -3 35.5s-6 17.334 -12 23.001s-14.167 9.83398 -24.5 12.501s-23.833 4.33398 -40.5 5.00098v35h255v-35c-16.667 -0.666992 -30.167 -2.33398 -40.5 -5.00098s-18.5 -6.83398 -24.5 -12.501s-10 -13.334 -12 -23.001s-3 -21.5 -3 -35.5v-467
c0 -14 1 -25.833 3 -35.5s6 -17.334 12 -23.001s14.167 -9.83398 24.5 -12.501s23.833 -4.33398 40.5 -5.00098v-35h-255v35c16.667 0.666992 30.167 2.33398 40.5 5.00098s18.5 6.83398 24.5 12.501s10 13.334 12 23.001s3 21.5 3 35.5v467zM25 769v57h281v-57h-281z" />
    <glyph glyph-name="imacron" unicode="&#x12b;" horiz-adv-x="286" 
d="M29 0v34c14 0.666992 25.667 2.16699 35 4.5s16.5 6 21.5 11s8.5 11.833 10.5 20.5s3 20 3 34v245c0 18 -1 32.5 -3 43.5s-5.83301 19.5 -11.5 25.5s-13.167 10 -22.5 12s-21.333 3.33301 -36 4v30l149 40h15v-400c0 -14 0.666992 -25.5 2 -34.5s4.5 -16 9.5 -21
s12 -8.5 21 -10.5s21.5 -3.33301 37.5 -4v-34h-231zM4 590v57h238v-57h-238z" />
    <glyph glyph-name="Ibreve" unicode="&#x12c;" horiz-adv-x="329" 
d="M117 578c0 14 -1 25.833 -3 35.5s-6 17.334 -12 23.001s-14.167 9.83398 -24.5 12.501s-23.833 4.33398 -40.5 5.00098v35h255v-35c-16.667 -0.666992 -30.167 -2.33398 -40.5 -5.00098s-18.5 -6.83398 -24.5 -12.501s-10 -13.334 -12 -23.001s-3 -21.5 -3 -35.5v-467
c0 -14 1 -25.833 3 -35.5s6 -17.334 12 -23.001s14.167 -9.83398 24.5 -12.501s23.833 -4.33398 40.5 -5.00098v-35h-255v35c16.667 0.666992 30.167 2.33398 40.5 5.00098s18.5 6.83398 24.5 12.501s10 13.334 12 23.001s3 21.5 3 35.5v467zM165 741
c-18.667 0 -36.6689 4 -54.002 12s-33.333 18.333 -48 31s-27.5 27 -38.5 43s-19.5 31.667 -25.5 47l31 26c20 -24 40.333 -43.5 61 -58.5s45.334 -22.5 74.001 -22.5s53.334 7.5 74.001 22.5s41 34.5 61 58.5l31 -26c-6 -15.333 -14.5 -31 -25.5 -47
s-23.833 -30.333 -38.5 -43s-30.667 -23 -48 -31s-35.333 -12 -54 -12z" />
    <glyph glyph-name="ibreve" unicode="&#x12d;" horiz-adv-x="286" 
d="M29 0v34c14 0.666992 25.667 2.16699 35 4.5s16.5 6 21.5 11s8.5 11.833 10.5 20.5s3 20 3 34v245c0 18 -1 32.5 -3 43.5s-5.83301 19.5 -11.5 25.5s-13.167 10 -22.5 12s-21.333 3.33301 -36 4v30l149 40h15v-400c0 -14 0.666992 -25.5 2 -34.5s4.5 -16 9.5 -21
s12 -8.5 21 -10.5s21.5 -3.33301 37.5 -4v-34h-231zM135 567c-18 0 -35.002 4.16699 -51.002 12.5s-30.667 19 -44 32s-24.833 27.5 -34.5 43.5s-17.167 31.667 -22.5 47l31 22c16 -24 33.5 -43.167 52.5 -57.5s41.167 -21.5 66.5 -21.5s47.333 7.16699 66 21.5
s36.334 33.5 53.001 57.5l32 -22c-5.33301 -15.333 -12.666 -31 -21.999 -47s-20.5 -30.5 -33.5 -43.5s-27.333 -23.667 -43 -32s-32.5 -12.5 -50.5 -12.5z" />
    <glyph glyph-name="Iogonek" unicode="&#x12e;" horiz-adv-x="329" 
d="M291 -168c-12 -11.333 -25.498 -20.332 -40.498 -26.999s-33.167 -10 -54.5 -10c-32 0 -56.333 8 -73 24s-25 36.667 -25 62c0 47.333 28.667 87 86 119h-147v35c16.667 0.666992 30.167 2.33398 40.5 5.00098s18.5 6.83398 24.5 12.501s10 13.334 12 23.001
s3 21.5 3 35.5v467c0 14 -1 25.833 -3 35.5s-6 17.334 -12 23.001s-14.167 9.83398 -24.5 12.501s-23.833 4.33398 -40.5 5.00098v35h255v-35c-16.667 -0.666992 -30.167 -2.33398 -40.5 -5.00098s-18.5 -6.83398 -24.5 -12.501s-10 -13.334 -12 -23.001s-3 -21.5 -3 -35.5
v-467c0 -14 1 -25.833 3 -35.5s6 -17.334 12 -23.001s14.167 -9.83398 24.5 -12.501s23.833 -4.33398 40.5 -5.00098v-35h-19c-16 0 -30 -3 -42 -9s-22 -14 -30 -24s-13.833 -21.333 -17.5 -34s-5.5 -25.334 -5.5 -38.001c0 -15.333 4 -27.833 12 -37.5
s18.667 -14.5 32 -14.5c9.33301 0 17.666 0.833008 24.999 2.5s16.666 5.16699 27.999 10.5z" />
    </font>
</defs>
</svg>
